osu file format v13

[General]
AudioFilename: cvFQ1NPXGRy8.128.mp3
AudioLeadIn: 0
PreviewTime: 525
Countdown: 0
SampleSet: Soft
StackLeniency: 0.7
Mode: 0
LetterboxInBreaks: 0
WidescreenStoryboard: 0

[Editor]
Bookmarks: 2104,10525,18946,27367
DistanceSpacing: 1
BeatDivisor: 4
GridSize: 4
TimelineZoom: 1.9

[Metadata]
Title:sorry asap croissant
TitleUnicode:sorry asap croissant
Artist:nice job bro0o0o0o0o0o0o0
ArtistUnicode:nice job bro0o0o0o0o0o0o0
Creator:brightside
Version:Definitely not a shitmap
Source:
Tags:bubba sparxxx mii soundclown booty
BeatmapID:532838
BeatmapSetID:228874

[Difficulty]
HPDrainRate:7
CircleSize:4
OverallDifficulty:6
ApproachRate:10
SliderMultiplier:1.8
SliderTickRate:1

[Events]
//Background and Video events
0,0,"artworks-000071626416-lcfidw-t500x500.jpg",0,0
//Break Periods
//Storyboard Layer 0 (Background)
//Storyboard Layer 1 (Fail)
//Storyboard Layer 2 (Pass)
//Storyboard Layer 3 (Foreground)
//Storyboard Sound Samples
//Background Colour Transformations
3,100,163,162,255

[TimingPoints]
2104,526.315789473684,4,2,0,90,1,1
10525,-100,4,2,0,90,0,0

[Colours]
Combo1 : 254,1,1
Combo2 : 237,97,237
Combo3 : 51,242,30
Combo4 : 0,255,255

[HitObjects]
108,116,2104,5,0,0:0:0:0:
236,36,2235,1,0,0:0:0:0:
160,244,2367,1,0,0:0:0:0:
332,128,2498,1,0,0:0:0:0:
260,212,2630,2,0,L|340:276,1,90,8|0,0:0|1:0,0:0:0:0:
288,180,3025,1,0,0:0:0:0:
304,324,3156,1,0,0:0:0:0:
432,180,3288,1,0,0:0:0:0:
456,328,3419,1,0,1:0:0:0:
380,300,3551,1,0,0:0:0:0:
368,196,3682,2,0,L|416:140,2,45,8|0|0,0:0|1:0|3:0,0:0:0:0:
116,112,4209,5,0,0:0:0:0:
352,136,4340,1,0,0:0:0:0:
352,240,4472,1,0,0:0:0:0:
204,300,4603,1,0,0:0:0:0:
236,208,4735,1,0,0:0:0:0:
112,236,4998,1,2,1:2:0:0:
208,120,5261,2,0,L|288:44,1,90,0|2,0:0|1:2,0:0:0:0:
296,284,5788,5,0,0:0:0:0:
336,120,5919,1,0,0:0:0:0:
168,192,6051,1,0,0:0:0:0:
392,244,6182,1,0,0:0:0:0:
288,200,6314,5,0,0:0:0:0:
420,164,6446,1,0,0:0:0:0:
364,324,6577,1,0,0:0:0:0:
240,88,6709,1,0,0:0:0:0:
176,304,6840,1,0,0:0:0:0:
88,260,7104,1,0,1:0:0:0:
44,108,7367,2,0,L|104:28,1,90,0|0,0:0|1:0,0:0:0:0:
380,112,7893,5,0,0:0:0:0:
228,184,8025,1,0,0:0:0:0:
304,288,8156,1,0,3:0:0:0:
372,224,8288,1,0,0:0:0:0:
200,80,8419,5,0,0:0:0:0:
184,316,8551,1,0,0:0:0:0:
416,304,8682,1,0,0:0:0:0:
124,248,8814,1,0,0:0:0:0:
300,208,8946,1,0,0:0:0:0:
284,120,9077,1,0,0:0:0:0:
312,296,9209,1,0,1:0:0:0:
128,152,9472,2,0,P|88:104|96:96,1,90
112,92,9998,5,0,0:0:0:0:
56,352,10130,1,0,0:0:0:0:
208,92,10261,1,2,0:0:0:0:
136,352,10393,1,0,0:0:0:0:
336,88,10525,6,0,P|384:116|344:136,1,90
376,220,10919,1,0,0:0:0:0:
160,200,11051,1,0,0:0:0:0:
264,136,11182,1,0,0:0:0:0:
304,344,11314,1,0,0:0:0:0:
212,328,11446,1,0,0:0:0:0:
264,232,11577,1,0,0:0:0:0:
256,76,11840,5,0,0:0:0:0:
416,108,11972,1,0,0:0:0:0:
288,248,12103,1,0,0:0:0:0:
312,160,12235,1,0,0:0:0:0:
420,300,12367,1,0,0:0:0:0:
136,140,12498,1,0,0:0:0:0:
100,240,12630,6,0,B|100:256|112:264|96:276|172:292,1,90
240,116,13156,1,0,0:0:0:0:
348,200,13288,1,0,0:0:0:0:
136,144,13419,1,0,0:0:0:0:
356,320,13551,1,0,0:0:0:0:
248,244,13682,1,0,0:0:0:0:
96,172,13946,1,0,1:0:0:0:
380,72,14209,2,0,L|392:136,2,45,8|0|0,0:0|0:0|3:0,0:0:0:0:
40,32,14735,6,0,L|160:32,1,90,6|2,0:0|0:0,0:0:0:0:
476,352,15261,2,0,L|376:352,1,90,10|0,0:0|1:0,0:0:0:0:
152,192,16314,2,0,L|216:96,1,90,0|0,3:0|3:0,0:0:0:0:
456,344,16840,2,0,B|464:296|432:284|456:248|388:284|368:344|312:132|512:0|248:224|212:120|272:240|140:408|520:336|472:72|472:72,1,585,0|0,0:0|0:0,0:0:0:0:
144,36,18946,5,0,0:0:0:0:
280,296,19077,1,0,0:0:0:0:
192,36,19209,1,0,0:0:0:0:
320,296,19340,1,0,0:0:0:0:
240,36,19472,1,0,0:0:0:0:
368,296,19603,1,0,0:0:0:0:
280,36,19735,1,0,0:0:0:0:
404,296,19867,1,0,0:0:0:0:
312,36,19998,1,0,0:0:0:0:
152,168,20261,2,0,L|80:224,1,90,0|8,1:0|3:2,0:0:0:0:
56,172,20788,5,0,0:0:0:0:
188,248,20919,1,0,0:0:0:0:
88,352,21051,1,0,0:0:0:0:
156,352,21314,2,0,L|272:352,1,90,2|2,0:0|0:0,0:0:0:0:
232,152,21709,5,0,0:0:0:0:
316,296,21840,1,0,1:0:0:0:
328,88,21972,1,0,0:0:0:0:
388,240,22104,2,0,P|436:192|436:136,1,90,0|0,0:0|1:0,0:0:0:0:
424,320,22498,5,0,0:0:0:0:
408,88,22630,2,0,P|360:136|360:192,1,90,8|0,3:2|3:2,0:0:0:0:
148,80,23025,1,0,0:0:0:0:
388,240,23156,6,0,B|364:336|364:336|284:364,1,180,0|8,1:0|0:0,0:0:0:0:
176,348,23814,1,0,0:0:0:0:
292,272,23946,1,0,1:0:0:0:
264,204,24077,1,0,0:0:0:0:
144,288,24209,1,0,0:0:0:0:
256,88,24472,1,0,1:0:0:0:
72,124,24735,2,0,P|31:143|3:177,1,90,8|0,3:2|3:0,0:0:0:0:
120,68,25261,6,0,L|104:116,1,45
204,200,25525,2,0,L|188:248,1,45
300,196,25788,2,0,L|324:240,1,45
376,56,26051,2,0,L|400:104,1,45
200,136,26446,5,0,0:0:0:0:
448,320,26577,1,0,0:0:0:0:
276,316,26709,1,0,0:0:0:0:
352,124,26840,1,0,0:0:0:0:
268,192,26972,1,0,0:0:0:0:
344,244,27103,1,0,0:0:0:0:
72,76,27367,6,0,P|108:84|76:60,2,90,4|0|8,1:2|0:0|0:0,0:0:0:0:
396,140,28156,2,0,B|176:40|320:108,1,180,0|0,1:0|1:0,0:0:0:0:
216,196,28946,5,0,3:2:0:0:
312,308,29077,1,0,3:2:0:0:
432,264,29209,1,0,0:0:0:0:
344,156,29340,5,0,0:0:0:0:
216,196,29472,1,0,0:0:0:0:
432,264,29603,5,0,0:0:0:0:
344,156,29735,1,0,0:0:0:0:
216,196,29867,1,0,0:0:0:0:
108,272,30261,2,0,B|88:44|100:216,1,180,0|0,1:0|1:0,0:0:0:0:
472,300,31051,2,0,L|376:360,1,90,8|0,3:2|3:0,0:0:0:0:
156,188,31577,6,0,B|198:150|162:158|162:158|154:206,2,90,2|2|10,1:2|0:2|0:2,0:0:0:0:
136,212,32367,1,0,1:0:0:0:
256,80,32893,1,0,1:0:0:0:
340,108,33156,2,0,L|388:56,2,45,8|0|0,3:2|3:0|3:0,0:0:0:0:
296,248,33551,5,0,0:0:0:0:
128,108,33682,1,0,0:0:0:0:
408,256,33814,1,0,0:0:0:0:
156,24,33946,1,0,0:0:0:0:
328,120,34077,1,0,0:0:0:0:
420,104,34209,2,0,L|480:28,1,90,10|0,2:0|1:0,0:0:0:0:
100,280,34735,2,0,L|36:352,1,90,2|0,0:0|1:0,0:0:0:0:
456,352,35261,6,0,L|408:312,1,45
44,40,35525,1,0,0:0:0:0:
