osu file format v13

[General]
AudioFilename: cvFQ1NPXGRy8.128.mp3
AudioLeadIn: 0
PreviewTime: 525
Countdown: 0
SampleSet: Soft
StackLeniency: 0.7
Mode: 0
LetterboxInBreaks: 0
WidescreenStoryboard: 1

[Editor]
Bookmarks: 2104,10525,18946,27367
DistanceSpacing: 1.5
BeatDivisor: 8
GridSize: 4
TimelineZoom: 1.9

[Metadata]
Title:sorry asap croissant
TitleUnicode:sorry asap croissant
Artist:nice job bro0o0o0o0o0o0o0
ArtistUnicode:nice job bro0o0o0o0o0o0o0
Creator:Maeglwn
Version:Insane
Source:
Tags:bubba sparxxx mii soundclown booty
BeatmapID:523575
BeatmapSetID:224283

[Difficulty]
HPDrainRate:7
CircleSize:4
OverallDifficulty:8
ApproachRate:9
SliderMultiplier:2.6
SliderTickRate:1

[Events]
//Background and Video events
0,0,"maxresdefault.png",0,0
//Break Periods
//Storyboard Layer 0 (Background)
//Storyboard Layer 1 (Fail)
//Storyboard Layer 2 (Pass)
//Storyboard Layer 3 (Foreground)
//Storyboard Sound Samples

[TimingPoints]
2104.00657894737,526.315789473684,4,2,0,90,1,1
10525,-100,4,2,0,90,0,0

[Colours]
Combo1 : 255,192,0
Combo2 : 176,105,26
Combo3 : 227,172,45
Combo4 : 219,202,108

[HitObjects]
256,192,130,12,4,1577,0:0:0:0:
184,268,2104,5,4,1:0:0:0:
124,144,2367,1,0,0:0:0:0:
224,60,2630,2,0,P|292:52|360:108,1,130,8|0,0:0|1:0,0:0:0:0:
408,196,3156,1,0,0:0:0:0:
244,300,3419,2,0,L|244:376,1,65,0|0,1:0|0:0,0:0:0:0:
164,288,3682,2,0,L|164:188,1,65,8|0,0:0|1:0,0:0:0:0:
84,280,3946,1,0,3:0:0:0:
28,200,4077,1,0,3:0:0:0:
148,52,4209,6,0,B|220:52|220:52|264:104,1,130,0|2,1:0|0:0,0:0:0:0:
352,344,4735,2,0,B|280:344|280:344|236:292,1,130,8|2,0:0|1:2,0:0:0:0:
256,104,5261,2,0,L|256:40,2,65,0|0|2,0:0|0:0|1:2,0:0:0:0:
304,188,5656,1,0,0:0:0:0:
228,248,5788,2,0,P|160:244|100:188,1,130,0|0,1:0|3:0,0:0:0:0:
452,72,6314,6,0,B|472:108|472:108|452:208,1,130,0|0,1:0|0:0,0:0:0:0:
272,360,6840,2,0,B|252:324|252:324|272:224,1,130,8|0,0:0|1:0,0:0:0:0:
292,40,7367,1,0,0:0:0:0:
200,32,7498,1,0,0:0:0:0:
112,76,7630,1,0,1:0:0:0:
80,168,7761,1,0,0:0:0:0:
112,260,7893,2,0,L|52:304,1,65,8|0,0:0|3:0,0:0:0:0:
156,324,8156,2,0,L|228:268,1,65,0|0,3:0|3:0,0:0:0:0:
424,111,8419,6,0,L|476:72,1,65,4|0,1:2|0:0,0:0:0:0:
472,180,8682,2,0,L|419:218,1,65,0|0,2:0|0:0,0:0:0:0:
328,92,8946,1,8,0:0:0:0:
244,44,9077,1,0,0:0:0:0:
148,44,9209,1,0,1:0:0:0:
68,100,9340,1,0,0:0:0:0:
88,300,9472,6,0,L|47:350,1,65,2|0,0:0|0:0,0:0:0:0:
8,260,9735,2,0,L|48:209,1,65,2|0,1:2|0:0,0:0:0:0:
192,308,9998,2,0,L|292:308,1,65,10|0,0:0|0:0,0:0:0:0:
368,168,10261,2,0,L|303:168,1,65,2|0,0:0|0:0,0:0:0:0:
68,100,10525,6,0,B|96:56|156:64|156:64|180:36|180:36,1,130,4|0,0:1|0:0,0:0:0:0:
168,236,11051,2,0,P|116:308|128:352,1,130,8|0,0:0|1:0,0:0:0:0:
216,372,11446,1,0,0:0:0:0:
360,312,11577,2,0,P|416:292|428:272,1,65,2|0,0:0|0:0,0:0:0:0:
420,208,11840,2,0,P|364:228|352:248,1,65,0|0,1:0|0:0,0:0:0:0:
272,272,12104,1,10,3:2:0:0:
108,168,12367,1,0,3:0:0:0:
284,88,12630,6,0,B|312:56|312:56|364:104|416:64,1,130,0|0,1:0|0:0,0:0:0:0:
476,128,13025,1,0,0:0:0:0:
420,208,13156,2,0,P|420:248|400:288,1,65,8|0,0:0|0:0,0:0:0:0:
332,328,13419,2,0,P|332:288|352:248,1,65,0|0,1:0|0:0,0:0:0:0:
400,92,13682,2,0,L|440:28,2,65,0|0|0,0:0|0:0|1:0,0:0:0:0:
208,316,14209,2,0,B|144:304|120:352|120:352|80:336,1,130,8|0,0:0|3:0,0:0:0:0:
116,192,14604,1,0,3:0:0:0:
208,76,14735,6,0,B|264:36|264:36|344:40,1,130,6|2,0:0|0:0,0:0:0:0:
412,84,15130,1,0,0:0:0:0:
464,164,15261,2,0,L|492:228,1,65,10|0,0:0|0:0,0:0:0:0:
432,304,15525,2,0,L|404:240,1,65,0|0,1:0|0:0,0:0:0:0:
48,64,16051,1,0,0:0:0:0:
128,16,16182,1,0,0:0:0:0:
208,76,16314,2,0,P|232:92|248:132,1,65,0|0,3:0|3:0,0:0:0:0:
192,204,16577,2,0,P|168:188|152:148,1,65,0|0,3:0|3:0,0:0:0:0:
344,68,16840,6,0,B|376:64|376:64|432:32|496:72,1,130,4|2,1:2|0:0,0:0:0:0:
428,156,17235,1,0,0:0:0:0:
392,248,17367,2,0,B|360:252|360:252|304:284|240:244,1,130,8|0,0:2|1:2,0:0:0:0:
260,148,17761,1,0,0:0:0:0:
88,72,17893,2,0,P|52:104|44:136,1,65,2|2,0:0|0:0,0:0:0:0:
108,248,18156,2,0,P|144:216|152:184,1,65,2|2,1:2|0:0,0:0:0:0:
256,48,18419,2,0,L|256:116,1,65,10|2,3:2|0:0,0:0:0:0:
256,324,18682,2,0,L|256:256,1,65,2|2,3:2|0:0,0:0:0:0:
168,48,18946,6,0,B|84:72|84:72|168:160|36:180,1,195,4|0,1:2|0:0,0:0:0:0:
108,248,19472,2,0,P|60:290|53:353,1,130,8|0,0:0|1:0,0:0:0:0:
204,232,19998,2,0,L|204:156,1,65,2|0,0:0|0:0,0:0:0:0:
284,232,20261,2,0,L|284:328,1,65,0|0,1:0|0:0,0:0:0:0:
448,344,20525,2,8,P|488:292|492:272,1,65,8|0,3:2|3:2,0:0:0:0:
476,128,20788,2,0,P|436:180|432:200,1,65,0|0,3:2|3:2,0:0:0:0:
356,328,21051,5,2,1:2:0:0:
160,324,21314,1,2,0:0:0:0:
256,156,21577,1,10,0:0:0:0:
308,76,21709,2,0,P|360:28|388:28,1,65,0|0,0:0|1:0,0:0:0:0:
448,40,21972,1,0,0:0:0:0:
472,208,22104,2,0,P|484:256|472:292,1,65,2|0,0:0|0:0,0:0:0:0:
396,320,22367,2,0,P|384:272|396:236,1,65,0|0,1:0|0:0,0:0:0:0:
348,168,22630,1,8,3:2:0:0:
184,60,22893,1,0,3:2:0:0:
20,272,23156,6,0,P|88:336|148:336,1,130,0|2,1:0|0:0,0:0:0:0:
200,284,23551,1,0,0:0:0:0:
280,340,23682,2,0,L|336:288,1,65,8|0,0:0|0:0,0:0:0:0:
396,228,23946,1,0,1:0:0:0:
256,60,24472,1,0,1:0:0:0:
168,108,24604,1,0,0:0:0:0:
80,156,24735,2,0,L|36:216,1,65,8|0,3:2|3:0,0:0:0:0:
84,296,24998,2,0,L|128:236,1,65,0|0,3:0|3:0,0:0:0:0:
256,60,25261,6,0,B|308:48|308:48|336:72|360:108|412:40,1,130,4|0,0:0|0:0,0:0:0:0:
436,148,25656,1,0,0:0:0:0:
484,232,25788,2,0,L|520:300,1,65,8|0,0:0|0:0,0:0:0:0:
464,372,26051,2,0,L|428:304,1,65,0|0,1:0|0:0,0:0:0:0:
436,148,26314,2,0,P|412:104|420:68,1,65,2|0,0:0|0:0,0:0:0:0:
256,192,26577,2,0,P|280:236|272:272,1,65,2|0,1:2|0:0,0:0:0:0:
100,344,26840,2,0,L|160:284,1,65,10|0,3:2|3:0,0:0:0:0:
368,100,27104,2,0,L|308:160,1,65,2|0,3:2|3:0,0:0:0:0:
104,180,27367,6,0,B|40:136|40:136|28:80,1,130,4|0,1:2|0:0,0:0:0:0:
124,36,27761,1,0,0:0:0:0:
227,52,27893,2,0,B|291:96|291:96|303:152,1,130,8|0,0:0|1:0,0:0:0:0:
100,344,28419,2,0,L|192:344,1,65
264,344,28682,1,0,1:0:0:0:
492,96,28946,2,0,L|400:96,1,65,8|0,3:2|3:0,0:0:0:0:
328,96,29209,1,0,3:0:0:0:
84,148,29472,6,0,B|128:84|128:84|184:72,1,130,0|0,1:0|0:0,0:0:0:0:
201,171,29866,1,0,0:0:0:0:
212,270,29998,2,0,B|168:334|168:334|112:346,1,130,8|0,0:0|1:0,0:0:0:0:
476,56,30524,2,0,B|440:46|440:46|384:56,1,65
315,55,30787,1,0,1:0:0:0:
52,268,31051,2,0,B|88:278|88:278|144:268,1,65,8|0,3:2|0:0,0:0:0:0:
212,269,31314,1,0,3:0:0:0:
309,269,31446,1,0,3:0:0:0:
404,144,31577,6,0,L|404:68,1,65,2|0,1:2|0:0,0:0:0:0:
316,124,31840,2,0,L|316:200,1,65,2|0,0:2|0:0,0:0:0:0:
236,132,32104,2,0,L|236:56,1,65,10|0,0:2|0:0,0:0:0:0:
144,99,32367,1,0,1:0:0:0:
252,336,32630,1,0,0:0:0:0:
252,336,32761,1,0,0:0:0:0:
252,336,32893,1,0,1:0:0:0:
396,204,33156,1,8,3:2:0:0:
396,204,33288,1,0,3:0:0:0:
396,204,33419,1,0,3:0:0:0:
80,40,33682,6,0,B|40:92|40:92|60:188,1,130,4|0,1:2|0:0,0:0:0:0:
76,312,34077,1,0,0:0:0:0:
224,256,34209,2,0,B|264:204|264:204|244:108,1,130,10|0,2:0|1:0,0:0:0:0:
292,0,34604,1,0,0:0:0:0:
440,56,34736,2,0,B|480:108|480:108|460:204,1,130,2|0,0:0|1:0,0:0:0:0:
428,260,35130,1,0,0:0:0:0:
256,192,35261,5,2,0:0:0:0:
