osu file format v13

[General]
AudioFilename: cvFQ1NPXGRy8.128.mp3
AudioLeadIn: 0
PreviewTime: 525
Countdown: 0
SampleSet: Soft
StackLeniency: 0.7
Mode: 0
LetterboxInBreaks: 0
WidescreenStoryboard: 1

[Editor]
Bookmarks: 2104,10525,18946,27367
DistanceSpacing: 1.5
BeatDivisor: 8
GridSize: 4
TimelineZoom: 1.9

[Metadata]
Title:sorry asap croissant
TitleUnicode:sorry asap croissant
Artist:nice job bro0o0o0o0o0o0o0
ArtistUnicode:nice job bro0o0o0o0o0o0o0
Creator:Maeglwn
Version:Hard
Source:
Tags:bubba sparxxx mii soundclown booty
BeatmapID:525317
BeatmapSetID:224283

[Difficulty]
HPDrainRate:6
CircleSize:3.5
OverallDifficulty:7
ApproachRate:8
SliderMultiplier:2.2
SliderTickRate:1

[Events]
//Background and Video events
0,0,"maxresdefault.png",0,0
//Break Periods
//Storyboard Layer 0 (Background)
//Storyboard Layer 1 (Fail)
//Storyboard Layer 2 (Pass)
//Storyboard Layer 3 (Foreground)
//Storyboard Sound Samples

[TimingPoints]
2104,526.315789473684,4,2,0,90,1,1
10525,-100,4,2,0,90,0,0

[Colours]
Combo1 : 255,192,0
Combo2 : 176,105,26
Combo3 : 227,172,45
Combo4 : 219,202,108

[HitObjects]
256,192,130,12,0,1577,0:0:0:0:
308,100,2104,6,0,B|256:84|256:84|200:100,1,110,4|0,0:0|0:0,0:0:0:0:
112,160,2630,1,8,0:0:0:0:
204,220,2893,2,0,B|256:236|256:236|312:220,1,110,0|0,1:0|0:0,0:0:0:0:
400,160,3419,1,0,1:0:0:0:
332,72,3682,2,0,L|240:72,3,55,8|0|0|0,0:0|1:0|3:0|3:0,0:0:0:0:
164,72,4209,6,0,P|108:96|80:152,2,110,0|2|8,1:0|0:0|0:0,0:0:0:0:
184,180,4998,1,2,1:2:0:0:
244,272,5261,1,0,0:0:0:0:
260,296,5393,1,0,0:0:0:0:
276,320,5525,1,2,1:2:0:0:
384,332,5788,2,0,P|428:304|456:224,1,110,0|0,1:0|3:0,0:0:0:0:
344,64,6314,6,0,P|294:44|244:63,1,110,0|0,1:0|0:0,0:0:0:0:
192,160,6840,2,0,P|241:179|291:160,1,110,8|0,0:0|1:0,0:0:0:0:
400,152,7367,2,0,L|472:152,3,55,0|0|0|0,0:0|0:0|1:0|0:0,0:0:0:0:
495,187,7893,2,0,P|512:239|495:291,1,110,8|0,0:0|3:0,0:0:0:0:
280,244,8419,6,0,L|208:244,3,55,4|0|0|0,2:0|0:0|0:0|0:0,0:0:0:0:
184,208,8945,2,0,P|167:156|184:104,1,110,8|0,0:0|1:0,0:0:0:0:
300,44,9472,2,0,L|356:44,1,55,2|0,0:0|0:0,0:0:0:0:
396,116,9735,2,0,L|484:116,1,55,2|0,1:2|0:0,0:0:0:0:
452,200,9998,2,0,L|397:200,1,55,10|0,0:0|0:0,0:0:0:0:
348,268,10261,2,0,L|293:268,1,55,2|0,0:0|0:0,0:0:0:0:
180,244,10525,6,0,B|120:224|120:224|152:136|104:72,2,220,4|8|2,0:1|0:0|0:0,0:0:0:0:
284,272,11840,1,0,1:0:0:0:
384,224,12104,1,10,3:2:0:0:
292,168,12367,1,0,3:0:0:0:
284,272,12630,5,0,1:0:0:0:
72,340,12893,2,0,L|32:272,1,55,0|0,0:0|0:0,0:0:0:0:
36,240,13156,1,8,0:0:0:0:
36,212,13288,1,0,0:0:0:0:
36,184,13419,1,0,1:0:0:0:
88,88,13682,2,0,P|132:80|164:88,2,55,0|0|0,0:0|0:0|1:0,0:0:0:0:
132,188,14209,2,0,P|168:244|224:272,1,110,8|0,0:0|3:0,0:0:0:0:
312,72,14735,5,6,0:0:0:0:
416,112,14998,1,2,0:0:0:0:
416,140,15130,1,0,0:0:0:0:
416,168,15261,1,10,0:0:0:0:
416,196,15393,1,0,0:0:0:0:
416,224,15525,2,0,P|400:288|360:316,1,110,0|0,1:0|0:0,0:0:0:0:
268,268,16051,5,0,0:0:0:0:
268,240,16183,1,0,0:0:0:0:
268,212,16314,1,0,3:0:0:0:
268,184,16446,1,0,3:0:0:0:
268,156,16578,2,0,P|284:92|324:64,1,110,0|0,3:0|0:0,0:0:0:0:
416,196,17104,6,0,L|468:252,1,55,2|0,0:0|0:0,0:0:0:0:
472,288,17367,2,0,P|440:344|360:356,1,110,8|2,0:0|1:2,0:0:0:0:
368,256,17893,2,0,L|300:188,3,55,2|2|2|2,0:0|0:0|1:2|0:0,0:0:0:0:
288,176,18419,2,0,L|244:128,3,55,2|2|2|2,3:2|0:0|3:2|0:0,0:0:0:0:
180,56,18946,6,0,B|112:48|112:48|112:104|40:120,1,165,4|0,1:2|0:0,0:0:0:0:
28,164,19472,2,0,B|40:248|40:248|96:220|104:256,1,110,8|0,0:0|1:0,0:0:0:0:
164,196,19998,2,0,P|236:168|292:184,1,110,2|0,0:0|1:0,0:0:0:0:
340,256,20525,2,0,P|268:284|212:268,1,110,8|0,3:2|3:2,0:0:0:0:
36,192,21051,6,0,B|0:136|72:136|32:64,2,110,2|2|10,1:2|0:0|0:0,0:0:0:0:
64,240,21709,2,0,L|108:312,1,55,0|0,0:0|1:0,0:0:0:0:
164,204,22104,2,0,L|248:204,2,55,0|0|0,0:0|0:0|1:0,0:0:0:0:
144,308,22630,2,0,P|98:287|60:220,1,110,8|0,3:2|3:2,0:0:0:0:
236,64,23156,5,0,1:0:0:0:
344,92,23419,1,2,0:0:0:0:
368,104,23551,1,0,0:0:0:0:
384,124,23682,1,8,0:0:0:0:
392,152,23814,1,0,0:0:0:0:
392,180,23946,1,0,1:0:0:0:
248,344,24472,1,0,1:0:0:0:
160,276,24735,2,0,L|105:265,3,55,8|0|0|0,3:2|3:0|3:0|3:0,0:0:0:0:
64,160,25261,6,0,P|76:92|148:64,1,110,4|0,0:0|0:0,0:0:0:0:
220,64,25788,2,0,P|208:132|136:160,1,110,8|0,0:0|1:0,0:0:0:0:
108,240,26314,2,0,L|236:240,1,110,2|2,0:0|1:2,0:0:0:0:
328,236,26840,1,10,3:2:0:0:
356,236,26972,1,0,3:0:0:0:
384,236,27104,1,2,3:2:0:0:
512,60,27367,6,0,P|448:16|400:8,1,110,4|0,1:2|0:0,0:0:0:0:
396,24,27761,1,0,0:0:0:0:
372,40,27893,1,8,0:0:0:0:
284,108,28156,1,0,1:0:0:0:
200,180,28419,2,0,L|120:244,1,55,0|0,0:0|0:0,0:0:0:0:
116,252,28682,1,0,1:0:0:0:
212,308,28946,2,0,L|292:244,1,55,8|0,3:2|3:0,0:0:0:0:
296,236,29209,1,0,3:0:0:0:
460,80,29472,5,0,1:0:0:0:
460,80,29735,2,0,L|372:48,1,55,0|0,0:0|0:0,0:0:0:0:
356,44,29998,1,8,0:0:0:0:
248,72,30261,1,0,1:0:0:0:
156,132,30525,1,0,0:0:0:0:
132,148,30656,1,0,0:0:0:0:
108,164,30788,1,0,1:0:0:0:
128,328,31051,1,8,3:2:0:0:
152,312,31182,1,0,3:0:0:0:
176,296,31314,1,0,3:0:0:0:
348,120,31577,5,2,1:2:0:0:
424,196,31840,2,0,L|444:132,1,55,2|0,0:2|0:0,0:0:0:0:
456,92,32104,1,10,0:2:0:0:
348,120,32367,1,0,1:0:0:0:
240,96,32630,2,0,L|172:68,2,55,0|0|0,0:0|0:0|1:0,0:0:0:0:
148,160,33156,2,0,L|216:188,2,55,8|0|0,3:2|3:0|3:0,0:0:0:0:
312,312,33682,6,0,P|392:308|432:256,1,110,4|0,1:2|0:0,0:0:0:0:
344,204,34209,2,0,P|340:124|288:84,1,110,10|0,2:0|1:0,0:0:0:0:
232,164,34735,2,0,P|152:168|112:220,1,110,2|0,0:0|1:0,0:0:0:0:
204,268,35261,5,2,0:0:0:0:
