osu file format v12

[General]
AudioFilename: niMusica - Nicepatchad (Bikini Trollz).mp3
AudioLeadIn: 0
PreviewTime: 7205
Countdown: 1
SampleSet: Normal
StackLeniency: 0.7
Mode: 0
LetterboxInBreaks: 1
WidescreenStoryboard: 0

[Editor]
Bookmarks: 60538,92538
DistanceSpacing: 1.3
BeatDivisor: 4
GridSize: 8

[Metadata]
Title:Nicepatchad (Bikini Trollz)
TitleUnicode:Nicepatchad (Bikini Trollz)
Artist:niMusica
ArtistUnicode:niMusica
Creator:BuBBLe1q
Version:Hard
Source:Ninel Pofig
Tags:dance nifedow happy
BeatmapID:260749
BeatmapSetID:96952

[Difficulty]
HPDrainRate:7
CircleSize:4
OverallDifficulty:7
ApproachRate:7
SliderMultiplier:1.3
SliderTickRate:1

[Events]
//Background and Video events
0,0,"104373.24685._1b.jpg",0,0
//Break Periods
2,25183,31861
//Storyboard Layer 0 (Background)
//Storyboard Layer 1 (Fail)
//Storyboard Layer 2 (Pass)
//Storyboard Layer 3 (Foreground)
//Storyboard Sound Samples
//Background Colour Transformations
3,100,163,162,255

[TimingPoints]
7205.65488408905,444.444444444444,4,1,0,100,1,0
13872,-100,4,1,0,5,0,0
15538,-100,4,1,0,41,0,0
15761,-100,4,1,0,5,0,0
16205,-100,4,1,0,100,0,0
17872,-100,4,1,0,100,0,1
24872,-100,4,1,0,100,0,0
64094,-100,4,1,0,40,0,1
71205,-100,4,1,0,40,0,0
92538,-100,4,1,0,100,0,0

[HitObjects]
96,312,3650,1,0,0:0:0:0:
96,312,3872,1,0,0:0:0:0:
416,80,4538,1,0,0:0:0:0:
416,80,4761,1,0,0:0:0:0:
286,80,5205,2,0,P|227:162|208:272,1,195
207,317,6094,2,0,P|176:248|72:160,1,195
89,168,6983,1,0,0:0:0:0:
89,168,7205,5,0,0:0:0:0:
148,108,7427,2,0,P|165:98|181:66,1,32.5
257,88,7761,2,0,P|289:72|297:56,1,32.5
328,75,7983,2,0,P|360:83|384:67,1,32.5
418,142,8316,1,0,0:0:0:0:
310,186,8538,1,0,0:0:0:0:
429,305,8983,5,0,0:0:0:0:
344,305,9205,2,0,P|307:317|291:309,1,32.5
230,317,9538,2,0,P|199:325|191:317,1,32.5
157,253,9872,2,0,P|129:211|201:91,1,195
263,132,10761,5,0,0:0:0:0:
322,72,10983,2,0,P|354:64|354:72,1,32.5
400,111,11316,2,0,P|432:126|432:134,1,32.5
368,178,11650,1,0,0:0:0:0:
308,237,11872,1,0,0:0:0:0:
223,237,12094,1,0,0:0:0:0:
223,68,12538,6,0,P|179:35|35:59,1,195
46,133,13427,1,0,0:0:0:0:
165,252,13872,1,0,0:0:0:0:
333,252,14316,1,0,0:0:0:0:
452,132,14761,1,0,0:0:0:0:
332,251,15205,1,0,0:0:0:0:
162,251,15650,1,8,0:0:0:0:
42,131,16094,1,0,0:0:0:0:
188,46,16538,1,0,0:0:0:0:
307,165,16983,5,0,0:0:0:0:
307,165,17094,1,0,0:0:0:0:
307,165,17205,1,0,0:0:0:0:
366,105,17427,1,0,0:0:0:0:
425,45,17650,2,0,L|385:37,2,32.5
425,129,18094,5,0,0:0:0:0:
425,213,18316,1,8,0:0:0:0:
275,291,18761,2,0,P|240:264|136:224,1,130,0|8,0:0|0:0,0:0:0:0:
102,169,19427,1,0,0:0:0:0:
102,169,19538,1,0,0:0:0:0:
102,169,19650,1,0,0:0:0:0:
161,109,19872,1,0,0:0:0:0:
245,109,20094,1,8,0:0:0:0:
245,109,20316,2,0,P|280:104|312:104,1,65
389,132,20761,6,0,L|416:168,2,32.5,0|0|8,0:0|0:0|0:0,0:0:0:0:
329,72,21205,1,0,0:0:0:0:
329,72,21427,1,0,0:0:0:0:
224,144,21761,1,0,0:0:0:0:
134,54,22094,2,0,P|112:104|112:136,1,65
143,191,22538,1,0,0:0:0:0:
143,191,22650,1,0,0:0:0:0:
143,191,22761,1,8,0:0:0:0:
202,250,22983,5,0,0:0:0:0:
261,309,23205,1,0,0:0:0:0:
320,249,23427,1,0,0:0:0:0:
260,189,23650,1,0,0:0:0:0:
259,249,23872,2,0,L|259:169,1,65
343,184,24316,5,2,0:0:0:0:
323,146,24427,1,2,0:0:0:0:
293,116,24538,1,2,0:0:0:0:
212,86,24761,5,2,0:0:0:0:
169,86,24872,1,2,0:0:0:0:
128,98,24983,1,10,0:0:0:0:
48,176,32761,6,0,P|72:136|112:128,1,65
171,129,33205,1,0,0:0:0:0:
255,129,33427,1,8,0:0:0:0:
339,129,33650,2,0,P|378:151|392:184,1,65
315,211,34094,1,0,0:0:0:0:
255,270,34316,1,8,0:0:0:0:
195,210,34538,1,0,0:0:0:0:
135,269,34761,1,0,0:0:0:0:
75,209,34983,2,0,P|43:141|48:80,1,130,0|8,0:0|0:0,0:0:0:0:
256,192,35650,12,0,36538,0:0:0:0:
80,72,36983,5,8,0:0:0:0:
208,144,37205,1,0,0:0:0:0:
452,74,37872,1,8,0:0:0:0:
312,144,38094,1,0,0:0:0:0:
256,344,38761,1,8,0:0:0:0:
256,200,38983,1,0,0:0:0:0:
147,91,39872,5,0,0:0:0:0:
224,56,40094,1,0,0:0:0:0:
299,92,40316,1,0,0:0:0:0:
239,151,40538,2,0,P|288:176|288:192,1,65,8|0,0:0|0:0,0:0:0:0:
348,238,40983,2,0,P|376:208|400:200,1,65
397,115,41427,2,0,P|360:128|336:104,1,65,8|0,0:0|0:0,0:0:0:0:
259,136,41872,2,0,P|280:160|256:200,1,65
209,252,42316,1,8,0:0:0:0:
209,252,42538,1,0,0:0:0:0:
209,252,42761,1,0,0:0:0:0:
127,273,42983,5,0,0:0:0:0:
127,273,43094,1,0,0:0:0:0:
127,273,43205,1,8,0:0:0:0:
90,196,43427,1,0,0:0:0:0:
137,126,43650,1,0,0:0:0:0:
137,126,43761,1,0,0:0:0:0:
137,126,43872,1,0,0:0:0:0:
196,185,44094,2,0,P|248:168|288:96,1,130,8|0,0:0|0:0,0:0:0:0:
368,104,44761,5,0,0:0:0:0:
368,104,44872,1,0,0:0:0:0:
368,104,44983,1,8,0:0:0:0:
414,174,45205,1,0,0:0:0:0:
354,233,45427,1,0,0:0:0:0:
354,233,45538,1,0,0:0:0:0:
354,233,45650,1,0,0:0:0:0:
307,162,45872,2,0,P|288:128|184:88,1,130,8|0,0:0|0:0,0:0:0:0:
224,168,46538,5,2,0:0:0:0:
164,227,46761,1,0,0:0:0:0:
209,298,46983,1,2,0:0:0:0:
268,238,47205,2,0,P|310:211|345:207,1,65,0|2,0:0|0:0,0:0:0:0:
384,267,47650,6,0,P|409:236|409:184,1,65
377,135,48094,1,0,0:0:0:0:
317,75,48316,1,2,0:0:0:0:
236,100,48538,1,0,0:0:0:0:
296,160,48761,2,0,P|264:184|176:160,1,130,2|2,0:0|0:0,0:0:0:0:
121,106,49427,5,0,0:0:0:0:
61,165,49650,1,2,0:0:0:0:
99,240,49872,1,0,0:0:0:0:
160,184,50094,2,0,P|184:216|160:296,1,130,2|2,0:0|0:0,0:0:0:0:
244,295,50761,2,0,P|232:256|240:232,1,65,0|2,0:0|0:0,0:0:0:0:
319,260,51205,5,0,0:0:0:0:
378,200,51427,1,0,0:0:0:0:
415,123,51650,1,0,0:0:0:0:
328,128,51872,2,0,P|272:88|192:112,1,130,2|2,0:0|0:0,0:0:0:0:
256,168,52538,1,0,0:0:0:0:
304,240,52761,5,2,0:0:0:0:
232,288,52983,1,0,0:0:0:0:
152,304,53205,1,2,0:0:0:0:
176,224,53427,5,0,0:0:0:0:
176,224,53538,1,0,0:0:0:0:
176,224,53650,1,2,0:0:0:0:
16,169,54094,6,0,P|32:105|96:73,1,130,2|2,0:0|0:0,0:0:0:0:
104,160,54761,1,0,0:0:0:0:
163,100,54983,1,0,0:0:0:0:
222,159,55205,1,0,0:0:0:0:
257,82,55427,2,0,P|303:119|296:200,1,130,2|2,0:0|0:0,0:0:0:0:
336,264,56094,1,0,0:0:0:0:
424,305,56316,6,0,P|436:252|508:204,1,130,2|2,0:0|0:0,0:0:0:0:
459,129,56983,1,0,0:0:0:0:
376,112,57205,2,0,P|327:150|295:222,1,130,2|2,0:0|0:0,0:0:0:0:
237,269,57872,1,0,0:0:0:0:
177,209,58094,1,2,0:0:0:0:
236,149,58316,6,0,P|160:128|104:168,1,130
58,90,58983,2,0,P|124:50|200:48,1,130,2|2,0:0|0:0,0:0:0:0:
326,120,59872,1,2,0:0:0:0:
206,239,60316,1,2,0:0:0:0:
256,192,60538,12,0,62316,0:0:0:0:
256,192,62761,5,0,0:0:0:0:
256,192,62983,1,0,0:0:0:0:
196,132,63205,1,0,0:0:0:0:
196,132,63427,1,0,0:0:0:0:
136,191,63650,1,0,0:0:0:0:
136,192,63872,1,0,0:0:0:0:
192,256,64094,5,0,0:0:0:0:
256,192,64316,1,0,0:0:0:0:
311,136,64538,2,0,P|336:144|344:192,1,65,8|0,0:0|0:0,0:0:0:0:
409,238,64983,1,0,0:0:0:0:
349,297,65205,1,0,0:0:0:0:
316,218,65427,2,0,P|276:250|268:290,1,65,8|0,0:0|0:0,0:0:0:0:
186,261,65872,6,0,P|176:224|128:216,1,65
104,280,66316,1,8,0:0:0:0:
44,220,66538,1,0,0:0:0:0:
128,200,66761,2,0,P|152:168|152:128,1,65
192,224,67205,2,0,P|232:264|240:296,1,65,8|0,0:0|0:0,0:0:0:0:
294,210,67650,5,0,0:0:0:0:
204,120,67983,1,8,0:0:0:0:
328,88,68316,2,0,L|400:120,1,65
413,232,68872,1,0,0:0:0:0:
368,160,69205,2,0,P|336:176|304:168,1,65
248,230,69650,1,0,0:0:0:0:
228,254,69872,1,0,0:0:0:0:
208,280,70094,1,0,0:0:0:0:
184,312,70316,2,0,P|144:336|104:336,1,65
126,253,70761,5,0,0:0:0:0:
66,193,70983,1,0,0:0:0:0:
125,133,71205,1,0,0:0:0:0:
184,192,71427,2,0,P|232:176|264:192,1,65
304,119,71872,2,0,P|344:112|376:88,1,65
424,159,72316,2,0,P|456:192|448:224,1,65
373,231,72761,5,0,0:0:0:0:
313,290,72983,1,0,0:0:0:0:
231,311,73205,1,0,0:0:0:0:
146,311,73427,1,0,0:0:0:0:
67,280,73650,1,0,0:0:0:0:
7,220,73872,1,0,0:0:0:0:
56,152,74094,1,0,0:0:0:0:
56,152,74205,1,0,0:0:0:0:
56,152,74316,1,0,0:0:0:0:
130,191,74538,6,0,P|192:208|216:200,1,65
275,208,74983,2,0,P|304:192|344:144,1,65
407,146,75427,2,0,P|456:120|472:96,1,65
401,53,75872,1,0,0:0:0:0:
401,53,75983,1,0,0:0:0:0:
401,53,76094,1,0,0:0:0:0:
320,78,76316,1,0,0:0:0:0:
320,78,76427,1,0,0:0:0:0:
320,78,76538,1,0,0:0:0:0:
238,103,76761,1,0,0:0:0:0:
238,103,76872,1,0,0:0:0:0:
238,103,76983,1,0,0:0:0:0:
160,70,77205,5,0,0:0:0:0:
160,70,77316,1,0,0:0:0:0:
160,70,77427,1,0,0:0:0:0:
77,52,77650,1,0,0:0:0:0:
77,52,77761,1,0,0:0:0:0:
77,52,77872,1,0,0:0:0:0:
46,130,78094,2,0,P|80:168|120:184,1,65
151,234,78538,5,0,0:0:0:0:
210,293,78761,1,0,0:0:0:0:
269,233,78983,1,0,0:0:0:0:
352,217,79205,2,0,P|384:232|392:272,1,65
320,304,79650,1,0,0:0:0:0:
400,336,79872,1,0,0:0:0:0:
459,276,80094,2,0,P|480:240|480:208,1,65
424,160,80538,2,0,P|408:128|416:88,1,65
336,64,80983,5,0,0:0:0:0:
276,123,81205,1,0,0:0:0:0:
196,93,81427,1,0,0:0:0:0:
208,176,81650,2,0,P|192:208|144:224,1,65
227,282,82094,2,0,P|217:314|241:358,1,65
304,312,82538,1,0,0:0:0:0:
288,232,82761,1,0,0:0:0:0:
200,232,82983,1,0,0:0:0:0:
160,304,83205,1,0,0:0:0:0:
88,256,83427,1,0,0:0:0:0:
48,176,83650,6,0,P|64:120|88:112,1,65
136,168,84094,2,0,P|168:128|168:104,1,65
112,56,84538,1,0,0:0:0:0:
266,124,84983,2,0,P|312:112|352:120,1,65
360,192,85427,2,0,P|408:176|448:184,1,65
456,256,85872,5,0,0:0:0:0:
400,320,86094,1,0,0:0:0:0:
320,328,86316,1,0,0:0:0:0:
264,264,86538,1,0,0:0:0:0:
192,224,86761,2,0,P|152:200|112:192,1,65
50,194,87205,2,0,P|40:152|56:112,1,65
56,88,87538,1,0,0:0:0:0:
96,64,87650,1,0,0:0:0:0:
176,40,87872,1,0,0:0:0:0:
256,64,88094,1,0,0:0:0:0:
194,221,88538,5,0,0:0:0:0:
248,288,88761,1,0,0:0:0:0:
320,240,88983,1,0,0:0:0:0:
264,176,89205,2,0,L|296:104,1,65
376,112,89650,1,0,0:0:0:0:
328,40,89872,1,0,0:0:0:0:
240,40,90094,1,0,0:0:0:0:
168,80,90316,2,0,P|136:96|112:144,1,65
256,192,90761,12,0,92538,0:0:0:0:
256,192,92983,5,0,0:0:0:0:
400,96,93427,1,0,0:0:0:0:
400,265,93872,1,0,0:0:0:0:
320,296,94094,1,0,0:0:0:0:
320,296,94205,1,0,0:0:0:0:
320,296,94316,1,0,0:0:0:0:
240,312,94538,2,0,P|192:312|152:288,1,65
104,256,94983,1,0,0:0:0:0:
96,168,95205,1,0,0:0:0:0:
155,108,95427,5,0,0:0:0:0:
155,108,95538,1,0,0:0:0:0:
155,108,95650,1,0,0:0:0:0:
232,144,95872,1,0,0:0:0:0:
312,184,96094,1,0,0:0:0:0:
416,256,96427,1,0,0:0:0:0:
456,144,96761,1,0,0:0:0:0:
456,144,96983,1,0,0:0:0:0:
392,88,97205,2,0,P|344:64|304:64,1,65
248,56,97650,6,0,P|192:48|160:56,1,65
112,88,98094,1,0,0:0:0:0:
72,160,98316,1,0,0:0:0:0:
88,240,98538,1,0,0:0:0:0:
248,288,98983,1,0,0:0:0:0:
248,288,99094,1,0,0:0:0:0:
248,288,99205,1,0,0:0:0:0:
248,288,99427,1,0,0:0:0:0:
266,205,99650,5,0,0:0:0:0:
410,109,100094,1,0,0:0:0:0:
410,278,100538,1,0,0:0:0:0:
330,309,101205,1,0,0:0:0:0:
330,309,101316,1,0,0:0:0:0:
330,309,101427,1,0,0:0:0:0:
250,325,101650,2,0,P|202:325|162:301,1,65
114,269,102094,1,0,0:0:0:0:
106,181,102316,1,0,0:0:0:0:
165,121,102538,5,0,0:0:0:0:
165,121,102650,1,0,0:0:0:0:
165,121,102761,1,0,0:0:0:0:
242,157,102983,1,0,0:0:0:0:
322,197,103205,1,0,0:0:0:0:
426,269,103538,1,0,0:0:0:0:
466,157,103872,1,0,0:0:0:0:
466,157,104094,1,0,0:0:0:0:
402,101,104316,2,0,P|354:77|314:77,1,65
258,69,104761,6,0,P|202:61|170:69,1,65
122,101,105205,1,0,0:0:0:0:
82,173,105427,1,0,0:0:0:0:
98,253,105650,1,0,0:0:0:0:
258,301,106094,1,0,0:0:0:0:
258,301,106205,1,0,0:0:0:0:
258,301,106316,1,0,0:0:0:0:
258,301,106538,1,0,0:0:0:0:
256,192,106761,5,0,0:0:0:0:
112,288,107205,1,0,0:0:0:0:
112,119,107650,1,0,0:0:0:0:
272,72,108094,1,0,0:0:0:0:
192,88,108316,1,0,0:0:0:0:
192,88,108427,1,0,0:0:0:0:
192,88,108538,1,0,0:0:0:0:
272,72,108761,2,0,P|320:72|360:96,1,65
408,128,109205,1,0,0:0:0:0:
416,216,109427,1,0,0:0:0:0:
357,276,109650,5,0,0:0:0:0:
357,276,109761,1,0,0:0:0:0:
357,276,109872,1,0,0:0:0:0:
280,240,110094,1,0,0:0:0:0:
200,200,110316,1,0,0:0:0:0:
96,128,110650,1,0,0:0:0:0:
56,240,110983,1,0,0:0:0:0:
56,240,111205,1,0,0:0:0:0:
120,296,111427,2,0,P|168:320|208:320,1,65
264,328,111872,6,0,P|320:336|352:328,1,65
400,296,112316,1,0,0:0:0:0:
440,224,112538,1,0,0:0:0:0:
424,144,112761,1,0,0:0:0:0:
264,96,113205,5,0,0:0:0:0:
264,96,113316,1,0,0:0:0:0:
264,96,113427,1,0,0:0:0:0:
192,144,113650,5,0,0:0:0:0:
192,144,113761,1,0,0:0:0:0:
192,144,113872,1,0,0:0:0:0:
40,64,114316,5,0,0:0:0:0:
112,265,114761,1,0,0:0:0:0:
192,296,115427,1,0,0:0:0:0:
192,296,115538,1,0,0:0:0:0:
192,296,115650,1,0,0:0:0:0:
272,312,115872,2,0,P|320:312|360:288,1,65
408,256,116316,1,0,0:0:0:0:
416,168,116538,1,0,0:0:0:0:
357,108,116761,5,0,0:0:0:0:
357,108,116872,1,0,0:0:0:0:
357,108,116983,1,0,0:0:0:0:
280,144,117205,1,0,0:0:0:0:
200,184,117427,1,0,0:0:0:0:
96,256,117761,1,0,0:0:0:0:
56,144,118094,1,0,0:0:0:0:
56,144,118316,1,0,0:0:0:0:
120,88,118538,2,0,P|168:64|208:64,1,65
264,56,118983,6,0,P|320:48|352:56,1,65
400,88,119427,1,0,0:0:0:0:
440,160,119650,1,0,0:0:0:0:
424,240,119872,1,0,0:0:0:0:
264,288,120316,5,0,0:0:0:0:
160,240,120538,1,0,0:0:0:0:
48,136,120761,1,0,0:0:0:0:
304,64,120983,1,2,0:0:0:0:
