osu file format v6

[General]
AudioFilename: 125. on the bounce.mp3
AudioLeadIn: 1004
PreviewTime: 6720
Countdown: 0
SampleSet: Normal
StackLeniency: 0.4
Mode: 1
LetterboxInBreaks: 0
SkinPreference:taiko

[Editor]
DistanceSpacing: 1
BeatDivisor: 4
GridSize: 8

[Metadata]
Title:on the bounce
Artist:neuras
Creator:Zekira
Version:on the drums (Taiko)
Source:Dance Dance Revolution X
Tags:

[Difficulty]
HPDrainRate:5
CircleSize:7
OverallDifficulty:7
SliderMultiplier:1.4
SliderTickRate:2

[Events]
//Background and Video events
0,0,"onbo_th.png"
Video,-1200,"video.avi"
//Break Periods
//Storyboard Layer 0 (Background)
//Storyboard Layer 1 (Fail)
//Storyboard Layer 2 (Pass)
//Storyboard Layer 3 (Foreground)
//Storyboard Sound Samples
//Background Colour Transformations
3,100,0,0,0

[TimingPoints]
325,400,4,1,0,59,1,0
6725,-100,4,1,0,59,0,1
24325,-100,4,1,0,59,0,0
75525,-100,4,1,0,59,0,1
88325,100,4,1,0,59,1,1

[Colours]
Combo1 : 221,0,5
Combo2 : 0,255,0
Combo3 : 243,65,91
Combo4 : 26,149,47

[HitObjects]
56,56,6725,1,0
152,56,6925,1,0
96,136,7125,1,8
192,136,7325,1,0
240,136,7425,1,0
288,136,7525,1,0
384,136,7725,1,0
480,136,7925,1,8
480,328,8325,5,0
480,328,8525,1,0
480,328,8725,1,8
384,328,8925,1,0
344,296,9025,1,0
256,256,9225,1,0
184,192,9425,1,0
184,144,9525,1,8
256,80,9725,1,0
352,80,9925,5,0
440,112,10125,1,8
392,192,10325,1,8
344,192,10425,1,8
296,192,10525,1,8
248,192,10625,1,8
136,288,10925,1,0
136,192,11125,1,8
136,144,11225,1,8
136,96,11325,1,0
40,96,11525,5,0
40,192,11725,1,0
40,288,11925,1,8
136,288,12125,1,0
184,288,12225,1,8
184,192,12425,1,8
136,192,12525,1,0
232,192,12725,1,8
280,192,12825,1,8
328,192,12925,1,0
424,192,13125,5,0
424,96,13325,1,0
424,192,13525,1,8
424,288,13725,1,0
400,328,13825,1,0
376,288,13925,1,0
280,288,14125,1,0
280,288,14325,1,8
280,288,14525,1,0
184,288,14725,5,0
88,288,14925,1,0
88,192,15125,1,8
88,96,15325,1,0
136,96,15425,1,0
232,96,15625,1,0
328,96,15825,1,0
376,96,15925,1,8
472,96,16125,1,0
472,192,16325,5,0
472,192,16525,1,8
376,192,16725,1,8
328,192,16825,1,8
280,192,16925,1,0
232,192,17025,1,8
88,192,17325,1,0
88,96,17525,1,8
136,96,17625,1,8
184,96,17725,1,0
280,96,17925,5,0
376,96,18125,1,0
472,96,18325,1,8
472,192,18525,1,0
424,192,18625,1,0
472,280,18825,1,0
424,280,18925,1,0
328,280,19125,1,8
280,280,19225,1,8
232,280,19325,1,0
256,192,19525,5,0
448,192,19725,1,0
448,192,19825,1,8
304,56,20025,1,0
304,56,20125,1,8
352,240,20325,1,8
352,240,20425,1,0
208,104,20625,1,0
208,104,20725,1,8
280,280,20925,1,8
280,280,21025,1,0
136,144,21225,5,0
136,144,21325,1,8
136,336,21525,1,0
136,336,21625,1,8
256,176,21825,1,0
256,176,21925,1,8
408,56,22125,1,8
408,56,22225,1,0
496,232,22425,1,0
496,232,22525,1,0
304,192,22725,5,0
304,192,22825,1,8
104,192,23025,1,0
104,192,23125,1,8
256,312,23325,1,0
256,312,23425,1,8
408,192,23625,1,0
408,192,23725,1,0
256,72,23925,1,12
256,264,24325,5,0
184,192,24525,1,0
256,128,24725,1,8
352,128,24925,1,0
400,128,25025,1,0
448,128,25125,1,0
448,224,25325,1,0
448,320,25525,1,8
352,320,25725,1,0
256,288,25925,5,0
256,240,26025,1,0
256,336,26225,1,8
160,336,26425,1,0
112,336,26525,1,8
64,336,26625,1,0
64,288,26725,1,8
64,192,26925,1,0
104,168,27025,1,0
144,144,27125,1,8
192,120,27225,1,8
232,96,27325,1,0
256,192,27525,5,0
328,120,27725,1,0
256,56,27925,1,8
160,56,28125,1,0
112,56,28225,1,0
64,56,28325,1,0
64,152,28525,1,0
64,248,28725,1,8
160,248,28925,1,0
256,248,29125,5,0
256,296,29225,1,0
304,296,29325,1,0
400,296,29525,1,8
448,296,29625,1,0
448,200,29825,1,0
400,200,29925,1,8
400,104,30125,1,0
368,144,30225,1,0
344,104,30325,1,8
320,144,30425,1,8
296,104,30525,1,0
256,192,30725,5,0
328,264,30925,1,0
256,328,31125,1,8
160,328,31325,1,0
112,328,31425,1,0
64,328,31525,1,0
64,232,31725,1,0
64,136,31925,1,8
160,136,32125,1,0
160,232,32325,5,0
160,328,32525,1,0
256,328,32725,1,8
304,328,32825,1,8
352,328,32925,1,0
400,328,33025,1,0
448,328,33125,1,8
448,232,33325,1,0
448,184,33425,1,0
400,184,33525,1,8
336,112,33725,1,0
256,192,33925,5,0
184,264,34125,1,0
256,328,34325,1,8
352,328,34525,1,0
400,328,34625,1,0
448,328,34725,1,0
448,232,34925,1,0
448,136,35125,1,8
352,136,35325,1,0
400,48,35525,5,0
352,48,35625,1,8
208,48,35925,1,8
112,48,36125,1,8
112,144,36325,1,0
112,192,36425,1,8
112,240,36525,1,0
112,336,36725,1,8
160,336,36825,1,0
304,336,37125,5,0
304,264,37325,1,0
304,264,37425,1,0
304,264,37525,1,0
304,192,37725,1,8
304,120,37925,1,0
288,48,38125,1,0
264,72,38225,1,0
232,88,38325,1,0
296,64,38525,1,8
56,184,38725,1,0
56,280,38925,1,0
152,280,39125,1,0
152,184,39325,1,0
200,184,39425,1,0
248,184,39525,1,8
344,184,39725,1,8
344,184,39925,1,4
304,336,40325,5,0
304,264,40525,1,0
304,264,40625,1,0
304,264,40725,1,0
304,192,40925,1,8
304,120,41125,1,0
288,48,41325,1,0
264,72,41425,1,0
232,88,41525,1,0
296,64,41725,1,8
56,184,41925,1,0
56,280,42125,1,0
152,280,42325,1,0
152,184,42525,1,0
200,184,42625,1,0
248,184,42725,1,8
344,184,42925,1,8
344,184,43125,1,4
304,336,43525,5,0
304,264,43725,1,0
304,264,43825,1,0
304,264,43925,1,0
304,192,44125,1,8
304,120,44325,1,0
288,48,44525,1,0
264,72,44625,1,0
232,88,44725,1,0
296,64,44925,1,8
56,184,45125,1,0
56,280,45325,1,0
152,280,45525,1,0
152,184,45725,1,0
200,184,45825,1,0
248,184,45925,1,8
344,184,46125,1,8
344,184,46325,1,4
304,336,46725,5,0
304,264,46925,1,0
304,264,47025,1,0
304,264,47125,1,0
304,192,47325,1,8
304,120,47525,1,0
288,48,47725,1,0
264,72,47825,1,0
232,88,47925,1,0
296,64,48125,1,8
56,184,48325,1,0
56,280,48525,1,0
152,280,48725,1,0
152,184,48925,1,0
200,184,49025,1,0
248,184,49125,1,8
344,184,49325,1,8
344,184,49525,1,4
256,296,49925,5,0
320,272,50125,1,0
288,208,50525,1,8
208,88,50925,1,0
344,96,51325,1,8
96,192,51725,5,8
192,192,51925,1,0
288,192,52125,1,0
480,192,52525,1,8
480,192,52725,1,0
480,192,52925,1,0
256,296,53125,5,0
320,272,53325,1,0
288,208,53725,1,8
208,88,54125,1,0
344,96,54525,1,8
416,192,54925,5,8
320,192,55125,1,0
224,192,55325,1,0
32,192,55725,1,8
32,192,55925,1,0
32,192,56125,1,0
256,296,56325,5,0
320,272,56525,1,0
288,208,56925,1,8
208,88,57325,1,0
344,96,57725,1,8
96,192,58125,5,8
192,192,58325,1,0
288,192,58525,1,0
384,192,58725,1,8
480,192,58925,1,0
480,192,59125,1,0
480,192,59325,1,0
256,296,59525,5,4
320,272,59725,1,4
288,208,60125,1,12
208,88,60525,1,4
344,96,60925,1,12
416,192,61325,5,8
224,192,61725,1,8
128,192,61925,1,8
32,192,62125,1,8
32,192,62325,1,8
32,192,62525,1,0
32,288,62725,5,4
120,328,62925,1,0
216,352,63125,1,8
312,344,63325,1,0
352,312,63425,1,0
312,280,63525,1,0
352,192,63725,1,0
256,192,63925,1,8
160,192,64125,1,0
160,96,64325,5,0
184,56,64425,1,0
208,96,64525,1,0
304,96,64725,1,8
400,96,64925,1,0
432,56,65025,1,0
456,96,65125,1,0
456,192,65325,1,0
456,192,65525,1,8
256,192,65925,5,0
160,192,66125,1,0
64,192,66325,1,8
64,288,66525,1,0
112,304,66625,1,0
160,320,66725,1,8
256,336,66925,1,0
304,320,67025,1,0
344,296,67125,1,8
440,296,67325,1,0
440,200,67525,5,8
440,104,67725,1,0
440,56,67825,1,0
392,56,67925,1,8
296,56,68125,1,0
200,56,68325,1,8
160,80,68425,1,8
136,120,68525,1,0
160,160,68625,1,0
200,192,68725,1,8
392,192,69125,5,0
392,288,69325,1,0
296,288,69525,1,8
248,288,69625,1,0
248,192,69825,1,8
344,192,70025,1,0
392,192,70125,1,0
488,192,70325,1,8
488,192,70525,1,0
344,56,70925,5,8
312,88,71025,1,8
280,128,71125,1,0
248,168,71225,1,0
216,208,71325,1,8
184,248,71425,1,0
152,288,71525,1,8
56,288,71725,1,8
56,288,71925,1,4
56,88,72325,5,8
152,88,72525,1,8
152,184,72725,1,8
56,184,72925,1,8
56,88,73125,1,8
72,40,73225,1,8
120,40,73325,1,0
168,40,73425,1,0
152,88,73525,1,8
248,88,73725,1,0
344,88,73925,5,0
344,184,74125,1,8
392,184,74225,1,8
440,184,74325,1,8
440,280,74525,1,8
392,280,74625,1,8
344,280,74725,1,8
256,104,75125,1,4
80,192,75525,5,0
128,192,75625,1,8
160,192,75725,1,0
192,192,75825,1,8
224,192,75925,1,0
296,192,76125,1,8
328,192,76225,1,8
360,192,76325,1,0
392,176,76425,1,8
376,208,76525,1,0
456,200,76625,1,8
432,224,76725,1,0
368,256,76925,1,0
376,96,77125,5,8
328,96,77225,1,8
280,96,77325,1,8
232,96,77425,1,8
184,96,77525,1,8
88,96,77725,1,8
40,112,77825,1,0
40,160,77925,1,8
128,192,78125,1,0
176,192,78225,1,0
224,192,78325,1,8
272,192,78425,1,8
296,232,78525,1,0
80,192,78725,5,0
128,192,78825,1,8
160,192,78925,1,0
192,192,79025,1,8
224,192,79125,1,0
296,192,79325,1,8
328,192,79425,1,8
360,192,79525,1,0
392,176,79625,1,8
376,208,79725,1,0
456,200,79825,1,8
432,224,79925,1,0
368,256,80125,1,0
96,136,80325,5,8
144,136,80425,1,8
192,136,80525,1,0
288,136,80725,1,8
384,136,80925,1,0
424,160,81025,1,0
384,184,81125,1,0
424,208,81225,1,0
384,232,81325,1,0
288,232,81525,1,8
240,232,81625,1,8
192,232,81725,1,0
256,192,81925,12,0,82325
296,192,82525,5,8
328,192,82625,1,8
360,192,82725,1,0
392,176,82825,1,8
376,208,82925,1,0
456,200,83025,1,8
432,224,83125,1,0
368,256,83325,1,0
408,232,83525,5,0
408,280,83625,1,0
408,328,83725,1,0
312,328,83925,1,8
216,328,84125,1,0
216,280,84225,1,0
216,232,84325,1,0
120,232,84525,1,0
24,232,84725,1,8
24,280,84825,1,8
24,328,84925,1,0
80,192,85125,5,0
128,192,85225,1,8
160,192,85325,1,0
192,192,85425,1,8
224,192,85525,1,0
296,192,85725,1,8
328,192,85825,1,8
360,192,85925,1,0
392,176,86025,1,8
376,208,86125,1,0
456,200,86225,1,8
432,224,86325,1,0
368,256,86525,1,0
320,40,86925,1,8
280,72,87025,1,0
312,104,87125,1,8
272,136,87225,1,8
224,136,87325,1,0
184,104,87425,1,0
224,72,87525,1,8
128,104,87725,1,0
80,104,87825,1,0
80,152,87925,1,8
168,192,88125,1,0
216,192,88225,1,0
256,192,88325,5,0
448,192,88525,1,0
448,192,88625,1,8
304,56,88825,1,0
304,56,88925,1,8
352,240,89125,1,8
352,240,89225,1,0
208,104,89425,1,0
208,104,89525,1,8
280,280,89725,1,8
280,280,89825,1,0
136,144,90025,5,0
136,144,90125,1,8
136,336,90325,1,0
136,336,90425,1,8
256,176,90625,1,0
256,176,90725,1,8
408,56,90925,1,8
408,56,91025,1,0
496,232,91225,1,0
496,232,91325,1,0
304,192,91525,5,0
304,192,91625,1,8
104,192,91825,1,0
104,192,91925,1,8
256,312,92125,1,0
256,312,92225,1,8
408,192,92425,1,0
408,192,92525,1,0
408,192,92625,1,0
408,192,92725,1,0
304,96,93125,1,12
