osu file format v6

[General]
AudioFilename: 125. on the bounce.mp3
AudioLeadIn: 1004
PreviewTime: 6720
Countdown: 0
SampleSet: Normal
StackLeniency: 0.4
Mode: 0
LetterboxInBreaks: 0

[Editor]
Bookmarks: 23920,43520
DistanceSpacing: 1
BeatDivisor: 4
GridSize: 8

[Metadata]
Title:on the bounce
Artist:neuras
Creator:Zekira
Version:Difficult
Source:Dance Dance Revolution X
Tags:

[Difficulty]
HPDrainRate:4
CircleSize:4
OverallDifficulty:6
SliderMultiplier:1.6
SliderTickRate:2

[Events]
//Background and Video events
0,0,"onbo_th.png"
Video,-1200,"video.avi"
//Break Periods
//Storyboard Layer 0 (Background)
//Storyboard Layer 1 (Fail)
//Storyboard Layer 2 (Pass)
//Storyboard Layer 3 (Foreground)
//Storyboard Sound Samples
//Background Colour Transformations
3,100,0,0,0

[TimingPoints]
325,400,4,1,0,59,1,0

[Colours]
Combo1 : 221,0,5
Combo2 : 0,255,0
Combo3 : 243,65,91
Combo4 : 26,149,47

[HitObjects]
16,32,6725,1,0
96,32,6925,1,0
176,32,7125,1,0
336,32,7525,1,0
416,32,7725,1,0
496,32,7925,1,8
496,192,8325,5,0
416,192,8525,1,0
336,192,8725,1,0
176,192,9125,1,0
96,192,9325,1,0
16,192,9525,1,8
16,352,9925,5,0
96,352,10125,1,0
176,352,10325,1,0
336,352,10725,1,0
416,352,10925,1,0
496,352,11125,1,8
472,192,11525,5,0
472,192,11725,1,0
472,192,11925,1,0
312,192,12325,1,0
312,192,12525,1,0
312,192,12725,1,8
496,352,13125,5,0
416,352,13325,1,0
336,352,13525,1,0
176,352,13925,1,0
96,352,14125,1,0
16,352,14325,1,8
16,192,14725,5,0
96,192,14925,1,0
176,192,15125,1,0
336,192,15525,1,0
416,192,15725,1,0
496,192,15925,1,8
496,32,16325,5,0
416,32,16525,1,0
336,32,16725,1,0
176,32,17125,1,0
96,32,17325,1,0
16,32,17525,1,8
40,192,17925,5,0
40,192,18125,1,0
40,192,18325,1,0
200,192,18725,1,0
200,192,18925,1,0
200,192,19125,1,8
256,192,19525,12,4,23925
456,40,24325,5,0
376,40,24525,1,8
296,40,24725,1,0
216,40,24925,1,0
104,160,25325,1,0
104,160,25525,1,8
104,160,25725,1,0
184,160,25925,5,0
240,216,26125,1,8
184,272,26325,1,0
232,336,26525,1,8
152,336,26725,1,0
72,336,26925,1,0
72,256,27125,1,8
56,40,27525,5,0
136,40,27725,1,8
216,40,27925,1,0
296,40,28125,1,0
408,160,28525,1,0
408,160,28725,1,8
408,160,28925,1,0
328,160,29125,5,0
248,160,29325,1,8
248,240,29525,1,0
248,320,29725,1,8
328,320,29925,1,0
328,240,30125,1,0
328,240,30325,1,8
456,344,30725,5,0
376,344,30925,1,8
296,344,31125,1,0
216,344,31325,1,0
104,224,31725,1,0
104,224,31925,1,8
104,224,32125,1,0
184,224,32325,5,0
240,168,32525,1,8
184,112,32725,1,0
232,48,32925,1,8
152,48,33125,1,0
72,48,33325,1,0
72,128,33525,1,8
56,344,33925,5,0
136,344,34125,1,8
216,344,34325,1,0
296,344,34525,1,0
408,224,34925,1,0
408,224,35125,1,8
408,224,35325,1,0
328,224,35525,5,0
248,224,35725,1,8
248,144,35925,1,0
248,64,36125,1,8
328,64,36325,1,0
328,144,36525,1,0
328,144,36725,1,8
256,288,37125,5,0
256,288,37325,2,8,B|392:272|208:160,4,160,8|8|0|8|0
96,288,39325,1,8
96,288,39525,1,0
96,288,39725,1,0
96,288,39925,1,0
256,288,40325,5,0
256,288,40525,2,8,B|120:272|304:160,4,160,8|8|0|8|0
416,288,42525,1,8
416,288,42725,1,0
416,288,42925,1,0
416,288,43125,1,0
256,96,43525,5,0
256,96,43725,2,8,B|392:112|208:224,4,160,8|8|0|8|0
96,96,45725,1,8
96,96,45925,1,0
96,96,46125,1,0
96,96,46325,1,0
256,96,46725,5,0
256,96,46925,2,8,B|120:112|304:224,4,160,8|8|0|8|0
416,96,48925,1,8
416,96,49125,1,0
416,96,49325,1,0
416,96,49525,1,0
256,192,49925,12,0,51325
136,192,51725,5,8
136,192,51925,1,0
136,192,52125,2,0,B|336:192,1,160,0|8
376,192,52725,1,0
256,192,53125,12,0,54525
376,192,54925,5,8
376,192,55125,1,0
376,192,55325,2,0,B|176:192,1,160,0|8
136,192,55925,1,0
256,192,56325,12,0,57725
136,192,58125,5,8
136,192,58325,1,0
136,192,58525,2,0,B|336:192,1,160,0|8
376,192,59125,1,0
256,192,59525,12,0,60925
376,192,61325,5,8
216,192,61725,1,8
136,192,61925,1,0
136,192,62125,1,0
136,192,62325,1,0
256,296,62725,6,0,B|256:72,1,160,0|8
408,192,63525,1,0
408,112,63725,1,8
328,112,63925,1,0
328,192,64125,1,8
248,192,64325,6,0,B|80:192,1,160,0|8
88,352,65125,1,8
168,352,65325,1,0
248,352,65525,1,8
328,352,65725,1,0
408,352,65925,6,0,B|408:176,1,160,0|8
408,32,66725,1,0
408,112,66925,1,8
328,112,67125,1,0
328,32,67325,1,8
248,32,67525,6,0,B|64:32,1,160,0|8
96,192,68325,1,8
96,112,68525,1,0
176,112,68725,1,8
176,32,68925,1,0
256,48,69125,6,0,B|256:272,1,160,0|8
104,192,69925,1,0
104,272,70125,1,8
184,272,70325,1,0
184,192,70525,1,8
264,192,70725,6,0,B|432:192,1,160,0|8
424,32,71525,1,8
344,32,71725,1,0
264,32,71925,1,8
184,32,72125,1,0
104,32,72325,6,0,B|104:208,1,160,0|8
104,352,73125,1,0
104,272,73325,1,8
184,272,73525,1,0
184,352,73725,1,8
264,352,73925,6,0,B|448:352,1,160,0|8
416,192,74725,1,8
336,192,74925,1,0
256,192,75125,1,8
176,192,75325,1,0
96,192,75525,5,0
96,192,75725,1,8
96,192,75925,1,0
96,192,76125,2,0,B|48:120|160:48,3,160,8|0|8|0
224,56,77525,1,8
304,48,77725,1,8
304,48,77925,1,0
304,48,78125,1,0
304,48,78325,1,8
416,192,78725,5,0
416,192,78925,1,8
416,192,79125,1,0
416,192,79325,2,0,B|464:120|352:48,3,160,8|0|8|0
288,56,80725,1,8
208,48,80925,1,8
208,48,81125,1,0
208,48,81325,1,0
208,48,81525,1,8
96,192,81925,6,4,B|160:192,3,40
96,192,82525,2,0,B|48:264|160:336,3,160,8|0|8|0
224,336,83925,1,8
304,336,84125,1,8
304,336,84325,1,0
304,336,84525,1,0
304,336,84725,1,8
416,192,85125,5,0
416,192,85325,1,8
416,192,85525,1,0
416,192,85725,2,0,B|464:264|352:336,3,160,8|0|8|0
288,328,87125,1,8
208,336,87325,1,8
208,336,87525,1,0
208,336,87725,1,0
208,336,87925,1,8
256,192,88325,12,8,92725
256,192,93125,5,4
