osu file format v6

[General]
AudioFilename: 125. on the bounce.mp3
AudioLeadIn: 1004
PreviewTime: 6720
Countdown: 0
SampleSet: Normal
StackLeniency: 0.4
Mode: 0
LetterboxInBreaks: 0

[Editor]
Bookmarks: 23920,27520,43520
DistanceSpacing: 1
BeatDivisor: 2
GridSize: 8

[Metadata]
Title:on the bounce
Artist:neuras
Creator:Zekira
Version:Basic
Source:Dance Dance Revolution X
Tags:

[Difficulty]
HPDrainRate:3
CircleSize:3
OverallDifficulty:5
SliderMultiplier:1.28
SliderTickRate:2

[Events]
//Background and Video events
0,0,"onbo_th.png"
Video,-1200,"video.avi"
//Break Periods
//Storyboard Layer 0 (Background)
//Storyboard Layer 1 (Fail)
//Storyboard Layer 2 (Pass)
//Storyboard Layer 3 (Foreground)
//Storyboard Sound Samples
//Background Colour Transformations
3,100,0,0,0

[TimingPoints]
325,400,4,1,0,59,1,0

[Colours]
Combo1 : 221,0,5
Combo2 : 0,255,0
Combo3 : 243,65,91
Combo4 : 26,149,47

[HitObjects]
56,64,6725,1,0
184,64,7125,1,8
312,64,7525,1,0
312,320,8325,1,8
312,320,8525,1,8
312,320,8725,1,0
224,224,9125,1,0
336,160,9525,1,8
456,64,9925,5,0
328,64,10325,1,8
200,64,10725,1,0
200,320,11525,1,8
200,320,11725,1,8
200,320,11925,1,0
288,224,12325,1,0
168,264,12725,1,8
56,320,13125,5,0
184,320,13525,1,8
312,320,13925,1,0
312,64,14725,1,8
312,64,14925,1,8
312,64,15125,1,0
224,160,15525,1,0
336,224,15925,1,8
456,320,16325,5,0
328,320,16725,1,8
200,320,17125,1,0
200,64,17925,1,8
200,64,18125,1,8
200,64,18325,1,0
288,160,18725,1,0
168,120,19125,1,8
256,192,19525,12,4,23925
72,192,24325,1,0
184,192,24725,1,8
312,192,25125,1,0
312,192,25325,1,0
312,192,25525,1,0
256,72,25925,1,0
384,72,26325,1,8
512,72,26725,1,0
512,72,27125,1,4
456,192,27525,5,0
328,192,27925,1,8
200,192,28325,1,0
200,192,28525,1,0
200,192,28725,1,0
256,72,29125,1,0
128,72,29525,1,8
0,72,29925,1,0
0,72,30325,1,4
56,192,30725,5,0
184,192,31125,1,8
312,192,31525,1,0
312,192,31725,1,0
312,192,31925,1,0
256,312,32325,1,0
384,312,32725,1,8
512,312,33125,1,0
512,312,33525,1,4
456,192,33925,5,0
328,192,34325,1,8
200,192,34725,1,0
200,192,34925,1,0
200,192,35125,1,0
256,312,35525,1,0
128,312,35925,1,8
0,312,36325,1,0
256,344,37125,6,0,B|40:192|264:32,1,384,0|8
384,48,38725,1,8
384,176,39125,1,0
384,304,39525,1,0
384,304,39725,1,0
384,304,39925,1,0
256,344,40325,6,0,B|472:192|248:32,1,384,0|8
128,48,41925,1,8
128,176,42325,1,0
256,176,42725,1,0
256,176,42925,1,0
256,176,43125,1,0
256,40,43525,6,0,B|40:192|264:352,1,384,0|8
384,336,45125,1,8
384,208,45525,1,0
384,80,45925,1,0
384,80,46125,1,0
384,80,46325,1,0
256,40,46725,6,0,B|472:192|248:352,1,384,0|8
128,336,48325,1,8
128,208,48725,1,0
256,208,49125,1,0
256,208,49325,1,0
256,208,49525,1,0
256,192,49925,12,0,51325
256,192,51925,5,8
256,192,52725,1,8
256,192,53125,12,0,54525
256,192,55125,5,8
256,192,55725,1,8
256,192,55925,1,8
256,192,56325,12,0,57725
256,192,58325,5,8
256,192,58725,1,8
256,192,58925,1,8
256,192,59125,1,8
256,192,59525,12,0,60925
256,192,61325,5,8
256,192,61525,1,8
256,192,61725,1,8
256,192,61925,1,8
256,192,62125,1,8
256,192,62325,1,8
128,192,62725,5,0
128,64,63125,1,8
256,80,63525,1,0
360,144,63925,1,8
272,240,64325,1,0
152,200,64725,1,8
272,152,65125,1,0
344,256,65525,1,8
248,344,65925,5,0
120,320,66325,1,8
72,200,66725,1,0
88,72,67125,1,8
216,80,67525,1,0
344,88,67925,1,8
416,192,68325,1,0
304,256,68725,1,8
184,208,69125,5,0
296,152,69525,1,8
216,56,69925,1,0
104,120,70325,1,8
56,240,70725,1,0
176,272,71125,1,8
304,296,71525,1,0
392,208,71925,1,8
312,104,72325,5,0
184,96,72725,1,8
120,208,73125,1,0
224,280,73525,1,8
328,200,73925,1,0
408,296,74325,1,8
448,176,74725,1,0
456,48,75125,1,8
256,40,75525,6,0,B|472:192|248:352,1,384,0|8
128,336,77125,1,8
128,208,77525,1,0
128,80,77925,1,8
128,80,78125,1,8
128,80,78325,1,0
256,40,78725,6,0,B|40:192|264:352,1,384,0|8
384,336,80325,1,8
384,208,80725,1,0
256,208,81125,1,8
256,208,81325,1,8
256,208,81525,1,0
256,344,81925,6,4,B|472:192|248:32,1,384,0|8
128,48,83525,1,8
128,176,83925,1,0
128,304,84325,1,8
128,304,84525,1,8
128,304,84725,1,0
256,344,85125,6,0,B|40:192|264:32,1,384,0|8
384,48,86725,1,8
384,176,87125,1,0
256,176,87525,1,8
256,176,87725,1,8
256,176,87925,1,0
256,192,88325,12,12,93125
