osu file format v14

[General]
AudioFilename: Focus.mp3
AudioLeadIn: 0
PreviewTime: 81428
Countdown: 0
SampleSet: Normal
StackLeniency: 0.7
Mode: 0
LetterboxInBreaks: 1
WidescreenStoryboard: 1

[Editor]
Bookmarks: 2043,2505,9889,17274,32043,46812,54197,68966,81889,83735,96658,98505
DistanceSpacing: 1
BeatDivisor: 4
GridSize: 8
TimelineZoom: 1.100001

[Metadata]
Title:Focus
TitleUnicode:Focus
Artist:nervous_testpilot
ArtistUnicode:nervous_testpilot
Creator:gracefu
Version:Normal
Source:Frozen Synapse
Tags:game original soundtrack electronic
BeatmapID:653090
BeatmapSetID:272123

[Difficulty]
HPDrainRate:5
CircleSize:3.5
OverallDifficulty:5
ApproachRate:5
SliderMultiplier:1.3
SliderTickRate:2

[Events]
//Background and Video events
0,0,"bg1.png",0,0
//Break Periods
2,47007,67761
//Storyboard Layer 0 (Background)
//Storyboard Layer 1 (Fail)
//Storyboard Layer 2 (Pass)
//Storyboard Layer 3 (Foreground)
//Storyboard Sound Samples

[TimingPoints]
2500,461.538461538462,4,1,1,55,1,0
9884,-100,4,1,1,60,0,0
17269,-100,4,1,99,60,0,0
17500,-100,4,1,4,60,0,0
19346,-100,4,1,3,60,0,0
19576,-100,4,1,5,60,0,0
19807,-100,4,1,4,60,0,0
20038,-100,4,1,6,60,0,0
20269,-100,4,1,5,60,0,0
20500,-100,4,1,7,60,0,0
20730,-100,4,1,6,60,0,0
20961,-100,4,1,8,60,0,0
24653,-100,4,1,4,60,0,0
26269,-100,4,1,2,60,0,0
26500,-100,4,1,4,60,0,0
26730,-100,4,1,3,60,0,0
26961,-100,4,1,5,60,0,0
27192,-100,4,1,4,60,0,0
27423,-100,4,1,6,60,0,0
27653,-100,4,1,5,60,0,0
27884,-100,4,1,7,60,0,0
28115,-100,4,1,6,60,0,0
28346,-100,4,1,8,60,0,0
32038,-100,4,1,12,70,0,1
32153,-100,4,1,12,70,0,0
34115,-100,4,1,11,70,0,0
34346,-100,4,1,13,70,0,0
34576,-100,4,1,12,70,0,0
34807,-100,4,1,14,70,0,0
35038,-100,4,1,13,70,0,0
35269,-100,4,1,2,70,0,0
35500,-100,4,1,14,70,0,0
37346,-100,4,1,2,70,0,0
37576,-100,4,1,14,70,0,0
39192,-100,4,1,2,70,0,0
39423,-100,4,1,12,70,0,0
41038,-100,4,1,10,70,0,0
41269,-100,4,1,12,70,0,0
41500,-100,4,1,11,70,0,0
41730,-100,4,1,13,70,0,0
41961,-100,4,1,12,70,0,0
42192,-100,4,1,14,70,0,0
42423,-100,4,1,13,70,0,0
42653,-100,4,1,2,70,0,0
42884,-100,4,1,14,70,0,0
46807,-100,4,1,1,80,0,0
68961,-100,4,2,1,40,0,0
81884,-100,4,1,1,28,0,0
82000,-100,4,1,1,29,0,0
82115,-100,4,1,1,30,0,0
82230,-100,4,1,1,31,0,0
82346,-100,4,1,1,32,0,0
82461,-100,4,1,1,34,0,0
82576,-100,4,1,1,36,0,0
82692,-100,4,1,1,38,0,0
82807,-100,4,1,1,40,0,0
82923,-100,4,1,1,43,0,0
83038,-100,4,1,1,45,0,0
83153,-100,4,1,1,47,0,0
83269,-100,4,1,1,50,0,0
83384,-100,4,1,1,52,0,0
83500,-100,4,1,1,55,0,0
83615,-100,4,1,1,60,0,0
83730,-100,4,1,1,65,0,1
98500,-100,4,1,1,45,0,0
113153,-100,4,1,1,45,0,1
113269,-100,4,1,1,45,0,0

[Colours]
Combo1 : 19,168,249
Combo2 : 70,70,255
Combo3 : 255,60,60

[HitObjects]
256,192,2500,5,0,0:0:0:0:
256,192,2961,2,0,L|456:192,1,195
256,192,3884,1,0,0:0:0:0:
256,192,4346,1,0,0:0:0:0:
256,192,4807,2,0,L|456:192,1,195
256,192,5730,1,0,0:0:0:0:
256,192,6192,5,0,0:0:0:0:
256,192,6653,2,0,L|456:192,1,195
256,192,7576,1,0,0:0:0:0:
256,192,8038,1,0,0:0:0:0:
256,192,8499,2,0,L|456:192,1,195
256,192,9422,1,0,0:0:0:0:
256,192,9884,5,0,0:0:0:0:
256,192,10345,2,0,L|456:192,1,195
256,192,11268,1,0,0:0:0:0:
256,192,11730,1,0,0:0:0:0:
256,192,12191,2,0,L|456:192,1,195
256,192,13114,1,0,0:0:0:0:
256,192,13576,5,0,0:0:0:0:
256,192,14037,2,0,L|456:192,1,195
256,192,14960,1,0,0:0:0:0:
256,192,15422,1,0,0:0:0:0:
256,192,15653,1,0,0:0:0:0:
256,192,15884,2,0,L|424:192,1,162.5
256,192,16576,2,0,L|320:192,1,65
256,192,16923,2,0,L|360:192,1,97.5
256,192,17500,6,0,L|320:192,1,65
256,192,17961,1,0,0:0:0:0:
256,192,18423,2,0,L|328:192,1,65
256,192,18884,1,0,0:0:0:0:
256,192,19115,6,0,L|320:192,1,65
256,192,19576,2,0,L|320:192,1,65
256,192,20038,2,0,L|320:192,1,65
256,192,20500,2,0,L|320:192,1,65
256,192,20961,5,0,0:0:0:0:
256,192,21192,2,0,L|320:192,1,65
256,192,21653,1,0,0:0:0:0:
256,192,22115,2,0,L|320:192,2,65
256,192,22807,5,0,0:0:0:0:
256,192,23038,2,0,L|320:192,1,65
256,192,23500,1,0,0:0:0:0:
256,192,23961,2,0,L|320:192,2,65
256,192,24653,5,0,0:0:0:0:
256,192,24884,2,0,L|320:192,1,65
256,192,25346,1,0,0:0:0:0:
256,192,25807,2,0,L|320:192,1,65
256,192,26269,1,0,0:0:0:0:
256,192,26500,6,0,L|320:192,1,65
256,192,26961,2,0,L|320:192,1,65
256,192,27423,2,0,L|320:192,1,65
256,192,27884,2,0,L|320:192,1,65
256,192,28346,5,0,0:0:0:0:
256,192,28576,2,0,L|320:192,1,65
256,192,29038,1,0,0:0:0:0:
256,192,29500,2,0,L|320:192,2,65
256,192,30192,6,0,L|488:192,1,227.5
256,192,31576,2,0,L|320:192,1,65
256,192,32038,5,0,0:0:0:0:
256,192,32269,2,0,L|344:192,1,65
256,192,32730,1,0,0:0:0:0:
256,192,33192,2,0,L|320:192,1,65
256,192,33653,1,0,0:0:0:0:
256,192,33884,6,0,L|320:192,1,65
256,192,34346,2,0,L|320:192,1,65
256,192,34807,2,0,L|320:192,1,65
256,192,35269,2,0,L|320:192,1,65
256,192,35730,5,0,0:0:0:0:
256,192,35961,2,0,L|320:192,1,65
256,192,36423,1,0,0:0:0:0:
256,192,36884,2,0,L|320:192,2,65
256,192,37576,5,0,0:0:0:0:
256,192,37807,2,0,L|320:192,1,65
256,192,38269,1,0,0:0:0:0:
256,192,38730,2,0,L|320:192,2,65
256,192,39423,5,0,0:0:0:0:
256,192,39654,2,0,L|344:192,1,65
256,192,40115,1,0,0:0:0:0:
256,192,40577,2,0,L|320:192,1,65
256,192,41038,1,0,0:0:0:0:
256,192,41269,6,0,L|320:192,1,65
256,192,41731,2,0,L|320:192,1,65
256,192,42192,2,0,L|320:192,1,65
256,192,42654,2,0,L|320:192,1,65
256,192,43115,5,0,0:0:0:0:
256,192,43346,2,0,L|320:192,1,65
256,192,43808,1,0,0:0:0:0:
256,192,44269,2,0,L|320:192,2,65
256,192,44961,12,0,46807,0:0:0:0:
40,344,68961,6,0,B|384:112,1,390
256,192,70807,1,0,0:0:0:0:
256,192,71269,1,0,0:0:0:0:
40,344,72653,6,0,B|384:112,1,390
256,192,74499,1,0,0:0:0:0:
256,192,74961,1,0,0:0:0:0:
40,344,76346,6,0,B|384:112,1,390
256,192,78192,1,0,0:0:0:0:
256,192,78654,1,0,0:0:0:0:
40,344,80038,6,0,B|384:112,1,390
256,192,81884,2,0,L|320:192,1,65
256,192,82346,2,0,L|320:192,1,65
256,192,82807,2,0,L|320:192,1,65
256,192,83269,2,0,L|320:192,1,65
256,192,83730,6,0,L|320:192,2,65
256,192,84423,1,0,0:0:0:0:
256,192,84884,1,0,0:0:0:0:
256,192,85115,2,0,L|328:192,1,65
256,192,85576,6,0,L|320:192,2,65
256,192,86269,1,0,0:0:0:0:
256,192,86500,2,0,L|320:192,1,65
256,192,86961,1,0,0:0:0:0:
256,192,87423,6,0,L|320:192,2,65
256,192,88116,1,0,0:0:0:0:
256,192,88577,1,0,0:0:0:0:
256,192,88808,2,0,L|328:192,1,65
256,192,89269,6,0,L|320:192,2,65
256,192,89962,1,0,0:0:0:0:
256,192,90193,2,0,L|320:192,1,65
256,192,90654,1,0,0:0:0:0:
256,192,91115,6,0,L|320:192,2,65
256,192,91808,1,0,0:0:0:0:
256,192,92269,1,0,0:0:0:0:
256,192,92500,2,0,L|328:192,1,65
256,192,92961,6,0,L|320:192,2,65
256,192,93654,1,0,0:0:0:0:
256,192,93885,2,0,L|320:192,1,65
256,192,94346,1,0,0:0:0:0:
256,192,94807,6,0,L|320:192,2,65
256,192,95500,1,0,0:0:0:0:
256,192,95961,1,0,0:0:0:0:
256,192,96192,2,0,L|328:192,1,65
256,192,96653,12,0,98500,0:0:0:0:
256,192,99423,5,0,0:0:0:0:
256,192,99884,1,0,0:0:0:0:
256,192,100346,2,0,L|392:192,2,130
256,192,101500,1,0,0:0:0:0:
256,192,101730,1,0,0:0:0:0:
256,192,102192,5,0,0:0:0:0:
256,192,103115,1,0,0:0:0:0:
256,192,103576,1,0,0:0:0:0:
256,192,104038,2,0,L|392:192,2,130
256,192,105192,1,0,0:0:0:0:
256,192,105423,2,0,L|320:192,2,65
256,192,106807,5,0,0:0:0:0:
256,192,107268,1,0,0:0:0:0:
256,192,107730,2,0,L|392:192,2,130
256,192,108884,1,0,0:0:0:0:
256,192,109115,1,0,0:0:0:0:
256,192,109576,5,0,0:0:0:0:
256,192,110961,1,0,0:0:0:0:
256,192,111423,2,0,L|320:192,1,65
256,192,111884,2,0,L|456:192,1,195
256,192,112807,2,0,L|288:192,3,32.5
