osu file format v14

[General]
AudioFilename: Focus.mp3
AudioLeadIn: 0
PreviewTime: 81428
Countdown: 0
SampleSet: Normal
StackLeniency: 0.7
Mode: 0
LetterboxInBreaks: 1
WidescreenStoryboard: 1

[Editor]
Bookmarks: 2043,2505,9889,17274,32043,46812,54197,68966,81889,83735,96658,98505
DistanceSpacing: 1
BeatDivisor: 4
GridSize: 4
TimelineZoom: 1.100001

[Metadata]
Title:Focus
TitleUnicode:Focus
Artist:nervous_testpilot
ArtistUnicode:nervous_testpilot
Creator:gracefu
Version:Medium
Source:Frozen Synapse
Tags:game original soundtrack electronic
BeatmapID:643643
BeatmapSetID:272123

[Difficulty]
HPDrainRate:6
CircleSize:4
OverallDifficulty:6
ApproachRate:7
SliderMultiplier:1.6
SliderTickRate:2

[Events]
//Background and Video events
0,0,"bg1.png",0,0
//Break Periods
2,47007,68061
//Storyboard Layer 0 (Background)
//Storyboard Layer 1 (Fail)
//Storyboard Layer 2 (Pass)
//Storyboard Layer 3 (Foreground)
//Storyboard Sound Samples

[TimingPoints]
2500,461.538461538462,4,1,1,55,1,0
9884,-100,4,1,1,60,0,0
17269,-100,4,1,99,60,0,0
17500,-100,4,1,4,60,0,0
19346,-100,4,1,3,60,0,0
19576,-100,4,1,5,60,0,0
19807,-100,4,1,4,60,0,0
20038,-100,4,1,6,60,0,0
20269,-100,4,1,5,60,0,0
20500,-100,4,1,7,60,0,0
20730,-100,4,1,6,60,0,0
20961,-100,4,1,8,60,0,0
24653,-100,4,1,4,60,0,0
26269,-100,4,1,2,60,0,0
26500,-100,4,1,4,60,0,0
26730,-100,4,1,3,60,0,0
26961,-100,4,1,5,60,0,0
27192,-100,4,1,4,60,0,0
27423,-100,4,1,6,60,0,0
27653,-100,4,1,5,60,0,0
27884,-100,4,1,7,60,0,0
28115,-100,4,1,6,60,0,0
28346,-100,4,1,8,60,0,0
32038,-83.3333333333333,4,1,12,70,0,1
32153,-83.3333333333333,4,1,12,70,0,0
34115,-83.3333333333333,4,1,11,70,0,0
34346,-83.3333333333333,4,1,13,70,0,0
34576,-83.3333333333333,4,1,12,70,0,0
34807,-83.3333333333333,4,1,14,70,0,0
35038,-83.3333333333333,4,1,13,70,0,0
35269,-83.3333333333333,4,1,2,70,0,0
35500,-83.3333333333333,4,1,14,70,0,0
37346,-83.3333333333333,4,1,2,70,0,0
37576,-83.3333333333333,4,1,14,70,0,0
39192,-83.3333333333333,4,1,2,70,0,0
39423,-83.3333333333333,4,1,12,70,0,0
41038,-83.3333333333333,4,1,10,70,0,0
41269,-83.3333333333333,4,1,12,70,0,0
41500,-83.3333333333333,4,1,11,70,0,0
41730,-83.3333333333333,4,1,13,70,0,0
41961,-83.3333333333333,4,1,12,70,0,0
42192,-83.3333333333333,4,1,14,70,0,0
42423,-83.3333333333333,4,1,13,70,0,0
42653,-83.3333333333333,4,1,2,70,0,0
42884,-83.3333333333333,4,1,14,70,0,0
46807,-83.3333333333333,4,1,1,80,0,0
68961,-100,4,2,1,40,0,0
81884,-100,4,1,1,28,0,0
82000,-100,4,1,1,29,0,0
82115,-100,4,1,1,30,0,0
82230,-100,4,1,1,31,0,0
82346,-100,4,1,1,32,0,0
82461,-100,4,1,1,34,0,0
82576,-100,4,1,1,36,0,0
82692,-100,4,1,1,38,0,0
82807,-100,4,1,1,40,0,0
82923,-100,4,1,1,43,0,0
83038,-100,4,1,1,45,0,0
83153,-100,4,1,1,47,0,0
83269,-100,4,1,1,50,0,0
83384,-100,4,1,1,52,0,0
83500,-100,4,1,1,55,0,0
83615,-100,4,1,1,60,0,0
83730,-83.3333333333333,4,1,1,65,0,1
98500,-125,4,1,1,45,0,0
113153,-100,4,1,1,45,0,1
113269,-100,4,1,1,45,0,0

[Colours]
Combo1 : 19,168,249
Combo2 : 70,70,255
Combo3 : 255,60,60

[HitObjects]
256,192,2500,5,4,0:2:0:0:
332,192,2730,1,0,0:2:0:0:
408,192,2961,2,0,P|375:129|256:192,1,240,8|0,0:2|0:2,0:2:0:0:
256,272,3884,1,8,0:2:0:0:
416,272,4346,5,0,0:2:0:0:
336,288,4576,1,0,0:2:0:0:
256,272,4807,2,0,B|160:248|160:248|84:228|72:144,1,240,8|0,0:2|0:2,0:2:0:0:
60,32,5730,2,0,L|64:72,1,40,8|0,0:2|0:2,0:2:0:0:
108,340,6192,5,0,0:2:0:0:
108,340,6423,1,0,0:2:0:0:
108,340,6653,2,0,P|56:252|112:132,1,240,8|0,0:2|0:2,0:2:0:0:
180,104,7576,1,8,0:2:0:0:
410,219,8038,5,0,0:2:0:0:
402,139,8269,1,0,0:2:0:0:
356,72,8500,2,0,P|408:168|372:300,1,240,8|0,0:2|0:2,0:2:0:0:
296,352,9423,2,0,L|296:312,1,40,8|0,0:2|0:2,0:2:0:0:
176,192,9884,5,0,0:2:0:0:
256,192,10115,1,0,0:2:0:0:
336,192,10346,2,0,P|380:184|408:156,1,80,8|0,0:2|0:2,0:2:0:0:
376,84,10807,2,0,P|332:92|304:120,1,80,0|0,0:2|0:2,0:2:0:0:
336,192,11269,1,8,0:2:0:0:
16,108,11730,5,0,0:2:0:0:
80,156,11961,1,0,0:2:0:0:
144,204,12192,2,0,B|192:232|196:276,1,80,8|0,0:2|0:2,0:2:0:0:
216,340,12653,2,0,P|243:369|305:382,1,80,0|0,0:2|0:2,0:2:0:0:
288,300,13115,2,0,B|288:272|304:260,1,40,8|0,0:2|0:2,0:2:0:0:
424,308,13576,5,0,0:2:0:0:
424,228,13807,1,0,0:2:0:0:
424,148,14038,2,0,P|380:88|344:72,1,80,8|0,0:2|0:2,0:2:0:0:
300,60,14500,1,0,0:2:0:0:
220,44,14730,1,0,0:2:0:0:
140,56,14961,2,0,P|84:88|68:192,1,160,8|4,0:2|0:2,0:2:0:0:
84,252,15653,6,0,L|100:292,1,40,0|0,0:2|0:2,0:2:0:0:
120,324,15884,2,0,P|128:184|176:156,1,200,0|0,0:2|0:2,0:2:0:0:
168,216,16576,2,8,P|204:240|256:248,1,80,8|8,0:2|0:2,0:2:0:0:
276,236,16923,2,0,B|335:204|335:204|350:194|347:182|347:182|343:172|331:178|331:178|331:183|335:184,1,120,0|6,0:2|0:2,0:2:0:0:
244,84,17500,5,2,0:2:0:0:
88,52,17730,2,0,L|166:67,1,80,8|2,0:2|0:2,0:2:0:0:
328,104,18423,2,0,L|248:120,1,80,2|8,0:2|0:2,0:2:0:0:
92,144,18884,1,2,0:2:0:0:
92,144,19115,6,0,L|172:160,1,80,2|2,0:2|0:2,0:2:0:0:
328,192,19576,2,0,L|248:212,1,80,10|2,0:2|0:2,0:2:0:0:
92,236,20038,2,0,L|172:252,1,80,2|2,0:2|0:2,0:2:0:0:
289,293,20500,2,0,L|328:284,2,40,10|0|2,0:2|0:2|0:2,0:2:0:0:
172,324,20961,5,2,0:2:0:0:
144,248,21192,2,0,P|147:206|168:171,1,80,2|8,0:2|0:2,0:2:0:0:
224,232,21653,1,2,0:2:0:0:
344,340,22115,2,0,P|372:360|444:356,1,80,2|8,0:2|0:2,0:2:0:0:
403,284,22576,1,2,0:2:0:0:
474,320,22807,6,0,P|483:281|472:244,2,80,2|2|8,0:2|0:2|0:2,0:2:0:0:
404,284,23500,1,2,0:2:0:0:
424,168,23961,2,0,B|424:128|424:128|464:108,1,80,2|8,0:2|0:2,0:2:0:0:
388,60,24423,1,2,0:2:0:0:
312,76,24653,6,0,P|280:104|268:140,1,80,2|2,0:2|0:2,0:2:0:0:
188,136,25115,1,8,0:2:0:0:
212,60,25346,1,2,0:2:0:0:
304,248,25807,2,0,P|264:245|234:219,1,80,2|8,0:2|0:2,0:2:0:0:
296,168,26269,1,2,0:2:0:0:
364,124,26500,6,0,L|360:40,1,80,2|2,0:2|0:2,0:2:0:0:
228,12,26961,2,0,L|284:68,1,80,10|2,0:2|0:2,0:2:0:0:
109,94,27423,2,0,L|188:80,1,80,2|2,0:2|0:2,0:2:0:0:
140,168,27884,2,0,L|60:160,1,80,10|2,0:2|0:2,0:2:0:0:
208,228,28346,5,2,0:2:0:0:
210,148,28576,2,0,P|247:159|275:187,1,80,2|8,0:2|0:2,0:2:0:0:
276,268,29038,1,2,0:2:0:0:
231,379,29500,2,0,P|240:333|229:301,1,80,2|8,0:2|0:2,0:2:0:0:
162,342,29961,1,2,0:2:0:0:
84,352,30192,6,0,L|56:296,3,40,10|0|0|0,0:2|0:2|0:2|0:2,0:2:0:0:
56,280,30653,2,0,P|64:240|104:220,1,80,8|0,0:2|0:2,0:2:0:0:
128,204,31000,2,0,P|56:220|20:196,1,120,8|0,0:2|0:2,0:2:0:0:
52,124,31576,2,0,L|100:72,3,40,8|0|8|8,0:2|0:2|0:2|0:2,0:2:0:0:
116,64,32038,6,0,P|156:40|204:24,1,95.9999970703126,6|2,0:2|0:2,0:2:0:0:
296,16,32500,1,8,0:2:0:0:
404,40,32730,2,0,B|359:52|381:117|381:117|408:191|361:198,1,191.999994140625,2|2,0:2|0:2,0:2:0:0:
260,200,33423,1,8,0:2:0:0:
160,200,33653,1,2,0:2:0:0:
108,120,33884,6,0,L|160:200,1,95.9999970703126,2|2,0:2|0:2,0:2:0:0:
260,200,34346,2,0,L|208:120,1,95.9999970703126,10|2,0:2|0:2,0:2:0:0:
260,276,34807,2,0,L|208:356,1,95.9999970703126,2|2,0:2|0:2,0:2:0:0:
112,352,35269,2,0,L|164:272,1,95.9999970703126,10|2,0:2|0:2,0:2:0:0:
16,348,35730,5,2,0:2:0:0:
4,252,35961,2,0,P|12:208|52:172,1,95.9999970703126,2|8,0:2|0:2,0:2:0:0:
140,204,36423,2,0,P|122:112|17:82,1,191.999994140625,2|2,0:2|0:2,0:2:0:0:
168,92,37115,1,8,0:2:0:0:
260,124,37346,1,2,0:2:0:0:
352,152,37576,5,2,0:2:0:0:
444,184,37807,2,0,P|404:210|396:260,1,95.9999970703126,2|8,0:2|0:2,0:2:0:0:
404,348,38269,1,2,0:2:0:0:
512,188,38730,1,2,0:2:0:0:
500,92,38961,2,0,P|444:96|416:156,1,95.9999970703126,8|2,0:2|0:2,0:2:0:0:
356,56,39423,6,0,P|312:40|256:44,1,95.9999970703126,2|2,0:2|0:2,0:2:0:0:
176,76,39884,1,8,0:2:0:0:
160,168,40115,2,0,P|196:248|288:320,1,191.999994140625,2|2,0:2|0:2,0:2:0:0:
274,217,40807,1,8,0:2:0:0:
295,123,41038,1,2,0:2:0:0:
240,44,41269,6,0,L|176:116,1,95.9999970703126,2|2,0:2|0:2,0:2:0:0:
28,172,41730,2,0,L|123:189,1,95.9999970703126,10|2,0:2|0:2,0:2:0:0:
280,132,42192,2,0,L|216:204,1,95.9999970703126,2|2,0:2|0:2,0:2:0:0:
54,253,42653,2,0,L|148:272,1,95.9999970703126,10|2,0:2|0:2,0:2:0:0:
274,382,43115,6,0,L|244:292,1,95.9999970703126,2|2,0:2|0:2,0:2:0:0:
176,384,43576,1,8,0:2:0:0:
128,300,43807,2,0,P|98:209|13:178,1,191.999994140625,2|2,0:2|0:2,0:2:0:0:
24,284,44500,1,8,0:2:0:0:
32,380,44730,1,2,0:2:0:0:
116,328,44961,6,0,L|136:276,3,47.9999985351563,2|0|0|0,0:2|0:2|0:2|0:2,0:2:0:0:
156,240,45423,2,0,L|184:200,3,47.9999985351563,0|0|0|0,0:2|0:2|0:2|0:2,0:2:0:0:
220,172,45884,2,0,L|260:140,3,47.9999985351563,0|0|0|0,0:2|0:2|0:2|0:2,0:2:0:0:
300,120,46346,2,0,L|348:100,3,47.9999985351563,0|0|0|0,0:2|0:2|0:2|0:2,0:2:0:0:
380,92,46807,5,4,0:2:0:0:
308,273,68961,6,0,B|407:184|343:27|151:37|104:199|212:278,1,480,0|0,0:2|0:2,0:2:0:0:
256,192,70807,1,0,0:2:0:0:
256,192,71269,1,0,0:2:0:0:
256,288,72653,6,0,B|144:344|144:144|256:192|256:192|368:240|368:32|256:96,1,480,0|0,0:2|0:2,0:2:0:0:
372,288,74499,1,0,0:2:0:0:
144,96,74960,1,0,0:2:0:0:
173,242,76346,6,0,B|173:140|173:140|255:99|255:99|338:140|338:140|338:242|338:242|255:283,1,480,0|0,0:2|0:2,0:2:0:0:
256,84,78193,1,0,0:2:0:0:
256,332,78654,1,0,0:2:0:0:
384,352,80038,6,0,B|224:248|480:224|288:352|256:352|256:352|224:352|32:224|288:248|128:352,1,480,0|0,0:2|0:2,0:2:0:0:
116,192,81884,6,0,L|96:228,3,40,0|0|0|0,0:2|0:2|0:2|0:2,0:2:0:0:
96,260,82346,2,0,L|107:299,3,40,0|0|0|0,0:2|0:2|0:2|0:2,0:2:0:0:
124,328,82807,2,0,L|153:356,3,40,0|0|0|0,0:2|0:2|0:2|0:2,0:2:0:0:
180,372,83269,2,0,L|219:382,3,40,0|0|0|0,0:2|0:2|0:2|0:2,0:2:0:0:
256,384,83730,6,0,L|292:296,1,95.9999970703126,4|0,0:2|0:2,0:2:0:0:
400,256,84192,1,8,0:2:0:0:
292,216,84423,2,0,B|252:128,1,95.9999970703126,0|0,0:2|0:2,0:2:0:0:
284,12,84884,1,0,0:2:0:0:
182,67,85115,1,8,0:2:0:0:
72,31,85346,1,0,0:2:0:0:
136,156,85576,6,0,L|100:244,1,95.9999970703126,0|0,0:2|0:2,0:2:0:0:
136,332,86038,1,8,0:2:0:0:
176,244,86269,2,0,B|212:156|212:156|176:64,1,191.999994140625,0|0,0:2|0:2,0:2:0:0:
60,68,86961,2,0,B|60:92|60:92|72:116|92:120,1,47.9999985351563,8|0,0:2|0:2,0:2:0:0:
422,212,87423,6,0,P|424:160|408:120,1,95.9999970703126,0|0,0:2|0:2,0:2:0:0:
340,40,87884,5,8,0:2:0:0:
240,24,88115,2,0,P|192:32|152:60,1,95.9999970703126,0|0,0:2|0:2,0:2:0:0:
93,133,88576,1,0,0:2:0:0:
89,229,88807,1,8,0:2:0:0:
135,314,89038,1,0,0:2:0:0:
156,176,89269,6,0,P|184:120|212:100,1,95.9999970703126,0|0,0:2|0:2,0:2:0:0:
308,104,89730,1,8,0:2:0:0:
356,188,89961,2,0,P|312:276|224:288,1,191.999994140625,0|0,0:2|0:2,0:2:0:0:
158,220,90653,2,0,L|138:152,1,47.9999985351563,8|0,0:2|0:2,0:2:0:0:
418,301,91115,5,0,0:2:0:0:
398,224,91346,1,0,0:2:0:0:
377,147,91576,1,8,0:2:0:0:
291,323,91807,2,0,B|280:284|280:284|284:283|284:283|280:284|280:284|276:285|276:285|280:284|280:284|270:246,1,95.9999970703126,0|0,0:2|0:2,0:2:0:0:
250,168,92269,1,0,0:2:0:0:
230,91,92500,1,8,0:2:0:0:
230,91,92730,1,0,0:2:0:0:
350,295,92961,5,0,0:2:0:0:
330,217,93192,1,0,0:2:0:0:
309,140,93423,1,8,0:2:0:0:
223,316,93653,2,0,B|204:247|204:247|223:242|201:235|201:235|179:229|198:224|198:224|179:154,1,191.999994140625,0|0,0:2|0:2,3:2:0:0:
180,72,94346,2,0,L|180:24,1,47.9999985351563,8|0,0:2|0:2,0:2:0:0:
128,340,94807,5,0,0:2:0:0:
128,260,95038,1,0,0:2:0:0:
128,180,95269,1,8,0:2:0:0:
256,340,95500,2,0,L|256:244,1,95.9999970703126,0|0,0:2|0:2,0:2:0:0:
256,148,95961,1,0,0:2:0:0:
256,52,96192,1,8,0:2:0:0:
256,52,96423,1,0,0:2:0:0:
256,192,96653,12,4,98500,0:2:0:0:
256,80,99423,6,0,P|344:96|384:136,1,128,0|8,0:2|0:2,0:2:0:0:
428,276,100346,1,0,0:2:0:0:
272,332,100807,1,8,0:2:0:0:
192,348,101038,2,0,L|184:288,4,32,0|0|0|0|0,0:2|0:2|0:2|0:2|0:2,0:2:0:0:
112,356,101730,2,0,L|64:356,1,32,8|0,0:2|0:2,0:2:0:0:
132,196,102192,5,0,0:2:0:0:
256,56,103115,2,0,L|256:184,1,128,0|8,0:2|0:2,0:2:0:0:
256,352,104038,1,0,0:2:0:0:
424,348,104500,1,8,0:2:0:0:
480,288,104730,2,0,L|512:288,4,32,0|0|0|0|0,0:2|0:2|0:2|0:2|0:2,0:2:0:0:
420,228,105423,1,8,0:2:0:0:
420,144,105653,1,0,0:2:0:0:
420,60,105884,6,0,P|332:32|224:136,1,256,0|0,0:2|0:2,0:2:0:0:
124,268,107269,1,8,0:2:0:0:
304,293,107730,1,0,0:2:0:0:
236,124,108192,1,8,0:2:0:0:
308,80,108423,2,0,L|308:32,4,32,0|0|0|0|0,0:2|0:2|0:2|0:2|0:2,0:2:0:0:
380,124,109115,1,8,0:2:0:0:
256,192,109576,5,0,0:2:0:0:
256,192,110961,1,8,0:2:0:0:
256,192,111423,6,0,L|276:216,3,32,8|0|0|0,0:2|0:2|0:2|0:2,0:2:0:0:
312,236,111884,2,0,P|344:248|376:248,1,64,8|0,0:2|0:2,0:2:0:0:
388,212,112230,2,0,P|392:272|368:312,1,96,8|0,0:2|0:2,0:2:0:0:
318,352,112807,2,0,L|282:363,3,32,8|0|8|8,0:2|0:2|0:2|0:2,0:2:0:0:
