osu file format v14

[General]
AudioFilename: Focus.mp3
AudioLeadIn: 0
PreviewTime: 81428
Countdown: 0
SampleSet: Normal
StackLeniency: 0.7
Mode: 0
LetterboxInBreaks: 1
WidescreenStoryboard: 1

[Editor]
Bookmarks: 2043,2505,9889,17274,32043,46812,54197,68966,81889,83735,96658,98505
DistanceSpacing: 1
BeatDivisor: 4
GridSize: 4
TimelineZoom: 0.9000009

[Metadata]
Title:Focus
TitleUnicode:Focus
Artist:nervous_testpilot
ArtistUnicode:nervous_testpilot
Creator:gracefu
Version:Light
Source:Frozen Synapse
Tags:game original soundtrack electronic
BeatmapID:643641
BeatmapSetID:272123

[Difficulty]
HPDrainRate:3
CircleSize:3.1
OverallDifficulty:3
ApproachRate:4
SliderMultiplier:1
SliderTickRate:2

[Events]
//Background and Video events
0,0,"bg1.png",0,0
//Break Periods
2,47007,67641
//Storyboard Layer 0 (Background)
//Storyboard Layer 1 (Fail)
//Storyboard Layer 2 (Pass)
//Storyboard Layer 3 (Foreground)
//Storyboard Sound Samples

[TimingPoints]
2500,461.538461538462,4,1,1,55,1,0
9884,-100,4,1,1,60,0,0
17269,-100,4,1,99,60,0,0
17500,-100,4,1,4,60,0,0
19346,-100,4,1,3,60,0,0
19576,-100,4,1,5,60,0,0
19807,-100,4,1,4,60,0,0
20038,-100,4,1,6,60,0,0
20269,-100,4,1,5,60,0,0
20500,-100,4,1,7,60,0,0
20730,-100,4,1,6,60,0,0
20961,-100,4,1,8,60,0,0
24653,-100,4,1,4,60,0,0
26269,-100,4,1,2,60,0,0
26500,-100,4,1,4,60,0,0
26730,-100,4,1,3,60,0,0
26961,-100,4,1,5,60,0,0
27192,-100,4,1,4,60,0,0
27423,-100,4,1,6,60,0,0
27653,-100,4,1,5,60,0,0
27884,-100,4,1,7,60,0,0
28115,-100,4,1,6,60,0,0
28346,-100,4,1,8,60,0,0
32038,-100,4,1,12,70,0,1
32153,-100,4,1,12,70,0,0
34115,-100,4,1,11,70,0,0
34346,-100,4,1,13,70,0,0
34576,-100,4,1,12,70,0,0
34807,-100,4,1,14,70,0,0
35038,-100,4,1,13,70,0,0
35269,-100,4,1,2,70,0,0
35500,-100,4,1,14,70,0,0
37346,-100,4,1,2,70,0,0
37576,-100,4,1,14,70,0,0
39192,-100,4,1,12,70,0,0
39423,-100,4,1,12,70,0,0
41038,-100,4,1,10,70,0,0
41269,-100,4,1,12,70,0,0
41500,-100,4,1,11,70,0,0
41730,-100,4,1,13,70,0,0
41961,-100,4,1,12,70,0,0
42192,-100,4,1,14,70,0,0
42423,-100,4,1,13,70,0,0
42653,-100,4,1,2,70,0,0
42884,-100,4,1,14,70,0,0
46807,-100,4,1,1,80,0,0
68961,-100,4,2,1,40,0,0
81884,-100,4,1,1,28,0,0
82000,-100,4,1,1,29,0,0
82115,-100,4,1,1,30,0,0
82230,-100,4,1,1,31,0,0
82346,-100,4,1,1,32,0,0
82461,-100,4,1,1,34,0,0
82576,-100,4,1,1,36,0,0
82692,-100,4,1,1,38,0,0
82807,-100,4,1,1,40,0,0
82923,-100,4,1,1,43,0,0
83038,-100,4,1,1,45,0,0
83153,-100,4,1,1,47,0,0
83269,-100,4,1,1,50,0,0
83384,-100,4,1,1,52,0,0
83500,-100,4,1,1,55,0,0
83615,-100,4,1,1,60,0,0
83730,-100,4,1,1,65,0,1
98500,-100,4,1,1,45,0,0
113153,-100,4,1,1,45,0,1
113269,-100,4,1,1,45,0,0

[Colours]
Combo1 : 19,168,249
Combo2 : 70,70,255
Combo3 : 255,60,60

[HitObjects]
156,280,2500,5,4,0:2:0:0:
256,276,2961,2,0,P|292:212|256:148,1,150,0|0,0:2|0:2,0:2:0:0:
214,128,3884,1,0,0:2:0:0:
204,28,4346,1,0,0:2:0:0:
304,28,4807,2,0,B|328:100|280:116|304:180,1,150,0|0,0:2|0:2,0:2:0:0:
324,220,5730,1,0,0:2:0:0:
224,220,6192,5,0,0:2:0:0:
124,220,6653,2,0,P|155:147|219:120,1,150,0|0,0:2|0:2,0:2:0:0:
267,122,7576,1,0,0:2:0:0:
282,221,8038,1,0,0:2:0:0:
382,221,8499,2,0,P|351:294|287:321,1,150,0|0,0:2|0:2,0:2:0:0:
239,319,9422,1,0,0:2:0:0:
139,325,9884,5,0,0:2:0:0:
80,244,10346,2,0,B|112:196|192:244|224:196,1,150,0|0,0:2|0:2,0:2:0:0:
244,160,11269,1,0,0:2:0:0:
344,159,11730,1,0,0:2:0:0:
408,236,12192,2,0,B|376:284|296:236|264:284,1,150,0|0,0:2|0:2,0:2:0:0:
240,317,13115,1,0,0:2:0:0:
326,367,13576,5,0,0:2:0:0:
416,324,14038,2,0,B|392:292|400:228|400:228|344:204,1,150,0|0,0:2|0:2,0:2:0:0:
305,197,14961,1,0,0:2:0:0:
241,274,15423,2,0,B|145:306|145:306|65:250|33:122,1,300,4|0,0:2|0:2,0:2:0:0:
120,84,17269,6,0,L|136:132,1,50,6|2,0:2|0:2,0:2:0:0:
233,108,17961,1,2,0:2:0:0:
330,132,18423,2,0,P|354:116|394:112,2,50,2|0|2,0:2|0:2|0:2,0:2:0:0:
303,175,19115,2,0,P|283:219|290:272,1,100,2|2,0:2|0:2,0:2:0:0:
384,236,20038,2,0,P|387:293|356:346,1,100,2|2,0:2|0:2,0:2:0:0:
271,314,20961,6,0,P|280:285|291:269,2,50,2|2|0,0:2|0:2|0:2,0:2:0:0:
272,364,21653,2,0,P|228:352|172:356,1,100,2|2,0:2|0:2,0:2:0:0:
114,274,22576,1,2,0:2:0:0:
114,274,22807,2,0,L|108:217,1,50,2|2,0:2|0:2,0:2:0:0:
208,236,23500,1,2,0:2:0:0:
305,258,23961,2,0,P|353:258|417:266,1,100,2|2,0:2|0:2,0:2:0:0:
440,228,24653,6,0,L|448:172,1,50,2|2,0:2|0:2,0:2:0:0:
347,176,25346,1,2,0:2:0:0:
251,148,25807,2,0,P|199:132|143:128,1,100,2|2,0:2|0:2,0:2:0:0:
104,136,26500,2,0,P|100:186|117:231,1,100,2|2,0:2|0:2,0:2:0:0:
215,256,27423,2,0,P|219:306|202:351,1,100,2|2,0:2|0:2,0:2:0:0:
123,292,28346,6,0,L|291:316,1,150,6|2,0:2|0:2,0:2:0:0:
372,316,29500,2,0,L|484:300,1,100,2|2,0:2|0:2,0:2:0:0:
457,254,30192,2,0,L|465:198,2,50,2|0|0,0:2|0:2|0:2,0:2:0:0:
279,188,31576,1,0,0:2:0:0:
179,172,32038,6,0,L|171:228,1,50,6|2,0:2|0:2,0:2:0:0:
79,260,32730,1,2,0:2:0:0:
152,328,33192,2,0,L|264:312,1,100,2|2,0:2|0:2,0:2:0:0:
296,292,33884,2,0,L|336:196,1,100,2|2,0:2|0:2,0:2:0:0:
232,212,34807,2,0,L|192:116,1,100,2|2,0:2|0:2,0:2:0:0:
288,84,35730,6,0,L|282:34,2,50,2|2|0,0:2|0:2|0:2,0:2:0:0:
337,96,36423,2,0,P|392:99|424:136,1,100,2|2,0:2|0:2,0:2:0:0:
432,178,37115,1,0,0:2:0:0:
380,263,37576,2,0,L|386:319,2,50,2|2|0,0:2|0:2|0:2,0:2:0:0:
330,257,38269,2,0,P|303:212|304:164,1,100,2|2,0:2|0:2,0:2:0:0:
315,117,38961,1,0,0:2:0:0:
215,124,39423,6,0,L|187:172,1,50,2|2,0:2|0:2,0:2:0:0:
136,252,40115,1,2,0:2:0:0:
168,348,40576,2,0,P|216:324|272:328,1,100,2|2,0:2|0:2,0:2:0:0:
308,308,41269,2,0,P|296:272|324:212,1,100,2|2,0:2|0:2,0:2:0:0:
396,152,42192,2,0,P|376:108|324:88,1,100,2|2,0:2|0:2,0:2:0:0:
232,72,43115,2,0,P|238:50|253:25,2,50,2|2|0,0:2|0:2|0:2,0:2:0:0:
208,116,43807,2,0,P|180:152|124:172,1,100,2|2,0:2|0:2,0:2:0:0:
164,264,44730,1,2,0:2:0:0:
164,264,44961,6,0,B|187:271|187:271|212:264|212:264|236:271|236:271|260:264|260:264|284:271|284:271|308:264|308:264|332:271|332:271|356:264|356:264|349:240|349:240|356:216|356:216|350:192|350:192|356:168|356:168|348:144|348:144|356:120|356:120|348:96|348:96|356:72,1,400,2|4,0:2|0:2,0:2:0:0:
272,108,68961,6,0,B|244:40|136:28|-8:96,1,300,0|0,0:2|0:2,0:2:0:0:
12,192,70807,1,0,0:2:0:0:
24,292,71269,1,0,0:2:0:0:
346,199,72653,6,0,P|299:319|170:266,1,300,0|0,0:2|0:2,0:2:0:0:
259,233,74500,1,0,0:2:0:0:
226,144,74961,1,0,0:2:0:0:
488,224,76346,6,0,B|360:200|320:296|320:296|272:328|224:304,1,300,0|0,0:2|0:2,0:2:0:0:
144,246,78192,1,0,0:2:0:0:
78,170,78653,1,0,0:2:0:0:
269,205,80038,6,0,B|244:105|244:105|306:125|340:97|340:97|326:40|372:-6,1,300,0|0,0:2|0:2,0:2:0:0:
436,72,81884,2,0,B|452:88|474:104|474:104|460:120|436:136|436:136|452:152|474:168|474:168|460:184|436:200|436:200|452:216|475:233|475:233|460:248|436:264|436:264|452:280|474:296|474:296|460:312|436:328,1,400,0|4,0:2|0:2,0:2:0:0:
336,336,84192,5,8,0:2:0:0:
240,312,84653,1,0,0:2:0:0:
193,293,84884,1,0,0:2:0:0:
155,260,85115,2,0,P|224:217|239:191,1,100,8|0,0:2|0:2,0:2:0:0:
216,104,86038,2,0,P|143:131|78:102,1,150,8|0,0:2|0:2,0:2:0:0:
53,62,86961,1,8,0:2:0:0:
148,32,87423,5,0,0:2:0:0:
248,32,87884,1,8,0:2:0:0:
348,34,88346,1,0,0:2:0:0:
386,66,88576,1,0,0:2:0:0:
412,108,88807,2,0,P|363:162|356:204,1,100,8|0,0:2|0:2,0:2:0:0:
455,198,89730,2,0,P|479:270|447:342,1,150,8|0,0:2|0:2,0:2:0:0:
408,359,90653,1,8,0:2:0:0:
308,352,91115,5,0,0:2:0:0:
344,260,91576,1,8,0:2:0:0:
416,192,92038,1,0,0:2:0:0:
444,152,92269,1,0,0:2:0:0:
468,108,92500,2,0,P|420:116|368:84,1,100,8|0,0:2|0:2,0:2:0:0:
288,48,93423,2,0,P|228:48|176:136,1,150,8|0,0:2|0:2,0:2:0:0:
168,164,94346,1,8,0:2:0:0:
180,264,94807,6,0,P|220:288|268:264,1,100,0|8,0:2|0:2,0:2:0:0:
332,192,95730,1,0,0:2:0:0:
358,149,95961,1,0,0:2:0:0:
364,99,96192,1,8,0:2:0:0:
256,192,96653,12,4,98500,0:2:0:0:
192,240,99423,5,0,0:2:0:0:
96,216,99884,1,8,0:2:0:0:
123,312,100346,1,0,0:2:0:0:
432,64,102192,5,4,0:2:0:0:
432,264,103115,1,0,0:2:0:0:
339,301,103576,1,8,0:2:0:0:
418,363,104038,1,0,0:2:0:0:
217,142,105423,5,0,0:2:0:0:
196,187,105653,1,0,0:2:0:0:
169,229,105884,1,4,0:2:0:0:
368,240,106807,2,0,L|320:152,1,100,0|8,0:2|0:2,0:2:0:0:
272,240,107730,1,0,0:2:0:0:
256,192,109576,5,4,0:2:0:0:
256,192,110961,1,8,0:2:0:0:
256,292,111423,6,0,B|232:284|232:284|208:292|208:292|184:284|184:284|160:292|160:292|132:212|40:212|28:300|28:300|36:324|36:324|28:348|28:348|36:372,1,375,12|0,0:2|0:2,0:2:0:0:
