osu file format v14

[General]
AudioFilename: Focus.mp3
AudioLeadIn: 0
PreviewTime: 81428
Countdown: 0
SampleSet: Normal
StackLeniency: 0.7
Mode: 0
LetterboxInBreaks: 1
WidescreenStoryboard: 1

[Editor]
Bookmarks: 2043,2505,9889,17274,32043,46812,54197,68966,81889,83735,96658,98505
DistanceSpacing: 1.2
BeatDivisor: 4
GridSize: 16
TimelineZoom: 1.100001

[Metadata]
Title:Focus
TitleUnicode:Focus
Artist:nervous_testpilot
ArtistUnicode:nervous_testpilot
Creator:gracefu
Version:Hyper
Source:Frozen Synapse
Tags:game original soundtrack electronic
BeatmapID:643639
BeatmapSetID:272123

[Difficulty]
HPDrainRate:7
CircleSize:4
OverallDifficulty:7
ApproachRate:8.4
SliderMultiplier:1.6
SliderTickRate:2

[Events]
//Background and Video events
0,0,"bg1.png",0,0
//Break Periods
2,47007,68271
//Storyboard Layer 0 (Background)
//Storyboard Layer 1 (Fail)
//Storyboard Layer 2 (Pass)
//Storyboard Layer 3 (Foreground)
//Storyboard Sound Samples

[TimingPoints]
2500,461.538461538462,4,1,1,55,1,0
9884,-100,4,1,1,60,0,0
17269,-100,4,1,99,60,0,0
17500,-100,4,1,4,60,0,0
19346,-100,4,1,3,60,0,0
19576,-100,4,1,5,60,0,0
19807,-100,4,1,4,60,0,0
20038,-100,4,1,6,60,0,0
20269,-100,4,1,5,60,0,0
20500,-100,4,1,7,60,0,0
20730,-100,4,1,6,60,0,0
20961,-100,4,1,8,60,0,0
24653,-100,4,1,4,60,0,0
26269,-100,4,1,2,60,0,0
26500,-100,4,1,4,60,0,0
26730,-100,4,1,3,60,0,0
26961,-100,4,1,5,60,0,0
27192,-100,4,1,4,60,0,0
27423,-100,4,1,6,60,0,0
27653,-100,4,1,5,60,0,0
27884,-100,4,1,7,60,0,0
28115,-100,4,1,6,60,0,0
28346,-100,4,1,8,60,0,0
32038,-100,4,1,12,70,0,1
32153,-100,4,1,12,70,0,0
34115,-100,4,1,11,70,0,0
34346,-100,4,1,13,70,0,0
34576,-100,4,1,12,70,0,0
34807,-100,4,1,14,70,0,0
35038,-100,4,1,13,70,0,0
35269,-100,4,1,2,70,0,0
35500,-100,4,1,14,70,0,0
37346,-100,4,1,2,70,0,0
37576,-100,4,1,14,70,0,0
39192,-100,4,1,2,70,0,0
39423,-100,4,1,12,70,0,0
41038,-100,4,1,10,70,0,0
41269,-100,4,1,12,70,0,0
41500,-100,4,1,11,70,0,0
41730,-100,4,1,13,70,0,0
41961,-100,4,1,12,70,0,0
42192,-100,4,1,14,70,0,0
42423,-100,4,1,13,70,0,0
42653,-100,4,1,2,70,0,0
42884,-100,4,1,14,70,0,0
46807,-100,4,1,1,80,0,0
68961,-76.9230769230769,4,2,1,40,0,0
81884,-128.205128205128,4,1,1,28,0,0
82000,-128.205128205128,4,1,1,29,0,0
82115,-128.205128205128,4,1,1,30,0,0
82230,-128.205128205128,4,1,1,31,0,0
82346,-128.205128205128,4,1,1,32,0,0
82461,-128.205128205128,4,1,1,34,0,0
82576,-128.205128205128,4,1,1,36,0,0
82692,-128.205128205128,4,1,1,38,0,0
82807,-100,4,1,1,40,0,0
82923,-100,4,1,1,43,0,0
83038,-100,4,1,1,45,0,0
83153,-100,4,1,1,47,0,0
83269,-100,4,1,1,50,0,0
83384,-100,4,1,1,52,0,0
83500,-100,4,1,1,55,0,0
83615,-100,4,1,1,60,0,0
83730,-100,4,1,1,65,0,1
98500,-100,4,1,1,45,0,0
113153,-100,4,1,1,45,0,1
113269,-100,4,1,1,45,0,0

[Colours]
Combo1 : 19,168,249
Combo2 : 70,70,255
Combo3 : 255,60,60

[HitObjects]
424,88,2500,6,0,L|416:168,1,80,4|0,0:2|0:2,0:2:0:0:
400,264,2961,2,0,P|360:256|312:264,1,80,8|0,0:2|0:2,0:2:0:0:
232,288,3423,2,0,L|240:328,2,40,0|0|0,0:2|0:2|0:2,0:2:0:0:
136,312,3884,2,0,P|96:320|56:304,1,80,8|0,0:2|0:2,0:2:0:0:
96,216,4346,2,0,L|112:176,3,40,0|0|0|0,0:2|0:2|0:2|0:2,0:2:0:0:
136,136,4807,2,0,L|160:104,3,40,8|0|0|0,0:2|0:2|0:2|0:2,0:2:0:0:
192,72,5269,2,0,P|248:96|296:88,1,80,0|0,0:2|0:2,0:2:0:0:
360,80,5730,2,0,L|368:120,1,40,8|0,0:2|0:2,0:2:0:0:
392,264,6192,6,0,P|409:255|429:255,3,40,0|0|0|0,0:2|0:2|0:2|0:2,0:2:0:0:
351,280,6653,2,0,P|333:288|313:288,3,40,8|0|0|0,0:2|0:2|0:2|0:2,0:2:0:0:
360,240,7115,2,0,P|320:192|288:184,1,80,0|0,0:2|0:2,0:2:0:0:
208,176,7576,2,0,P|208:112|224:88,1,80,8|0,0:2|0:2,0:2:0:0:
312,80,8038,2,0,P|352:72|368:72,3,40,0|0|0|0,0:2|0:2|0:2|0:2,0:2:0:0:
400,72,8500,2,0,P|432:80|448:88,3,40,8|0|0|0,0:2|0:2|0:2|0:2,0:2:0:0:
488,104,8961,2,0,P|512:64|512:56,2,40,0|0|0,0:2|0:2|0:2,0:2:0:0:
392,168,9423,2,0,P|384:184|384:208,1,40,8|0,0:2|0:2,0:2:0:0:
392,352,9884,5,0,0:2:0:0:
360,346,10000,1,0,0:2:0:0:
329,335,10115,1,0,0:2:0:0:
299,321,10230,1,0,0:2:0:0:
276,298,10346,2,0,P|260:282|252:258,3,40,8|0|0|0,0:2|0:2|0:2|0:2,0:2:0:0:
240,224,10807,2,0,P|208:232|152:208,1,80,0|0,0:2|0:2,0:2:0:0:
216,32,11269,2,0,P|248:24|304:48,1,80,8|0,0:2|0:2,0:2:0:0:
408,80,11730,5,0,0:2:0:0:
436,95,11846,1,0,0:2:0:0:
458,117,11961,1,0,0:2:0:0:
475,143,12076,1,0,0:2:0:0:
483,174,12192,2,0,P|488:208|488:232,3,40,8|0|0|0,0:2|0:2|0:2|0:2,0:2:0:0:
464,256,12653,2,0,P|416:272|360:256,1,80,0|0,0:2|0:2,0:2:0:0:
208,248,13115,2,0,P|208:288|184:304,1,40,8|0,0:2|0:2,0:2:0:0:
80,104,13576,5,0,0:2:0:0:
48,88,13692,1,0,0:2:0:0:
56,56,13807,1,0,0:2:0:0:
88,48,13923,1,0,0:2:0:0:
112,72,14038,2,0,P|144:88|168:80,3,40,8|0|0|0,0:2|0:2|0:2|0:2,0:2:0:0:
160,120,14500,2,0,P|153:162|168:200,1,80,0|0,0:2|0:2,0:2:0:0:
312,296,14961,2,0,P|326:259|356:233,1,80,8|0,0:2|0:2,0:2:0:0:
458,186,15423,5,0,0:2:0:0:
384,80,15653,1,0,0:2:0:0:
384,80,15769,1,0,0:2:0:0:
384,80,15884,2,0,L|400:56,6,20,0|0|0|0|0|0|0,0:2|0:2|0:2|0:2|0:2|0:2|0:2,0:2:0:0:
307,107,16461,1,0,0:2:0:0:
264,128,16576,2,0,P|176:120|168:112,1,80,8|8,0:2|0:2,0:2:0:0:
147,100,16923,1,0,0:2:0:0:
16,272,17269,6,0,B|47:303|88:296,2,80,6|2|8,0:2|0:2|0:2,0:2:0:0:
162,320,17961,2,0,B|121:327|90:296,1,80,2|0,0:2|0:2,0:2:0:0:
88,168,18423,2,0,L|200:160,1,80,2|8,0:2|0:2,0:2:0:0:
224,48,18884,1,2,0:2:0:0:
344,88,19115,2,0,L|400:160,1,80,2|2,0:2|0:2,0:2:0:0:
512,88,19576,2,0,L|456:160,1,80,10|2,0:2|0:2,0:2:0:0:
512,284,20038,2,0,L|462:220,1,80,2|2,0:2|0:2,0:2:0:0:
344,284,20500,2,0,L|393:220,1,80,10|2,0:2|0:2,0:2:0:0:
428,92,20961,6,0,P|369:47|356:44,1,80,2|2,0:2|0:2,0:2:0:0:
336,152,21423,1,8,0:2:0:0:
276,244,21653,2,0,P|247:217|228:172,1,80,2|0,0:2|0:2,0:2:0:0:
176,48,22115,1,2,0:2:0:0:
120,180,22346,1,8,0:2:0:0:
56,76,22576,1,2,0:2:0:0:
4,210,22807,2,0,L|4:314,2,80,2|2|8,0:2|0:2|0:2,0:2:0:0:
120,180,23500,2,0,L|200:156,1,80,2|0,0:2|0:2,0:2:0:0:
336,188,23961,1,2,0:2:0:0:
408,64,24192,2,0,L|432:16,2,40,8|0|2,0:2|0:2|0:2,0:2:0:0:
408,208,24653,6,0,L|432:288,2,80,2|2|8,0:2|0:2|0:2,0:2:0:0:
264,208,25346,2,0,L|240:288,1,80,2|0,0:2|0:2,0:2:0:0:
336,96,25807,2,0,L|336:199,1,80,2|8,0:2|0:2,0:2:0:0:
255,96,26269,1,2,0:2:0:0:
191,32,26500,2,0,L|175:120,1,80,2|2,0:2|0:2,0:2:0:0:
334,112,26961,2,0,L|318:200,1,80,10|2,0:2|0:2,0:2:0:0:
159,192,27423,2,0,L|143:280,1,80,2|2,0:2|0:2,0:2:0:0:
302,280,27884,2,0,L|286:368,1,80,10|2,0:2|0:2,0:2:0:0:
136,344,28346,5,6,0:2:0:0:
96,276,28576,1,2,0:2:0:0:
84,196,28807,1,8,0:2:0:0:
96,116,29038,2,0,P|140:108|176:124,1,80,2|0,0:2|0:2,0:2:0:0:
200,212,29500,1,2,0:2:0:0:
296,256,29730,2,0,P|304:216|296:168,1,80,8|2,0:2|0:2,0:2:0:0:
272,100,30192,1,10,0:2:0:0:
292,68,30307,1,0,0:2:0:0:
280,36,30423,1,0,0:2:0:0:
244,36,30538,1,0,0:2:0:0:
208,52,30653,2,0,L|160:52,3,40,8|0|0|8,0:2|0:2|0:2|0:2,0:2:0:0:
256,132,31346,1,0,0:2:0:0:
328,168,31576,2,0,L|380:188,3,40,8|0|8|8,0:2|0:2|0:2|0:2,0:2:0:0:
404,196,32038,6,0,P|452:172|460:140,2,80,6|2|8,0:2|0:2|0:2,0:2:0:0:
240,288,32730,2,0,P|221:321|151:339,1,80,2|0,0:2|0:2,0:2:0:0:
268,152,33192,2,0,P|219:124|186:124,1,80,2|8,0:2|0:2,0:2:0:0:
196,256,33653,1,2,0:2:0:0:
103,344,33884,5,2,0:2:0:0:
287,312,34115,1,2,0:2:0:0:
103,272,34346,1,10,0:2:0:0:
287,240,34576,1,2,0:2:0:0:
103,200,34807,1,2,0:2:0:0:
287,168,35038,1,2,0:2:0:0:
103,128,35269,1,10,0:2:0:0:
287,96,35500,1,2,0:2:0:0:
418,152,35730,6,0,L|450:238,1,80,2|2,0:2|0:2,0:2:0:0:
416,336,36192,1,8,0:2:0:0:
304,352,36423,2,0,L|120:336,1,160,2|2,0:2|0:2,0:2:0:0:
184,224,37115,1,8,0:2:0:0:
88,168,37346,1,2,0:2:0:0:
192,120,37576,2,0,L|280:168,2,80,2|2|8,0:2|0:2|0:2,0:2:0:0:
424,200,38269,2,0,P|472:144|440:48,1,160,2|2,0:2|0:2,0:2:0:0:
288,56,38961,1,8,0:2:0:0:
288,56,39076,1,0,0:2:0:0:
288,56,39192,1,2,0:2:0:0:
120,56,39423,6,0,L|32:112,2,80,2|2|8,0:2|0:2|0:2,0:2:0:0:
168,176,40115,2,0,L|168:264,1,80,2|0,0:2|0:2,0:2:0:0:
136,368,40576,2,0,L|216:352,1,80,2|8,0:2|0:2,0:2:0:0:
320,288,41038,1,2,0:2:0:0:
392,192,41269,5,2,0:2:0:0:
279,58,41500,1,2,0:2:0:0:
128,145,41730,1,10,0:2:0:0:
188,309,41961,1,2,0:2:0:0:
360,279,42192,1,2,0:2:0:0:
360,104,42423,1,2,0:2:0:0:
187,74,42653,1,10,0:2:0:0:
128,238,42884,1,2,0:2:0:0:
279,326,43115,6,0,L|376:296,1,80,6|2,0:2|0:2,0:2:0:0:
488,184,43576,1,8,0:2:0:0:
480,56,43807,2,0,P|344:32|320:32,1,160,2|2,0:2|0:2,0:2:0:0:
320,168,44500,1,8,0:2:0:0:
216,248,44730,1,2,0:2:0:0:
104,320,44961,6,0,L|104:280,3,40,2|0|0|0,0:2|0:2|0:2|0:2,0:2:0:0:
72,224,45423,2,0,L|32:224,2,40,0|0|0,0:2|0:2|0:2,0:2:0:0:
136,224,45769,2,0,L|176:224,2,40,0|0|0,0:2|0:2|0:2,0:2:0:0:
104,168,46115,5,0,0:2:0:0:
104,128,46230,1,0,0:2:0:0:
118,90,46346,1,0,0:2:0:0:
143,59,46461,1,0,0:2:0:0:
177,38,46576,1,0,0:2:0:0:
216,29,46692,1,0,0:2:0:0:
255,33,46807,5,4,0:2:0:0:
32,336,68961,6,0,B|104:264|39:90|39:90|176:-16|328:92|328:92|256:240|344:336,1,831.999961914064,0|0,0:2|0:2,0:2:0:0:
432,144,71269,1,0,0:2:0:0:
392,288,72653,6,0,B|368:248|192:264|192:264|152:112|152:112|256:128|288:64|288:64|291:136|352:64|352:64|356:136|416:64|416:64|424:144|472:64,1,831.999961914064,0|0,0:2|0:2,0:2:0:0:
248,184,74961,1,0,0:2:0:0:
160,80,76346,6,0,B|224:144|224:144|224:224|144:176|144:176|256:349|256:349|368:176|368:176|288:224|288:144|288:144|352:80,1,831.999961914064,0|0,0:2|0:2,0:2:0:0:
256,232,78653,1,0,0:2:0:0:
256,192,80038,6,0,B|232:203|231:236|231:236|231:259|244:276|244:276|259:296|288:300|288:300|315:302|340:292|340:292|367:278|384:256|384:256|403:229|408:200|408:200|414:160|400:124|400:124|385:90|360:64|360:64|324:33|280:28|280:28|232:24|196:36,1,623.999971435548,0|0,0:2|0:2,0:2:0:0:
126,173,81884,6,0,P|126:188|128:204,3,31.2000010473633,0|0|0|0,0:2|0:2|0:2|0:2,0:2:0:0:
135,235,82346,2,0,P|140:251|147:263,3,31.2000010473633,0|0|0|0,0:2|0:2|0:2|0:2,0:2:0:0:
164,290,82807,5,0,0:2:0:0:
185,312,82923,1,0,0:2:0:0:
210,331,83038,1,0,0:2:0:0:
237,346,83153,1,0,0:2:0:0:
267,355,83269,1,0,0:2:0:0:
298,359,83384,1,0,0:2:0:0:
329,358,83500,1,0,0:2:0:0:
360,352,83615,1,0,0:2:0:0:
389,340,83730,6,0,P|433:308|445:280,1,80,4|0,0:2|0:2,0:2:0:0:
472,160,84192,1,8,0:2:0:0:
352,88,84423,1,0,0:2:0:0:
352,88,84538,1,0,0:2:0:0:
352,88,84653,1,0,0:2:0:0:
352,88,84769,1,0,0:2:0:0:
352,88,84884,2,0,P|310:65|277:63,1,80,0|8,0:2|0:2,0:2:0:0:
344,240,85346,1,0,0:2:0:0:
216,168,85576,6,0,B|172:160|164:176|116:168,1,80,0|0,0:2|0:2,0:2:0:0:
8,104,86038,1,8,0:2:0:0:
136,40,86269,1,0,0:2:0:0:
136,40,86384,1,0,0:2:0:0:
136,40,86500,1,0,0:2:0:0:
136,40,86615,1,0,0:2:0:0:
136,40,86730,2,0,P|180:40|224:56,1,80,0|8,0:2|0:2,0:2:0:0:
92,212,87423,6,0,P|124:244|188:252,1,80,0|0,0:2|0:2,0:2:0:0:
172,160,87884,1,8,0:2:0:0:
328,232,88115,1,0,0:2:0:0:
328,232,88230,1,0,0:2:0:0:
328,232,88346,1,0,0:2:0:0:
328,232,88461,1,0,0:2:0:0:
328,232,88576,2,0,P|368:212|404:216,1,80,0|8,0:2|0:2,0:2:0:0:
340,32,89038,1,0,0:2:0:0:
468,180,89269,6,0,P|472:144|504:116,1,80,0|0,0:2|0:2,0:2:0:0:
340,32,89730,1,8,0:2:0:0:
168,116,89961,1,0,0:2:0:0:
168,116,90076,1,0,0:2:0:0:
168,116,90192,1,0,0:2:0:0:
168,116,90307,1,0,0:2:0:0:
168,116,90423,2,0,P|208:164|208:196,1,80,0|8,0:2|0:2,0:2:0:0:
424,312,91115,6,0,P|376:304|320:312,1,80,0|0,0:2|0:2,0:2:0:0:
132,240,91576,1,8,0:2:0:0:
408,224,91807,1,0,0:2:0:0:
427,189,91923,1,0,0:2:0:0:
436,150,92038,1,0,0:2:0:0:
432,110,92153,1,0,0:2:0:0:
417,74,92269,1,0,0:2:0:0:
332,32,92500,1,8,0:2:0:0:
96,48,92730,1,0,0:2:0:0:
272,112,92961,5,0,0:2:0:0:
96,176,93192,1,0,0:2:0:0:
272,240,93423,1,8,0:2:0:0:
96,304,93653,1,0,0:2:0:0:
96,304,93769,1,0,0:2:0:0:
96,304,93884,1,0,0:2:0:0:
96,304,94000,1,0,0:2:0:0:
96,304,94115,2,0,P|144:320|188:308,1,80,0|8,0:2|0:2,0:2:0:0:
424,240,94807,6,0,L|424:336,1,80,0|0,0:2|0:2,0:2:0:0:
280,320,95269,1,8,0:2:0:0:
136,320,95500,1,0,0:2:0:0:
96,304,95615,1,0,0:2:0:0:
72,272,95730,1,0,0:2:0:0:
72,232,95846,1,0,0:2:0:0:
82,193,95961,2,0,P|144:144|164:144,1,80,0|8,0:2|0:2,0:2:0:0:
220,136,96423,1,0,0:2:0:0:
344,96,96653,6,0,P|424:80|448:88,1,80,4|0,0:2|0:2,0:2:0:0:
420,79,97000,1,0,0:2:0:0:
420,79,97115,2,0,P|407:128|423:168,1,80,8|0,0:2|0:2,0:2:0:0:
426,193,97461,2,0,P|370:177|330:177,1,80,0|0,0:2|0:2,0:2:0:0:
309,175,97807,2,0,P|349:215|349:263,1,80,8|8,0:2|0:2,0:2:0:0:
352,280,98153,1,0,0:2:0:0:
148,276,98500,5,4,0:2:0:0:
200,144,98961,1,8,0:2:0:0:
268,116,99192,1,0,0:2:0:0:
268,116,99307,1,0,0:2:0:0:
268,116,99423,1,0,0:2:0:0:
268,116,99538,1,0,0:2:0:0:
268,116,99653,1,0,0:2:0:0:
388,236,99884,1,8,0:2:0:0:
332,76,100115,1,0,0:2:0:0:
452,196,100346,6,0,P|416:120|440:48,1,160,0|8,0:2|0:2,0:2:0:0:
332,76,101038,2,0,L|296:32,2,40,0|0|0,0:2|0:2|0:2,0:2:0:0:
124,84,101500,1,0,0:2:0:0:
268,116,101730,2,0,L|304:160,1,40,8|0,0:2|0:2,0:2:0:0:
148,276,102192,5,4,0:2:0:0:
292,268,102653,1,8,0:2:0:0:
364,336,102884,1,0,0:2:0:0:
364,336,103000,1,0,0:2:0:0:
364,336,103115,1,0,0:2:0:0:
364,336,103230,1,0,0:2:0:0:
364,336,103346,1,0,0:2:0:0:
420,292,103576,1,8,0:2:0:0:
448,228,103807,1,0,0:2:0:0:
464,156,104038,6,0,P|408:208|316:200,1,160,0|8,0:2|0:2,0:2:0:0:
368,96,104730,2,0,L|350:48,2,40,0|0|0,0:2|0:2|0:2,0:2:0:0:
390,164,105192,1,0,0:2:0:0:
414,231,105423,2,0,L|428:268,1,40,8|0,0:2|0:2,0:2:0:0:
148,276,105884,5,4,0:2:0:0:
272,104,106346,1,8,0:2:0:0:
176,56,106576,1,0,0:2:0:0:
176,56,106692,1,0,0:2:0:0:
176,56,106807,1,0,0:2:0:0:
176,56,106923,1,0,0:2:0:0:
176,56,107038,1,0,0:2:0:0:
124,206,107269,1,8,0:2:0:0:
19,85,107500,1,0,0:2:0:0:
176,56,107730,6,0,B|200:80|176:112|176:112|192:128|192:128|152:176|192:208,1,160,0|8,0:2|0:2,0:2:0:0:
108,236,108423,2,0,L|68:212,2,40,0|0|0,0:2|0:2|0:2,0:2:0:0:
180,272,108884,1,0,0:2:0:0:
114,317,109115,2,0,L|91:350,1,40,8|0,0:2|0:2,0:2:0:0:
256,269,109576,6,0,B|256:211|256:211|256:177|305:128|305:128|325:108|325:79|325:79|325:51|304:30|304:30|284:10|256:10|256:10|228:10|207:31|207:31|187:51|187:80|187:80|187:110|204:127|204:127,1,480,4|0,0:2|0:2,0:2:0:0:
256,268,111423,2,0,L|256:308,3,40,8|0|0|0,0:2|0:2|0:2|0:2,0:2:0:0:
224,364,111884,2,0,L|176:388,2,40,8|0|0,0:2|0:2|0:2,0:2:0:0:
288,364,112230,2,0,L|336:388,2,40,8|0|0,0:2|0:2|0:2,0:2:0:0:
256,308,112576,5,0,0:2:0:0:
258,268,112692,1,0,0:2:0:0:
279,235,112807,1,8,0:2:0:0:
244,217,112923,1,0,0:2:0:0:
220,185,113038,1,8,0:2:0:0:
215,146,113153,1,8,0:2:0:0:
