osu file format v12

[General]
AudioFilename: nekodex - osu!stream theme.mp3
AudioLeadIn: 0
PreviewTime: 2823
Countdown: 1
SampleSet: Normal
StackLeniency: 0.7
Mode: 0
LetterboxInBreaks: 1
SkinPreference:osu!stream
WidescreenStoryboard: 1

[Editor]
DistanceSpacing: 0.8
BeatDivisor: 4
GridSize: 32
TimelineZoom: 1

[Metadata]
Title:osu!stream theme
TitleUnicode:osu!stream theme
Artist:nekodex
ArtistUnicode:nekodex
Creator:SZF
Version:Insane
Source:osu!stream
Tags:osu!stream iOS
BeatmapID:360665
BeatmapSetID:145387

[Difficulty]
HPDrainRate:5
CircleSize:5
OverallDifficulty:5
ApproachRate:6
SliderMultiplier:1.00000000596046
SliderTickRate:2

[Events]
//Background and Video events
0,0,"bg-default.png",0,0
//Break Periods
2,51211,58511
//Storyboard Layer 0 (Background)
//Storyboard Layer 1 (Fail)
//Storyboard Layer 2 (Pass)
//Storyboard Layer 3 (Foreground)
//Storyboard Sound Samples
//Background Colour Transformations
3,100,163,162,255

[TimingPoints]
3011.39283806013,375,4,1,0,100,1,0

[Colours]
Combo1 : 255,0,180
Combo2 : 255,255,0
Combo3 : 255,51,0
Combo4 : 0,100,255

[HitObjects]
160,160,3011,5,0,0:0:0:0:
256,160,3386,1,0,0:0:0:0:
160,96,3948,2,8,L|224:96,1,50.000000298023
192,192,4511,1,0,0:0:0:0:
256,256,4886,1,0,0:0:0:0:
320,224,5261,1,8,0:0:0:0:
288,192,5448,1,0,0:0:0:0:
288,160,5636,2,4,B|352:128|352:128|384:128,1,100.000000596046
320,64,6386,5,0,0:0:0:0:
192,96,6948,2,0,L|128:96,1,50.000000298023
128,160,7511,1,0,0:0:0:0:
192,160,7886,1,0,0:0:0:0:
224,160,7980,1,0,0:0:0:0:
128,224,8261,1,8,0:0:0:0:
128,192,8355,1,0,0:0:0:0:
128,256,8448,1,8,0:0:0:0:
128,224,8542,1,0,0:0:0:0:
160,288,8636,1,4,0:0:0:0:
192,320,9011,6,4,P|256:288|256:256,1,100.000000596046
224,224,9948,1,0,0:0:0:0:
256,192,10136,1,0,0:0:0:0:
192,192,10511,1,8,0:0:0:0:
192,128,10886,1,8,0:0:0:0:
128,96,11261,1,0,0:0:0:0:
160,96,11355,1,0,0:0:0:0:
128,128,11448,1,0,0:0:0:0:
96,128,11542,1,0,0:0:0:0:
128,160,11636,2,4,L|96:256|96:256,1,100.000000596046
32,224,12386,5,0,0:0:0:0:
160,320,12948,1,0,0:0:0:0:
128,288,13136,1,0,0:0:0:0:
96,224,13511,1,0,0:0:0:0:
160,192,13886,1,0,0:0:0:0:
128,128,14261,1,4,0:0:0:0:
128,96,14355,1,0,0:0:0:0:
160,96,14448,1,4,0:0:0:0:
192,96,14542,1,0,0:0:0:0:
192,128,14636,1,4,0:0:0:0:
256,64,15011,5,0,0:0:0:0:
256,96,15198,1,0,0:0:0:0:
256,128,15386,1,0,0:0:0:0:
320,160,15948,1,8,0:0:0:0:
320,160,16136,1,8,0:0:0:0:
256,192,16511,2,0,P|192:192|192:224,1,100.000000596046
128,160,17261,1,4,0:0:0:0:
128,128,17355,1,4,0:0:0:0:
128,96,17448,1,4,0:0:0:0:
128,64,17542,1,4,0:0:0:0:
128,32,17636,1,4,0:0:0:0:
192,32,18011,5,2,0:0:0:0:
224,32,18198,1,2,0:0:0:0:
256,32,18386,1,2,0:0:0:0:
288,96,18761,1,0,0:0:0:0:
256,96,18948,1,0,0:0:0:0:
224,96,19136,1,0,0:0:0:0:
160,160,19511,2,4,L|160:224|160:224,2,50.000000298023
192,192,20073,1,0,0:0:0:0:
224,160,20261,2,4,L|224:224,2,50.000000298023
256,160,20730,2,0,L|256:96,1,50.000000298023
320,96,21011,5,0,0:0:0:0:
384,96,21198,1,0,0:0:0:0:
448,96,21386,1,0,0:0:0:0:
448,96,21761,1,8,0:0:0:0:
384,96,21948,1,8,0:0:0:0:
320,96,22136,1,8,0:0:0:0:
128,96,22511,1,0,0:0:0:0:
160,160,22698,1,0,0:0:0:0:
160,128,22886,1,0,0:0:0:0:
192,192,23073,1,0,0:0:0:0:
192,288,23167,2,0,L|224:288,4,25.0000001490115
288,192,23730,1,0,0:0:0:0:
288,192,23823,1,0,0:0:0:0:
256,64,24011,6,4,L|320:64,2,50.000000298023
306,64,24573,1,2,0:0:0:0:
384,64,24761,2,4,L|320:64,2,50.000000298023
306,64,25323,1,0,0:0:0:0:
0,32,25886,1,0,0:0:0:0:
256,192,26073,1,6,0:0:0:0:
512,352,26261,1,0,0:0:0:0:
0,352,26636,1,6,0:0:0:0:
256,192,26823,1,0,0:0:0:0:
480,0,27011,5,0,0:0:0:0:
448,32,27105,1,0,0:0:0:0:
416,32,27198,1,0,0:0:0:0:
448,64,27292,1,0,0:0:0:0:
480,96,27386,1,0,0:0:0:0:
480,192,27573,1,2,0:0:0:0:
480,256,27761,1,0,0:0:0:0:
448,288,27855,1,0,0:0:0:0:
416,320,27948,1,0,0:0:0:0:
448,320,28042,1,0,0:0:0:0:
480,352,28136,1,4,0:0:0:0:
0,0,28511,1,0,0:0:0:0:
64,64,28698,1,0,0:0:0:0:
96,128,28886,1,0,0:0:0:0:
128,192,29073,1,2,0:0:0:0:
0,256,29261,1,0,0:0:0:0:
32,288,29355,1,0,0:0:0:0:
64,320,29448,1,0,0:0:0:0:
32,320,29542,1,0,0:0:0:0:
0,352,29636,1,4,0:0:0:0:
0,0,30011,5,0,0:0:0:0:
32,32,30105,1,0,0:0:0:0:
64,32,30198,1,0,0:0:0:0:
32,64,30292,1,0,0:0:0:0:
0,96,30386,1,0,0:0:0:0:
0,192,30573,1,2,0:0:0:0:
0,256,30761,1,0,0:0:0:0:
32,288,30855,1,0,0:0:0:0:
64,320,30948,1,0,0:0:0:0:
32,320,31042,1,0,0:0:0:0:
0,352,31136,1,4,0:0:0:0:
480,352,31511,1,0,0:0:0:0:
416,320,31698,1,0,0:0:0:0:
384,256,31886,1,0,0:0:0:0:
320,192,32073,1,2,0:0:0:0:
480,96,32261,1,0,0:0:0:0:
448,64,32355,1,0,0:0:0:0:
416,32,32448,1,0,0:0:0:0:
448,32,32542,1,0,0:0:0:0:
480,0,32636,1,4,0:0:0:0:
0,0,33011,6,0,L|96:32,1,100.000000596046
256,0,33573,1,2,0:0:0:0:
416,32,33761,2,0,L|512:0,1,100.000000596046
512,192,34323,1,2,0:0:0:0:
512,384,34511,2,0,L|416:352,1,100.000000596046
256,384,35073,1,2,0:0:0:0:
96,352,35261,2,4,L|0:384,1,100.000000596046
0,0,36011,6,0,L|96:32,1,100.000000596046
256,0,36573,1,2,0:0:0:0:
416,32,36761,2,0,L|512:0,1,100.000000596046
512,192,37323,1,2,0:0:0:0:
512,384,37511,2,0,L|416:352,1,100.000000596046
256,384,38073,1,2,0:0:0:0:
96,352,38261,2,4,L|0:384,1,100.000000596046
480,0,39011,5,0,0:0:0:0:
448,32,39105,1,0,0:0:0:0:
416,32,39198,1,0,0:0:0:0:
448,64,39292,1,0,0:0:0:0:
480,96,39386,1,0,0:0:0:0:
480,192,39573,1,2,0:0:0:0:
480,256,39761,1,0,0:0:0:0:
448,288,39855,1,0,0:0:0:0:
416,320,39948,1,0,0:0:0:0:
448,320,40042,1,0,0:0:0:0:
480,352,40136,1,4,0:0:0:0:
0,0,40511,1,0,0:0:0:0:
64,64,40698,1,0,0:0:0:0:
96,128,40886,1,0,0:0:0:0:
128,192,41073,1,2,0:0:0:0:
0,256,41261,1,0,0:0:0:0:
32,288,41355,1,0,0:0:0:0:
64,320,41448,1,0,0:0:0:0:
32,320,41542,1,0,0:0:0:0:
0,352,41636,1,4,0:0:0:0:
0,0,42011,5,0,0:0:0:0:
32,32,42105,1,0,0:0:0:0:
64,32,42198,1,0,0:0:0:0:
32,64,42292,1,0,0:0:0:0:
0,96,42386,1,0,0:0:0:0:
0,192,42573,1,2,0:0:0:0:
0,256,42761,1,0,0:0:0:0:
32,288,42855,1,0,0:0:0:0:
64,320,42948,1,0,0:0:0:0:
32,320,43042,1,0,0:0:0:0:
0,352,43136,1,4,0:0:0:0:
480,352,43511,1,0,0:0:0:0:
416,320,43698,1,0,0:0:0:0:
384,256,43886,1,0,0:0:0:0:
320,192,44073,1,2,0:0:0:0:
480,96,44261,1,0,0:0:0:0:
448,64,44355,1,0,0:0:0:0:
416,32,44448,1,0,0:0:0:0:
448,32,44542,1,0,0:0:0:0:
480,0,44636,1,4,0:0:0:0:
0,0,45011,6,0,L|96:32,1,100.000000596046
256,0,45573,1,2,0:0:0:0:
416,32,45761,2,0,L|512:0,1,100.000000596046
512,192,46323,1,2,0:0:0:0:
512,384,46511,2,0,L|416:352,1,100.000000596046
256,384,47073,1,2,0:0:0:0:
96,352,47261,2,4,L|0:384,1,100.000000596046
0,0,48011,6,0,L|96:32,1,100.000000596046
256,0,48573,1,2,0:0:0:0:
416,32,48761,2,0,L|512:0,1,100.000000596046
512,192,49323,1,2,0:0:0:0:
512,384,49511,2,0,L|416:352,1,100.000000596046
256,384,50073,1,6,0:0:0:0:
256,192,50261,12,4,51011,0:0:0:0:
96,288,60011,6,8,L|192:320,1,100.000000596046
256,320,60573,1,4,0:0:0:0:
320,320,60761,2,8,L|416:288,1,100.000000596046
0,0,61511,1,2,0:0:0:0:
64,32,61698,1,2,0:0:0:0:
0,64,61886,1,2,0:0:0:0:
64,96,62073,1,2,0:0:0:0:
32,160,62261,2,0,L|0:160,2,25.0000001490115
96,192,62542,2,4,L|128:192,5,25.0000001490115
160,128,63105,5,0,0:0:0:0:
192,128,63198,1,0,0:0:0:0:
192,160,63292,1,0,0:0:0:0:
224,160,63386,1,4,0:0:0:0:
256,192,63573,1,8,0:0:0:0:
160,160,63761,1,0,0:0:0:0:
160,128,63855,1,0,0:0:0:0:
128,128,63948,1,0,0:0:0:0:
128,160,64042,1,0,0:0:0:0:
96,160,64136,2,4,L|0:192,2,100.000000596046
32,256,65073,1,0,0:0:0:0:
96,288,65261,1,0,0:0:0:0:
160,288,65448,1,0,0:0:0:0:
96,256,65636,1,4,0:0:0:0:
256,96,66011,6,8,L|352:160,2,100.000000596046
288,32,66948,2,4,L|352:32,1,50.000000298023
352,96,67323,1,0,0:0:0:0:
384,96,67417,1,0,0:0:0:0:
416,96,67511,1,0,0:0:0:0:
448,96,67605,1,0,0:0:0:0:
480,96,67698,1,0,0:0:0:0:
512,96,67792,1,0,0:0:0:0:
512,96,67886,1,0,0:0:0:0:
480,96,67980,1,0,0:0:0:0:
448,96,68073,1,0,0:0:0:0:
416,96,68167,1,0,0:0:0:0:
384,96,68261,1,0,0:0:0:0:
384,160,68448,1,4,0:0:0:0:
448,160,68636,1,4,0:0:0:0:
416,160,68823,1,4,0:0:0:0:
160,64,69011,5,0,0:0:0:0:
192,64,69105,1,0,0:0:0:0:
192,96,69198,1,0,0:0:0:0:
160,96,69292,1,0,0:0:0:0:
160,128,69386,1,2,0:0:0:0:
128,224,69761,1,0,0:0:0:0:
160,192,69855,1,0,0:0:0:0:
192,224,69948,1,0,0:0:0:0:
224,256,70042,1,0,0:0:0:0:
256,224,70136,1,2,0:0:0:0:
320,192,70511,2,4,B|480:192|480:192|480:32,1,300.000001788138
384,192,70699,1,4,0:0:0:0:
416,192,70886,1,4,0:0:0:0:
480,192,71074,1,4,0:0:0:0:
480,160,71261,1,4,0:0:0:0:
480,96,71449,1,4,0:0:0:0:
416,32,72011,5,0,0:0:0:0:
384,32,72105,1,0,0:0:0:0:
384,64,72198,1,0,0:0:0:0:
416,64,72292,1,0,0:0:0:0:
416,96,72386,1,2,0:0:0:0:
320,128,72761,1,0,0:0:0:0:
288,160,72855,1,0,0:0:0:0:
256,128,72948,1,0,0:0:0:0:
224,96,73042,1,0,0:0:0:0:
192,128,73136,1,2,0:0:0:0:
160,192,73511,2,4,B|320:192|320:192|320:32,1,300.000001788138
224,192,73699,1,4,0:0:0:0:
256,192,73886,1,4,0:0:0:0:
320,192,74074,1,4,0:0:0:0:
320,160,74261,1,4,0:0:0:0:
320,96,74449,1,4,0:0:0:0:
64,64,75011,5,0,0:0:0:0:
64,64,75105,1,0,0:0:0:0:
128,64,75198,1,0,0:0:0:0:
128,64,75292,1,0,0:0:0:0:
96,96,75386,1,2,0:0:0:0:
448,320,75761,1,0,0:0:0:0:
448,320,75855,1,0,0:0:0:0:
384,320,75948,1,0,0:0:0:0:
384,320,76042,1,0,0:0:0:0:
416,288,76136,1,2,0:0:0:0:
0,384,76511,1,4,0:0:0:0:
256,192,76698,1,4,0:0:0:0:
512,0,76886,1,4,0:0:0:0:
512,384,77261,1,4,0:0:0:0:
256,192,77448,1,4,0:0:0:0:
0,0,77636,1,4,0:0:0:0:
384,320,78011,5,0,0:0:0:0:
384,320,78105,1,0,0:0:0:0:
448,320,78198,1,0,0:0:0:0:
448,320,78292,1,0,0:0:0:0:
416,352,78386,1,2,0:0:0:0:
128,96,78761,1,0,0:0:0:0:
128,96,78855,1,0,0:0:0:0:
64,96,78948,1,0,0:0:0:0:
64,96,79042,1,0,0:0:0:0:
96,64,79136,1,2,0:0:0:0:
0,384,79511,1,4,0:0:0:0:
256,192,79698,1,4,0:0:0:0:
512,0,79886,1,4,0:0:0:0:
512,384,80261,1,4,0:0:0:0:
256,192,80448,1,4,0:0:0:0:
0,0,80636,1,4,0:0:0:0:
160,64,81011,5,0,0:0:0:0:
192,64,81105,1,0,0:0:0:0:
192,96,81198,1,0,0:0:0:0:
160,96,81292,1,0,0:0:0:0:
160,128,81386,1,2,0:0:0:0:
128,224,81761,1,0,0:0:0:0:
160,192,81855,1,0,0:0:0:0:
192,224,81948,1,0,0:0:0:0:
224,256,82042,1,0,0:0:0:0:
256,224,82136,1,2,0:0:0:0:
320,192,82511,2,4,B|480:192|480:192|480:32,1,300.000001788138
384,192,82699,1,4,0:0:0:0:
416,192,82886,1,4,0:0:0:0:
480,192,83074,1,4,0:0:0:0:
480,160,83261,1,4,0:0:0:0:
480,96,83449,1,4,0:0:0:0:
416,32,84011,5,0,0:0:0:0:
384,32,84105,1,0,0:0:0:0:
384,64,84198,1,0,0:0:0:0:
416,64,84292,1,0,0:0:0:0:
416,96,84386,1,2,0:0:0:0:
320,128,84761,1,0,0:0:0:0:
288,160,84855,1,0,0:0:0:0:
256,128,84948,1,0,0:0:0:0:
224,96,85042,1,0,0:0:0:0:
192,128,85136,1,2,0:0:0:0:
160,192,85511,2,4,B|320:192|320:192|320:32,1,300.000001788138
224,192,85699,1,4,0:0:0:0:
256,192,85886,1,4,0:0:0:0:
320,192,86074,1,4,0:0:0:0:
320,160,86261,1,4,0:0:0:0:
320,96,86449,1,4,0:0:0:0:
64,64,87011,5,0,0:0:0:0:
64,64,87105,1,0,0:0:0:0:
128,64,87198,1,0,0:0:0:0:
128,64,87292,1,0,0:0:0:0:
96,96,87386,1,2,0:0:0:0:
448,320,87761,1,0,0:0:0:0:
448,320,87855,1,0,0:0:0:0:
384,320,87948,1,0,0:0:0:0:
384,320,88042,1,0,0:0:0:0:
416,288,88136,1,2,0:0:0:0:
0,384,88511,1,4,0:0:0:0:
256,192,88698,1,4,0:0:0:0:
512,0,88886,1,4,0:0:0:0:
512,384,89261,1,4,0:0:0:0:
256,192,89448,1,4,0:0:0:0:
0,0,89636,1,4,0:0:0:0:
384,320,90011,5,0,0:0:0:0:
384,320,90105,1,0,0:0:0:0:
448,320,90198,1,0,0:0:0:0:
448,320,90292,1,0,0:0:0:0:
416,352,90386,1,2,0:0:0:0:
128,96,90761,1,0,0:0:0:0:
128,96,90855,1,0,0:0:0:0:
64,96,90948,1,0,0:0:0:0:
64,96,91042,1,0,0:0:0:0:
96,64,91136,1,2,0:0:0:0:
0,384,91511,1,4,0:0:0:0:
256,192,91698,1,4,0:0:0:0:
512,0,91886,1,4,0:0:0:0:
512,384,92261,1,4,0:0:0:0:
256,192,92448,1,4,0:0:0:0:
0,0,92636,1,4,0:0:0:0:
512,384,93011,5,8,0:0:0:0:
0,0,93386,1,8,0:0:0:0:
512,0,93761,1,8,0:0:0:0:
0,384,94136,1,8,0:0:0:0:
0,192,94511,1,0,0:0:0:0:
64,192,94605,1,0,0:0:0:0:
128,192,94698,1,0,0:0:0:0:
192,192,94792,1,0,0:0:0:0:
256,192,94886,1,0,0:0:0:0:
320,192,94980,1,0,0:0:0:0:
384,192,95073,1,0,0:0:0:0:
448,192,95167,1,0,0:0:0:0:
512,192,95261,1,4,0:0:0:0:
384,256,95448,1,4,0:0:0:0:
128,256,95635,1,4,0:0:0:0:
0,0,96011,5,8,0:0:0:0:
512,384,96386,1,8,0:0:0:0:
0,384,96761,1,8,0:0:0:0:
512,0,97136,1,8,0:0:0:0:
512,192,97511,1,0,0:0:0:0:
448,192,97605,1,0,0:0:0:0:
384,192,97698,1,0,0:0:0:0:
320,192,97792,1,0,0:0:0:0:
256,192,97886,1,0,0:0:0:0:
192,192,97980,1,0,0:0:0:0:
128,192,98073,1,0,0:0:0:0:
64,192,98167,1,0,0:0:0:0:
0,192,98261,1,4,0:0:0:0:
128,256,98448,1,4,0:0:0:0:
384,256,98635,1,4,0:0:0:0:
256,192,99011,12,4,104636,0:0:0:0:
