osu file format v12

[General]
AudioFilename: Toki wo Kizamu Uta -Trance Arrange-.mp3
AudioLeadIn: 0
PreviewTime: 93388
Countdown: 0
SampleSet: Soft
StackLeniency: 0.7
Mode: 3
LetterboxInBreaks: 1

[Editor]
DistanceSpacing: 0.8
BeatDivisor: 4
GridSize: 8

[Metadata]
Title:Toki wo Kizamu Uta
TitleUnicode:時を刻む唄
Artist:nayuta
ArtistUnicode:nayuta
Creator:Hanyuu
Version:7K NM
Source:Clannad ~After Story~
Tags:
BeatmapID:222258
BeatmapSetID:65847

[Difficulty]
HPDrainRate:7
CircleSize:7
OverallDifficulty:7
ApproachRate:7
SliderMultiplier:0.400000005960464
SliderTickRate:1

[Events]
//Background and Video events
0,0,"bg.jpg",0,0
//Break Periods
//Storyboard Layer 0 (Background)
//Storyboard Layer 1 (Fail)
//Storyboard Layer 2 (Pass)
//Storyboard Layer 3 (Foreground)
//Storyboard Sound Samples
//Background Colour Transformations
3,100,0,0,0

[TimingPoints]
4506,431.654676258993,4,2,0,5,1,0
7959,-100,4,2,1,70,0,0
35584,431.465328165338,4,2,0,70,1,0
66632,431.654676258993,4,2,0,70,1,0
94259,-100,4,2,0,70,0,1
121883,-100,4,2,0,50,0,0
135696,-100,4,2,1,70,0,1
147567,-100,4,2,1,70,0,0

[Colours]
Combo1 : 17,254,176
Combo2 : 173,255,95
Combo3 : 255,88,100
Combo4 : 255,55,220

[HitObjects]
256,192,5153,128,0,7959:0:0:0:0:
182,290,8606,1,0,0:0:0:0:
329,192,9254,128,0,10980:0:0:0:0:
182,292,11412,1,0,0:0:0:0:
109,285,12059,1,0,0:0:0:0:
402,324,12707,1,0,0:0:0:0:
329,192,12923,128,0,14434:0:0:0:0:
182,279,13354,1,0,0:0:0:0:
109,278,14002,1,0,0:0:0:0:
182,279,14434,1,0,0:0:0:0:
256,310,14865,1,0,0:0:0:0:
402,319,15297,1,0,0:0:0:0:
329,309,15513,1,0,0:0:0:0:
182,293,16160,1,0,0:0:0:0:
182,293,16376,1,0,0:0:0:0:
329,284,16808,1,0,0:0:0:0:
329,284,17023,1,0,0:0:0:0:
256,269,17455,1,0,0:0:0:0:
36,274,17887,1,0,0:0:0:0:
329,192,18318,128,0,18966:0:0:0:0:
256,192,18966,128,0,19613:0:0:0:0:
109,192,19613,128,0,20045:0:0:0:0:
182,302,20908,1,0,0:0:0:0:
329,307,20908,1,0,0:0:0:0:
256,296,21340,1,0,0:0:0:0:
402,299,21340,1,0,0:0:0:0:
36,310,21772,1,0,0:0:0:0:
475,192,21772,1,0,1:0:0:0:
109,309,21988,1,0,0:0:0:0:
329,264,22203,1,2,0:0:0:0:
329,264,22419,1,2,0:0:0:0:
256,267,23067,1,2,0:0:0:0:
182,267,23282,1,0,0:0:0:0:
402,281,23714,1,2,0:0:0:0:
329,281,23930,1,0,0:0:0:0:
36,286,24362,1,0,0:0:0:0:
475,313,24793,1,2,0:0:0:0:
329,304,25225,1,0,0:0:0:0:
256,296,25441,1,0,0:0:0:0:
182,296,25657,1,2,0:0:0:0:
329,304,25872,1,0,0:0:0:0:
182,296,26304,1,0,0:0:0:0:
329,304,26520,1,2,0:0:0:0:
402,306,26736,1,0,0:0:0:0:
256,296,26952,1,0,0:0:0:0:
329,304,27167,1,2,0:0:0:0:
402,306,27383,1,0,0:0:0:0:
182,296,27599,1,0,0:0:0:0:
256,268,27815,1,2,0:0:0:0:
329,258,28031,1,0,0:0:0:0:
36,296,28247,1,0,0:0:0:0:
329,322,28678,1,0,0:0:0:0:
402,268,29110,1,2,0:0:0:0:
402,268,29326,1,2,0:0:0:0:
256,287,29757,1,0,0:0:0:0:
329,287,29973,1,2,0:0:0:0:
109,294,30405,1,0,0:0:0:0:
182,294,30621,1,2,0:0:0:0:
36,298,31268,1,0,0:0:0:0:
329,325,31268,1,0,0:0:0:0:
475,318,31700,1,2,0:0:0:0:
402,267,32131,1,0,0:0:0:0:
329,255,32563,1,0,0:0:0:0:
36,257,32779,1,0,0:0:0:0:
256,293,32995,1,0,0:0:0:0:
182,276,33211,1,0,0:0:0:0:
109,277,33426,1,0,0:0:0:0:
36,192,33642,128,0,35585:0:0:0:0:
256,296,35584,1,0,1:0:0:0:
182,273,38172,1,0,0:0:0:0:
109,275,38172,1,0,0:0:0:0:
329,264,39035,1,0,0:0:0:0:
402,265,39035,1,0,0:0:0:0:
256,273,41624,1,0,0:0:0:0:
182,273,41624,1,0,0:0:0:0:
256,273,42487,1,0,0:0:0:0:
329,271,42487,1,0,0:0:0:0:
36,268,45076,1,0,0:0:0:0:
182,269,45076,1,0,0:0:0:0:
329,268,45939,1,0,0:0:0:0:
475,281,45939,1,0,0:0:0:0:
256,309,48527,1,0,0:0:0:0:
256,309,48959,1,0,0:0:0:0:
182,192,49390,128,0,50038:0:0:0:0:
109,192,50038,128,0,50685:0:0:0:0:
329,192,50685,128,0,52842:0:0:0:0:
109,261,51979,1,0,0:0:0:0:
402,313,52842,1,2,0:0:0:0:
402,313,53058,1,2,0:0:0:0:
402,313,53705,1,0,0:0:0:0:
182,288,54137,1,0,0:0:0:0:
402,313,54352,1,0,0:0:0:0:
36,281,54568,1,0,0:0:0:0:
256,292,54568,1,2,0:0:0:0:
256,292,54784,1,2,0:0:0:0:
256,292,55431,1,0,0:0:0:0:
36,281,55862,1,0,0:0:0:0:
256,292,56078,1,0,0:0:0:0:
182,290,56294,1,2,0:0:0:0:
402,279,56294,1,4,0:0:0:0:
182,290,56510,1,2,0:0:0:0:
182,290,57157,1,0,0:0:0:0:
402,279,57588,1,0,0:0:0:0:
182,290,57804,1,0,0:0:0:0:
475,281,58020,1,4,0:0:0:0:
256,292,58020,1,2,0:0:0:0:
256,292,58235,1,2,0:0:0:0:
256,292,58883,1,0,0:0:0:0:
476,281,59314,1,0,0:0:0:0:
256,292,59530,1,0,0:0:0:0:
329,293,59746,1,0,0:0:0:0:
109,282,59746,1,4,0:0:0:0:
329,293,59961,1,2,0:0:0:0:
182,239,60177,1,0,0:0:0:0:
402,318,60393,1,0,0:0:0:0:
329,293,60608,1,4,0:0:0:0:
402,318,60824,1,2,0:0:0:0:
109,282,61040,1,0,0:0:0:0:
182,239,61040,1,0,0:0:0:0:
329,293,61256,1,0,0:0:0:0:
402,318,61256,1,0,0:0:0:0:
182,239,61471,1,4,0:0:0:0:
109,242,61687,1,2,0:0:0:0:
36,248,61903,1,4,0:0:0:0:
182,239,62119,1,0,0:0:0:0:
329,293,62334,1,4,0:0:0:0:
402,318,62550,1,2,0:0:0:0:
475,306,62766,1,4,0:0:0:0:
329,271,62982,1,0,0:0:0:0:
36,242,63197,1,4,0:0:0:0:
182,256,63197,1,0,0:0:0:0:
256,308,63629,1,0,0:0:0:0:
329,271,63952,1,0,0:0:0:0:
329,311,64276,1,0,0:0:0:0:
109,306,64492,1,0,0:0:0:0:
182,310,64707,1,0,0:0:0:0:
402,300,64923,1,0,0:0:0:0:
402,298,65139,1,0,0:0:0:0:
256,289,65355,1,0,0:0:0:0:
109,289,65786,1,0,0:0:0:0:
109,319,66002,1,0,0:0:0:0:
329,311,66218,1,0,0:0:0:0:
402,192,66632,1,0,0:0:0:0:
256,192,66632,1,4,0:0:0:0:
109,192,66847,1,0,0:0:0:0:
329,192,67063,1,0,0:0:0:0:
182,192,67171,1,0,0:0:0:0:
402,192,67387,1,0,0:0:0:0:
402,192,67711,1,0,0:0:0:0:
109,192,67926,1,0,0:0:0:0:
329,192,68142,1,0,0:0:0:0:
402,192,68358,1,0,0:0:0:0:
109,192,68574,1,0,0:0:0:0:
329,192,68790,1,0,0:0:0:0:
182,192,68898,1,0,0:0:0:0:
402,192,69113,1,0,0:0:0:0:
402,192,69437,1,0,0:0:0:0:
109,192,69652,1,0,0:0:0:0:
329,192,69869,1,0,0:0:0:0:
402,192,70085,1,0,0:0:0:0:
182,192,70301,1,0,0:0:0:0:
109,192,70516,1,0,0:0:0:0:
329,192,70624,1,0,0:0:0:0:
329,192,70840,1,0,0:0:0:0:
256,192,71164,1,0,0:0:0:0:
402,192,71380,1,0,0:0:0:0:
475,192,71596,1,0,0:0:0:0:
402,192,71811,1,0,0:0:0:0:
182,192,72027,1,0,0:0:0:0:
109,192,72242,1,0,0:0:0:0:
329,192,72350,1,0,0:0:0:0:
329,192,72566,1,0,0:0:0:0:
256,192,72890,1,0,0:0:0:0:
402,192,73106,1,0,0:0:0:0:
475,192,73322,1,0,0:0:0:0:
329,192,73538,1,0,0:0:0:0:
36,192,73754,1,0,0:0:0:0:
256,192,73970,1,0,0:0:0:0:
109,192,74078,1,0,0:0:0:0:
329,192,74293,1,0,0:0:0:0:
329,192,74617,1,0,0:0:0:0:
36,192,74833,1,0,0:0:0:0:
256,192,75049,1,0,0:0:0:0:
329,192,75265,1,0,0:0:0:0:
36,192,75481,1,0,0:0:0:0:
256,192,75697,1,0,0:0:0:0:
109,192,75805,1,0,0:0:0:0:
329,192,76020,1,0,0:0:0:0:
329,192,76344,1,0,0:0:0:0:
36,192,76560,1,0,0:0:0:0:
402,192,76775,1,0,0:0:0:0:
475,192,76991,1,0,0:0:0:0:
182,192,77207,1,0,0:0:0:0:
402,192,77423,1,0,0:0:0:0:
256,192,77531,1,0,0:0:0:0:
475,192,77747,1,0,0:0:0:0:
475,192,78070,1,0,0:0:0:0:
182,192,78286,1,0,0:0:0:0:
329,192,78502,1,0,0:0:0:0:
475,192,78718,1,0,0:0:0:0:
182,192,78934,1,0,0:0:0:0:
402,192,79150,1,0,0:0:0:0:
256,192,79258,1,0,0:0:0:0:
475,192,79474,1,0,0:0:0:0:
475,192,79797,1,0,0:0:0:0:
182,192,80013,1,0,0:0:0:0:
329,192,80229,1,0,0:0:0:0:
402,192,80444,1,0,0:0:0:0:
256,192,80444,1,4,0:0:0:0:
109,192,80659,1,0,0:0:0:0:
329,192,80875,1,0,0:0:0:0:
182,192,80983,1,0,0:0:0:0:
402,192,81199,1,0,0:0:0:0:
402,192,81523,1,0,0:0:0:0:
109,192,81738,1,0,0:0:0:0:
329,192,81954,1,0,0:0:0:0:
402,192,82171,1,0,0:0:0:0:
109,192,82386,1,0,0:0:0:0:
329,192,82602,1,0,0:0:0:0:
182,192,82710,1,0,0:0:0:0:
402,192,82926,1,0,0:0:0:0:
402,192,83250,1,0,0:0:0:0:
109,192,83465,1,0,0:0:0:0:
329,192,83681,1,0,0:0:0:0:
402,192,83898,1,0,0:0:0:0:
182,192,84114,1,0,0:0:0:0:
109,192,84329,1,0,0:0:0:0:
329,192,84437,1,0,0:0:0:0:
329,192,84653,1,0,0:0:0:0:
256,192,84977,1,0,0:0:0:0:
402,192,85193,1,0,0:0:0:0:
475,192,85409,1,0,0:0:0:0:
402,192,85624,1,0,0:0:0:0:
182,192,85840,1,0,0:0:0:0:
109,192,86055,1,0,0:0:0:0:
329,192,86163,1,0,0:0:0:0:
329,192,86379,1,0,0:0:0:0:
256,192,86703,1,0,0:0:0:0:
402,192,86919,1,0,0:0:0:0:
475,192,87135,1,0,0:0:0:0:
329,192,87351,1,0,0:0:0:0:
36,192,87567,1,0,0:0:0:0:
256,192,87783,1,0,0:0:0:0:
109,192,87891,1,0,0:0:0:0:
329,192,88106,1,0,0:0:0:0:
329,192,88430,1,0,0:0:0:0:
36,192,88646,1,0,0:0:0:0:
256,192,88862,1,0,0:0:0:0:
329,192,89078,1,0,0:0:0:0:
36,192,89294,1,0,0:0:0:0:
256,192,89510,1,0,0:0:0:0:
109,192,89618,1,0,0:0:0:0:
329,192,89833,1,0,0:0:0:0:
329,192,90157,1,0,0:0:0:0:
36,192,90373,1,0,0:0:0:0:
256,192,90589,1,0,0:0:0:0:
475,192,90804,1,0,0:0:0:0:
182,192,91020,1,0,0:0:0:0:
402,192,91236,1,0,0:0:0:0:
256,192,91344,1,0,0:0:0:0:
475,192,91560,1,0,0:0:0:0:
475,192,91883,1,0,0:0:0:0:
182,192,92099,1,0,0:0:0:0:
329,192,92315,1,0,0:0:0:0:
256,311,92531,1,4,1:0:0:0:
256,267,93394,1,0,0:0:0:0:
402,192,94257,128,4,94905:1:0:0:0:
182,332,94257,1,0,0:0:0:0:
109,329,94473,1,0,0:0:0:0:
256,323,94689,1,0,0:0:0:0:
475,192,94905,128,0,95552:0:0:0:0:
109,300,94906,1,0,0:0:0:0:
36,305,95121,1,0,0:0:0:0:
109,279,95337,1,0,0:0:0:0:
402,192,95552,128,0,97279:0:0:0:0:
256,323,95553,1,0,0:0:0:0:
109,279,95768,1,0,0:0:0:0:
182,284,95984,1,0,0:0:0:0:
109,279,96200,1,0,0:0:0:0:
256,323,96416,1,0,0:0:0:0:
109,279,96631,1,0,0:0:0:0:
36,286,96847,1,0,0:0:0:0:
109,279,97063,1,0,0:0:0:0:
182,284,97279,1,0,0:0:0:0:
256,287,97495,1,0,0:0:0:0:
109,192,97495,1,0,0:0:0:0:
109,192,97711,128,0,98358:0:0:0:0:
402,310,97926,1,0,0:0:0:0:
256,333,98142,1,0,0:0:0:0:
36,192,98358,128,0,99006:0:0:0:0:
402,310,98359,1,0,0:0:0:0:
329,282,98574,1,0,0:0:0:0:
402,310,98790,1,0,0:0:0:0:
256,287,99006,1,0,0:0:0:0:
109,192,99006,1,0,0:0:0:0:
182,192,99221,128,0,100948:0:0:0:0:
475,343,99221,1,0,0:0:0:0:
329,319,99437,1,0,0:0:0:0:
475,343,99653,1,0,0:0:0:0:
256,314,99869,1,0,0:0:0:0:
475,343,100085,1,0,0:0:0:0:
329,319,100301,1,0,0:0:0:0:
402,294,100516,1,0,0:0:0:0:
256,314,100732,1,0,0:0:0:0:
109,280,100948,1,0,0:0:0:0:
402,192,101164,128,0,101811:0:0:0:0:
36,274,101165,1,0,0:0:0:0:
109,333,101380,1,0,0:0:0:0:
256,263,101596,1,0,0:0:0:0:
329,192,101811,128,0,102459:0:0:0:0:
109,333,101812,1,0,0:0:0:0:
36,274,102027,1,0,0:0:0:0:
109,333,102243,1,0,0:0:0:0:
475,192,102459,128,0,104185:0:0:0:0:
256,276,102460,1,0,0:0:0:0:
109,333,102675,1,0,0:0:0:0:
36,274,102890,1,0,0:0:0:0:
182,319,103106,1,0,0:0:0:0:
329,301,103322,1,0,0:0:0:0:
182,319,103538,1,0,0:0:0:0:
36,289,103754,1,0,0:0:0:0:
182,319,103970,1,0,0:0:0:0:
256,320,104185,1,0,0:0:0:0:
182,281,104401,1,0,0:0:0:0:
256,192,104401,1,0,0:0:0:0:
182,192,104617,128,0,105265:0:0:0:0:
402,324,104618,1,0,0:0:0:0:
475,331,104833,1,0,0:0:0:0:
329,266,105049,1,0,0:0:0:0:
109,192,105265,128,0,105912:0:0:0:0:
475,331,105266,1,0,0:0:0:0:
402,299,105480,1,0,0:0:0:0:
475,331,105696,1,0,0:0:0:0:
182,192,105912,128,0,106775:0:0:0:0:
329,266,105913,1,0,0:0:0:0:
475,331,106128,1,0,0:0:0:0:
402,299,106344,1,0,0:0:0:0:
475,331,106560,1,0,0:0:0:0:
329,266,106775,1,0,0:0:0:0:
182,220,106991,1,0,0:0:0:0:
109,192,107207,128,0,107639:0:0:0:0:
36,192,107639,128,0,108070:0:0:0:0:
475,192,107640,1,0,0:0:0:0:
182,192,108070,128,4,108718:1:0:0:0:
475,192,108071,1,0,0:0:0:0:
329,192,108286,1,0,0:0:0:0:
402,192,108502,1,0,0:0:0:0:
256,192,108718,128,0,109365:0:0:0:0:
475,192,108719,1,0,0:0:0:0:
36,192,108934,1,0,0:0:0:0:
109,192,109149,1,0,0:0:0:0:
402,192,109365,128,0,110876:0:0:0:0:
182,192,109366,1,0,0:0:0:0:
36,192,109581,1,0,0:0:0:0:
256,192,109797,1,0,0:0:0:0:
182,192,110013,1,0,0:0:0:0:
109,192,110229,1,0,0:0:0:0:
36,192,110444,1,0,0:0:0:0:
182,192,110660,1,0,0:0:0:0:
256,192,110876,1,0,0:0:0:0:
182,192,111092,1,0,0:0:0:0:
329,192,111308,1,0,0:0:0:0:
109,192,111308,1,0,0:0:0:0:
329,192,111524,128,0,112171:0:0:0:0:
36,192,111525,1,0,0:0:0:0:
182,192,111739,1,0,0:0:0:0:
109,192,111955,1,0,0:0:0:0:
402,192,112171,128,0,112819:0:0:0:0:
36,192,112172,1,0,0:0:0:0:
256,192,112387,1,0,0:0:0:0:
182,192,112603,1,0,0:0:0:0:
256,192,112819,1,0,0:0:0:0:
109,192,112820,1,0,0:0:0:0:
329,192,113034,128,0,114545:0:0:0:0:
36,192,113250,1,0,0:0:0:0:
109,192,113466,1,0,0:0:0:0:
182,192,113682,1,0,0:0:0:0:
256,192,113898,1,0,0:0:0:0:
475,192,114114,1,0,0:0:0:0:
256,192,114329,1,0,0:0:0:0:
36,289,114545,1,0,0:0:0:0:
109,280,114761,1,0,0:0:0:0:
256,192,114977,128,4,115624:1:0:0:0:
329,192,115624,128,0,116272:0:0:0:0:
182,192,115624,128,0,116272:0:0:0:0:
402,192,116272,128,0,117783:0:0:0:0:
109,192,116272,128,0,117783:0:0:0:0:
475,192,116703,1,4,1:0:0:0:
256,290,117136,1,0,0:0:0:0:
36,192,117136,1,0,1:0:0:0:
475,192,117567,1,4,1:0:0:0:
256,267,117998,1,0,0:0:0:0:
36,192,117998,1,0,1:0:0:0:
182,192,118430,128,0,119078:0:0:0:0:
475,192,118430,128,0,120157:0:0:0:0:
109,192,119078,128,0,119725:0:0:0:0:
256,192,119725,128,0,121883:0:0:0:0:
402,192,120157,128,0,121883:0:0:0:0:
329,192,120157,1,4,0:0:0:0:
36,287,121883,1,0,0:0:0:0:
182,192,122099,1,0,0:0:0:0:
109,293,122315,1,0,0:0:0:0:
256,192,122531,1,0,0:0:0:0:
402,296,122747,1,0,0:0:0:0:
475,319,123178,1,0,0:0:0:0:
402,313,123394,1,0,0:0:0:0:
329,296,123610,1,0,0:0:0:0:
475,319,123826,1,0,0:0:0:0:
256,279,124042,1,0,0:0:0:0:
109,294,124473,1,2,0:0:0:0:
256,318,124689,1,2,0:0:0:0:
182,295,124905,1,2,0:0:0:0:
329,329,125121,1,2,0:0:0:0:
475,287,125337,1,0,0:0:0:0:
329,192,125552,1,0,0:0:0:0:
402,293,125768,1,0,0:0:0:0:
256,192,125984,1,0,0:0:0:0:
109,296,126200,1,0,0:0:0:0:
329,329,126631,1,0,0:0:0:0:
402,334,126847,1,0,0:0:0:0:
475,329,127063,1,0,0:0:0:0:
329,208,127279,1,0,0:0:0:0:
402,254,127495,1,0,0:0:0:0:
256,299,127926,1,2,0:0:0:0:
109,286,128142,1,2,0:0:0:0:
182,291,128358,1,2,0:0:0:0:
36,280,128574,1,2,0:0:0:0:
256,333,128790,1,0,0:0:0:0:
329,320,129006,1,0,0:0:0:0:
402,319,129221,1,0,0:0:0:0:
329,268,129437,1,0,0:0:0:0:
256,256,129653,1,0,0:0:0:0:
182,292,130085,1,0,0:0:0:0:
109,281,130301,1,0,0:0:0:0:
36,269,130516,1,0,0:0:0:0:
109,219,130732,1,0,0:0:0:0:
182,226,130948,1,0,0:0:0:0:
256,229,131164,1,0,0:0:0:0:
475,289,131381,1,0,0:0:0:0:
36,192,131381,1,2,0:0:0:0:
402,267,131597,1,0,0:0:0:0:
109,192,131597,1,2,0:0:0:0:
329,269,131812,1,0,0:0:0:0:
182,192,131812,1,2,0:0:0:0:
256,226,132028,1,0,0:0:0:0:
36,192,132028,1,2,0:0:0:0:
329,229,132243,1,0,0:0:0:0:
402,215,132459,1,0,0:0:0:0:
475,244,132675,1,0,0:0:0:0:
256,241,132890,1,0,0:0:0:0:
109,277,133106,1,0,0:0:0:0:
402,284,133538,1,0,0:0:0:0:
182,313,134185,1,0,0:0:0:0:
109,276,134401,1,0,0:0:0:0:
256,306,134833,1,0,0:0:0:0:
402,301,135265,1,0,0:0:0:0:
36,273,135696,1,4,1:0:0:0:
402,334,135696,1,0,0:0:0:0:
256,336,135912,1,0,0:0:0:0:
475,330,136128,1,2,0:0:0:0:
182,286,136128,1,0,1:0:0:0:
475,330,136344,1,2,0:0:0:0:
36,293,136560,1,0,1:0:0:0:
256,279,136560,1,0,0:0:0:0:
402,301,136775,1,0,0:0:0:0:
475,277,136991,1,2,0:0:0:0:
182,307,136991,1,0,1:0:0:0:
402,268,137207,1,0,0:0:0:0:
36,293,137423,1,0,1:0:0:0:
329,265,137423,1,0,0:0:0:0:
402,268,137639,1,0,0:0:0:0:
256,259,137855,1,0,0:0:0:0:
182,307,137855,1,0,1:0:0:0:
329,222,138070,1,0,0:0:0:0:
36,293,138286,1,0,1:0:0:0:
402,219,138286,1,0,0:0:0:0:
475,236,138718,1,2,0:0:0:0:
182,307,138718,1,0,1:0:0:0:
36,293,139149,1,0,1:0:0:0:
475,311,139149,1,2,0:0:0:0:
329,291,139365,1,0,0:0:0:0:
182,307,139581,1,0,1:0:0:0:
402,278,139581,1,0,0:0:0:0:
256,273,139797,1,0,0:0:0:0:
36,293,140013,1,0,1:0:0:0:
329,316,140013,1,0,0:0:0:0:
475,329,140229,1,2,0:0:0:0:
475,311,140444,1,2,0:0:0:0:
182,307,140444,1,0,1:0:0:0:
256,266,140660,1,0,0:0:0:0:
329,291,140876,1,0,0:0:0:0:
36,293,140876,1,0,1:0:0:0:
402,278,141092,1,0,0:0:0:0:
182,307,141308,1,0,1:0:0:0:
256,246,141308,1,0,0:0:0:0:
329,245,141524,1,0,0:0:0:0:
36,293,141739,1,0,1:0:0:0:
475,329,141739,1,2,0:0:0:0:
182,307,142171,1,0,1:0:0:0:
402,310,142171,1,0,0:0:0:0:
475,329,142603,1,2,0:0:0:0:
36,293,142603,1,0,1:0:0:0:
256,293,142819,1,0,0:0:0:0:
475,329,143034,1,2,0:0:0:0:
182,324,143034,1,0,1:0:0:0:
475,329,143250,1,2,0:0:0:0:
36,293,143466,1,0,1:0:0:0:
256,293,143466,1,0,0:0:0:0:
329,303,143682,1,0,0:0:0:0:
475,329,143898,1,2,0:0:0:0:
182,304,143898,1,0,1:0:0:0:
402,288,144114,1,0,0:0:0:0:
36,293,144329,1,0,1:0:0:0:
329,264,144329,1,0,0:0:0:0:
402,287,144545,1,0,0:0:0:0:
182,304,144761,1,0,1:0:0:0:
256,272,144761,1,0,0:0:0:0:
329,264,144977,1,0,0:0:0:0:
36,306,145193,1,0,1:0:0:0:
402,343,145193,1,0,0:0:0:0:
256,272,145408,1,0,0:0:0:0:
182,304,145624,1,0,1:0:0:0:
475,304,145624,1,2,0:0:0:0:
475,304,146056,1,2,0:0:0:0:
36,291,146056,1,0,1:0:0:0:
182,304,146488,1,0,1:0:0:0:
402,301,146488,1,0,0:0:0:0:
402,301,146703,1,0,0:0:0:0:
36,291,146919,1,0,1:0:0:0:
256,272,146919,1,0,0:0:0:0:
329,319,147135,1,0,0:0:0:0:
475,331,147351,1,2,0:0:0:0:
182,304,147351,1,0,1:0:0:0:
36,291,147567,1,0,1:0:0:0:
475,331,147567,1,2,0:0:0:0:
256,307,147567,1,4,1:0:0:0:
