osu file format v12

[General]
AudioFilename: Toki wo Kizamu Uta -Trance Arrange-.mp3
AudioLeadIn: 0
PreviewTime: 93388
Countdown: 0
SampleSet: Soft
StackLeniency: 0.7
Mode: 3
LetterboxInBreaks: 1

[Editor]
DistanceSpacing: 0.8
BeatDivisor: 4
GridSize: 8

[Metadata]
Title:Toki wo Kizamu Uta
TitleUnicode:時を刻む唄
Artist:nayuta
ArtistUnicode:nayuta
Creator:Hanyuu
Version:4K HD
Source:Clannad ~After Story~
Tags:
BeatmapID:222257
BeatmapSetID:65847

[Difficulty]
HPDrainRate:7
CircleSize:4
OverallDifficulty:8
ApproachRate:7
SliderMultiplier:0.400000005960464
SliderTickRate:1

[Events]
//Background and Video events
0,0,"bg.jpg",0,0
//Break Periods
//Storyboard Layer 0 (Background)
//Storyboard Layer 1 (Fail)
//Storyboard Layer 2 (Pass)
//Storyboard Layer 3 (Foreground)
//Storyboard Sound Samples
//Background Colour Transformations
3,100,0,0,0

[TimingPoints]
4506,431.654676258993,4,2,0,5,1,0
7959,-100,4,2,1,70,0,0
35584,431.465328165338,4,2,0,70,1,0
66632,431.654676258993,4,2,0,70,1,0
92962,-100,4,2,0,20,0,0
94259,-100,4,2,0,70,0,1
121883,-100,4,2,0,50,0,0
135696,-100,4,2,1,70,0,1
147567,-100,4,2,1,70,0,0

[Colours]
Combo1 : 17,254,176
Combo2 : 173,255,95
Combo3 : 255,88,100
Combo4 : 255,55,220

[HitObjects]
320,192,5153,128,0,7959:0:0:0:0:
64,192,7959,1,0,1:0:0:0:
448,192,8606,1,0,0:0:0:0:
64,192,8822,1,0,0:0:0:0:
192,192,9254,1,0,0:0:0:0:
448,192,9470,1,0,0:0:0:0:
64,192,10117,1,0,0:0:0:0:
448,192,10549,1,2,0:0:0:0:
192,192,10764,1,2,0:0:0:0:
320,192,10980,1,2,0:0:0:0:
448,192,11196,1,2,0:0:0:0:
64,192,11412,1,0,0:0:0:0:
320,192,11844,1,0,0:0:0:0:
192,192,12059,1,0,0:0:0:0:
448,192,12707,1,0,0:0:0:0:
64,192,13139,1,0,0:0:0:0:
192,192,13354,1,0,0:0:0:0:
320,192,13786,1,0,0:0:0:0:
448,192,14002,1,2,0:0:0:0:
192,192,14218,1,2,0:0:0:0:
320,192,14434,1,2,0:0:0:0:
448,192,14649,1,2,0:0:0:0:
64,192,14865,1,0,0:0:0:0:
192,192,15081,1,0,0:0:0:0:
320,192,15297,1,0,0:0:0:0:
448,192,15513,1,0,0:0:0:0:
192,192,15729,1,0,0:0:0:0:
448,192,16160,1,0,0:0:0:0:
192,192,16376,1,0,0:0:0:0:
64,192,16808,1,0,0:0:0:0:
192,192,17023,1,0,0:0:0:0:
448,192,17455,1,2,0:0:0:0:
192,192,17671,1,2,0:0:0:0:
320,192,17887,1,2,0:0:0:0:
448,192,18103,1,2,0:0:0:0:
64,192,18318,1,0,0:0:0:0:
192,192,18534,1,0,0:0:0:0:
320,192,18750,1,0,0:0:0:0:
448,192,18966,1,0,0:0:0:0:
64,192,19182,1,0,0:0:0:0:
320,192,19613,1,0,0:0:0:0:
192,192,19829,1,0,0:0:0:0:
448,192,20261,1,0,0:0:0:0:
192,192,20477,1,0,0:0:0:0:
64,192,20908,128,0,21772:0:0:0:0:
448,192,21772,1,2,0:0:0:0:
320,192,21988,1,0,0:0:0:0:
192,192,22203,1,0,0:0:0:0:
320,192,22419,1,0,0:0:0:0:
448,192,23067,1,2,0:0:0:0:
320,192,23714,1,0,0:0:0:0:
192,192,24362,1,0,0:0:0:0:
448,192,24793,1,2,0:0:0:0:
64,192,25225,1,0,0:0:0:0:
192,192,25441,1,0,0:0:0:0:
320,192,25657,1,0,0:0:0:0:
192,192,25872,1,0,0:0:0:0:
64,192,26520,1,0,0:0:0:0:
192,192,27167,1,0,0:0:0:0:
320,192,27815,1,0,0:0:0:0:
64,192,28247,1,0,0:0:0:0:
448,192,28678,1,2,0:0:0:0:
320,192,28894,1,0,0:0:0:0:
192,192,29110,1,0,0:0:0:0:
320,192,29326,1,2,0:0:0:0:
448,192,29973,1,2,0:0:0:0:
320,192,30621,1,0,0:0:0:0:
192,192,31268,1,0,0:0:0:0:
448,192,31700,1,2,0:0:0:0:
64,192,32131,1,0,0:0:0:0:
192,192,32347,1,0,0:0:0:0:
320,192,32563,1,0,0:0:0:0:
448,192,32779,1,2,0:0:0:0:
320,192,33211,1,0,0:0:0:0:
192,192,33426,1,0,0:0:0:0:
448,192,33642,1,2,0:0:0:0:
192,192,33858,128,0,35584:0:0:0:0:
64,192,35584,1,0,1:0:0:0:
448,192,35584,1,4,0:0:0:0:
192,192,38172,1,0,0:0:0:0:
320,192,39035,1,0,0:0:0:0:
192,192,41624,1,0,0:0:0:0:
64,192,42487,1,0,0:0:0:0:
320,192,45076,1,0,0:0:0:0:
448,192,45939,1,0,0:0:0:0:
192,192,48527,128,0,49390:0:0:0:0:
448,192,49390,1,4,0:0:0:0:
320,192,49390,1,0,0:0:0:0:
64,192,49822,1,0,0:0:0:0:
320,192,50038,1,0,0:0:0:0:
64,192,50469,1,2,0:0:0:0:
192,192,50685,1,0,0:0:0:0:
320,192,50901,1,2,0:0:0:0:
448,192,51116,1,0,0:0:0:0:
192,192,51332,1,2,0:0:0:0:
320,192,51548,1,0,0:0:0:0:
448,192,51763,1,2,0:0:0:0:
320,192,51979,1,0,0:0:0:0:
192,192,52195,1,2,0:0:0:0:
64,192,52411,1,0,0:0:0:0:
192,192,52626,1,2,0:0:0:0:
320,192,52842,1,0,0:0:0:0:
64,192,53058,1,2,0:0:0:0:
320,192,53274,1,0,0:0:0:0:
64,192,53489,1,2,0:0:0:0:
320,192,53705,1,0,0:0:0:0:
192,192,53921,1,2,0:0:0:0:
320,192,54137,1,0,0:0:0:0:
192,192,54352,1,2,0:0:0:0:
64,192,54568,1,0,0:0:0:0:
320,192,54784,1,2,0:0:0:0:
64,192,54999,1,0,0:0:0:0:
320,192,55215,1,2,0:0:0:0:
448,192,55431,1,0,0:0:0:0:
192,192,55647,1,2,0:0:0:0:
320,192,55862,1,0,0:0:0:0:
448,192,56078,1,2,0:0:0:0:
64,192,56294,128,0,59746:0:0:0:0:
192,192,56294,1,4,0:0:0:0:
320,192,56294,1,0,0:0:0:0:
448,192,56510,1,2,0:0:0:0:
192,192,56725,1,0,0:0:0:0:
448,192,56941,1,2,0:0:0:0:
320,192,57157,1,0,0:0:0:0:
192,192,57372,1,2,0:0:0:0:
448,192,57588,1,0,0:0:0:0:
192,192,57804,1,2,0:0:0:0:
320,192,58020,1,4,0:0:0:0:
448,192,58235,1,2,0:0:0:0:
192,192,58451,1,0,0:0:0:0:
320,192,58667,1,2,0:0:0:0:
448,192,58883,1,0,0:0:0:0:
320,192,59098,1,2,0:0:0:0:
192,192,59314,1,0,0:0:0:0:
448,192,59530,1,2,0:0:0:0:
320,192,59746,1,4,0:0:0:0:
192,192,59746,1,0,0:0:0:0:
320,192,59961,1,2,0:0:0:0:
448,192,60177,1,0,0:0:0:0:
64,192,60608,1,4,0:0:0:0:
192,192,60824,1,2,0:0:0:0:
320,192,61040,1,0,0:0:0:0:
448,192,61471,1,4,0:0:0:0:
192,192,61471,1,0,0:0:0:0:
320,192,61687,1,2,0:0:0:0:
64,192,61903,1,4,0:0:0:0:
448,192,61903,1,0,0:0:0:0:
320,192,62119,1,2,0:0:0:0:
64,192,62334,1,0,0:0:0:0:
448,192,62334,1,4,0:0:0:0:
192,192,62550,1,2,0:0:0:0:
320,192,62766,1,0,0:0:0:0:
64,192,62766,1,4,0:0:0:0:
448,192,62982,1,2,0:0:0:0:
192,192,63197,1,4,0:0:0:0:
64,192,63197,1,0,1:0:0:0:
320,192,64923,1,0,0:0:0:0:
192,192,65139,1,0,0:0:0:0:
320,192,65355,1,0,0:0:0:0:
192,192,65786,1,0,0:0:0:0:
192,192,66002,1,0,0:0:0:0:
448,192,66218,1,0,0:0:0:0:
320,192,66632,1,0,0:0:0:0:
64,192,66632,1,4,1:0:0:0:
448,192,66847,1,2,0:0:0:0:
64,192,67063,1,0,1:0:0:0:
320,192,67063,1,0,0:0:0:0:
192,192,67279,1,2,0:0:0:0:
64,192,67495,1,0,1:0:0:0:
320,192,67495,1,0,0:0:0:0:
448,192,67711,1,2,0:0:0:0:
64,192,67926,1,0,1:0:0:0:
192,192,67926,1,0,0:0:0:0:
448,192,68142,1,2,0:0:0:0:
64,192,68358,1,0,1:0:0:0:
320,192,68358,1,0,0:0:0:0:
448,192,68574,1,2,0:0:0:0:
320,192,68790,1,0,0:0:0:0:
64,192,68790,1,0,1:0:0:0:
192,192,69006,1,2,0:0:0:0:
64,192,69221,1,0,1:0:0:0:
320,192,69221,1,0,0:0:0:0:
448,192,69437,1,2,0:0:0:0:
192,192,69653,1,0,0:0:0:0:
64,192,69653,1,0,1:0:0:0:
448,192,69869,1,2,0:0:0:0:
64,192,70085,1,0,1:0:0:0:
320,192,70085,1,0,0:0:0:0:
192,192,70301,1,2,0:0:0:0:
64,192,70516,1,0,1:0:0:0:
320,192,70516,1,0,0:0:0:0:
448,192,70732,1,2,0:0:0:0:
64,192,70948,1,0,1:0:0:0:
320,192,70948,1,0,0:0:0:0:
192,192,71164,1,2,0:0:0:0:
448,192,71380,1,0,0:0:0:0:
64,192,71380,1,0,1:0:0:0:
192,192,71596,1,2,0:0:0:0:
64,192,71811,1,0,1:0:0:0:
320,192,71811,1,0,0:0:0:0:
192,192,72027,1,2,0:0:0:0:
320,192,72243,1,0,0:0:0:0:
64,192,72243,1,0,1:0:0:0:
448,192,72459,1,2,0:0:0:0:
320,192,72675,1,0,0:0:0:0:
64,192,72675,1,0,1:0:0:0:
192,192,72890,1,2,0:0:0:0:
448,192,73106,1,0,0:0:0:0:
64,192,73106,1,0,1:0:0:0:
192,192,73322,1,2,0:0:0:0:
64,192,73538,1,0,1:0:0:0:
320,192,73538,1,0,0:0:0:0:
448,192,73754,1,2,0:0:0:0:
320,192,73969,1,0,0:0:0:0:
64,192,73969,1,0,1:0:0:0:
192,192,74185,1,2,0:0:0:0:
320,192,74401,1,0,0:0:0:0:
64,192,74401,1,0,1:0:0:0:
448,192,74617,1,2,0:0:0:0:
64,192,74832,1,0,1:0:0:0:
192,192,74832,1,0,0:0:0:0:
448,192,75049,1,2,0:0:0:0:
320,192,75265,1,0,0:0:0:0:
64,192,75265,1,0,1:0:0:0:
448,192,75480,1,2,0:0:0:0:
64,192,75696,1,0,1:0:0:0:
320,192,75696,1,0,0:0:0:0:
192,192,75912,1,2,0:0:0:0:
64,192,76128,1,0,1:0:0:0:
320,192,76128,1,0,0:0:0:0:
448,192,76344,1,2,0:0:0:0:
192,192,76559,1,0,0:0:0:0:
64,192,76559,1,0,1:0:0:0:
448,192,76775,1,2,0:0:0:0:
64,192,76991,1,0,1:0:0:0:
320,192,76991,1,0,0:0:0:0:
192,192,77207,1,2,0:0:0:0:
64,192,77423,1,0,1:0:0:0:
448,192,77423,1,0,0:0:0:0:
192,192,77639,1,2,0:0:0:0:
320,192,77854,1,0,0:0:0:0:
64,192,77854,1,0,1:0:0:0:
192,192,78070,1,2,0:0:0:0:
320,192,78286,1,0,0:0:0:0:
64,192,78286,1,0,1:0:0:0:
448,192,78502,1,2,0:0:0:0:
320,192,78718,1,0,0:0:0:0:
64,192,78718,1,0,1:0:0:0:
192,192,78934,1,2,0:0:0:0:
448,192,79150,1,0,0:0:0:0:
64,192,79150,1,0,1:0:0:0:
192,192,79365,1,2,0:0:0:0:
64,192,79581,1,0,1:0:0:0:
320,192,79581,1,0,0:0:0:0:
192,192,79797,1,2,0:0:0:0:
64,192,80013,1,0,1:0:0:0:
320,192,80013,1,0,0:0:0:0:
448,192,80229,1,2,0:0:0:0:
320,192,80444,1,0,0:0:0:0:
64,192,80444,1,0,1:0:0:0:
192,192,80444,1,4,0:0:0:0:
448,192,80660,1,2,0:0:0:0:
64,192,80875,1,0,1:0:0:0:
320,192,80875,1,0,0:0:0:0:
192,192,81092,1,2,0:0:0:0:
64,192,81307,1,0,1:0:0:0:
320,192,81307,1,0,0:0:0:0:
448,192,81524,1,2,0:0:0:0:
192,192,81738,1,0,0:0:0:0:
64,192,81738,1,0,1:0:0:0:
448,192,81955,1,2,0:0:0:0:
64,192,82171,1,0,1:0:0:0:
320,192,82171,1,0,0:0:0:0:
448,192,82387,1,2,0:0:0:0:
320,192,82602,1,0,0:0:0:0:
64,192,82602,1,0,1:0:0:0:
192,192,82819,1,2,0:0:0:0:
320,192,83034,1,0,0:0:0:0:
64,192,83034,1,0,1:0:0:0:
448,192,83250,1,2,0:0:0:0:
64,192,83465,1,0,1:0:0:0:
192,192,83465,1,0,0:0:0:0:
448,192,83682,1,2,0:0:0:0:
64,192,83898,1,0,1:0:0:0:
320,192,83898,1,0,0:0:0:0:
192,192,84114,1,2,0:0:0:0:
64,192,84329,1,0,1:0:0:0:
320,192,84329,1,0,0:0:0:0:
448,192,84545,1,2,0:0:0:0:
64,192,84761,1,0,1:0:0:0:
320,192,84761,1,0,0:0:0:0:
192,192,84977,1,2,0:0:0:0:
448,192,85193,1,0,0:0:0:0:
64,192,85193,1,0,1:0:0:0:
192,192,85408,1,2,0:0:0:0:
320,192,85624,1,0,0:0:0:0:
64,192,85624,1,0,1:0:0:0:
192,192,85840,1,2,0:0:0:0:
320,192,86055,1,0,0:0:0:0:
64,192,86055,1,0,1:0:0:0:
448,192,86272,1,2,0:0:0:0:
320,192,86487,1,0,0:0:0:0:
64,192,86487,1,0,1:0:0:0:
192,192,86703,1,2,0:0:0:0:
64,192,86919,1,0,1:0:0:0:
448,192,86919,1,0,0:0:0:0:
192,192,87135,1,2,0:0:0:0:
320,192,87351,1,0,0:0:0:0:
64,192,87351,1,0,1:0:0:0:
448,192,87567,1,2,0:0:0:0:
64,192,87782,1,0,1:0:0:0:
320,192,87782,1,0,0:0:0:0:
192,192,87998,1,2,0:0:0:0:
64,192,88214,1,0,1:0:0:0:
320,192,88214,1,0,0:0:0:0:
448,192,88430,1,2,0:0:0:0:
64,192,88645,1,0,1:0:0:0:
192,192,88645,1,0,0:0:0:0:
448,192,88862,1,2,0:0:0:0:
64,192,89078,1,0,1:0:0:0:
320,192,89078,1,0,0:0:0:0:
448,192,89293,1,2,0:0:0:0:
320,192,89509,1,0,0:0:0:0:
64,192,89509,1,0,1:0:0:0:
192,192,89725,1,2,0:0:0:0:
320,192,89941,1,0,0:0:0:0:
64,192,89941,1,0,1:0:0:0:
448,192,90157,1,2,0:0:0:0:
192,192,90372,1,0,0:0:0:0:
64,192,90372,1,0,1:0:0:0:
448,192,90588,1,2,0:0:0:0:
192,192,90804,1,0,0:0:0:0:
64,192,90804,1,0,1:0:0:0:
448,192,91020,1,2,0:0:0:0:
320,192,91236,1,0,0:0:0:0:
64,192,91236,1,0,1:0:0:0:
192,192,91452,1,2,0:0:0:0:
448,192,91667,1,0,0:0:0:0:
64,192,91667,1,0,1:0:0:0:
192,192,91883,1,2,0:0:0:0:
320,192,92099,1,0,0:0:0:0:
64,192,92099,1,0,1:0:0:0:
192,192,92315,1,2,0:0:0:0:
320,192,92531,1,0,0:0:0:0:
64,192,92531,128,0,94257:0:0:0:0:
192,192,92531,1,4,0:0:0:0:
448,192,93394,1,0,0:0:0:0:
320,192,93826,1,0,0:0:0:0:
448,192,94257,1,4,1:0:0:0:
192,192,94473,1,2,0:0:0:0:
64,192,94690,1,0,1:0:0:0:
448,192,94690,1,0,0:0:0:0:
320,192,94905,1,2,0:0:0:0:
64,192,95122,1,0,1:0:0:0:
192,192,95122,1,0,0:0:0:0:
320,192,95337,1,2,0:0:0:0:
64,192,95553,1,0,1:0:0:0:
448,192,95553,1,0,0:0:0:0:
320,192,95768,1,2,0:0:0:0:
448,192,95985,1,0,0:0:0:0:
64,192,95985,1,0,1:0:0:0:
192,192,96200,1,2,0:0:0:0:
448,192,96417,1,0,0:0:0:0:
64,192,96417,1,0,1:0:0:0:
320,192,96631,1,2,0:0:0:0:
192,192,96848,1,0,0:0:0:0:
64,192,96848,1,0,1:0:0:0:
320,192,97063,1,2,0:0:0:0:
448,192,97279,1,0,0:0:0:0:
64,192,97280,1,0,1:0:0:0:
192,192,97495,1,2,0:0:0:0:
64,192,97712,1,0,1:0:0:0:
320,192,97712,1,0,0:0:0:0:
448,192,97926,1,2,0:0:0:0:
64,192,98143,1,0,1:0:0:0:
192,192,98143,1,0,0:0:0:0:
320,192,98358,1,2,0:0:0:0:
64,192,98575,1,0,1:0:0:0:
448,192,98575,1,0,0:0:0:0:
320,192,98790,1,2,0:0:0:0:
64,192,99007,1,0,1:0:0:0:
448,192,99007,1,0,0:0:0:0:
192,192,99221,1,2,0:0:0:0:
64,192,99438,1,0,1:0:0:0:
320,192,99438,1,0,0:0:0:0:
448,192,99653,1,2,0:0:0:0:
192,192,99869,1,0,0:0:0:0:
64,192,99870,1,0,1:0:0:0:
320,192,100085,1,2,0:0:0:0:
448,192,100301,1,0,0:0:0:0:
64,192,100302,1,0,1:0:0:0:
192,192,100516,1,2,0:0:0:0:
64,192,100733,1,0,1:0:0:0:
448,192,100733,1,0,0:0:0:0:
320,192,100948,1,2,0:0:0:0:
64,192,101165,1,0,1:0:0:0:
448,192,101165,1,0,0:0:0:0:
192,192,101380,1,2,0:0:0:0:
448,192,101596,1,0,0:0:0:0:
64,192,101597,1,0,1:0:0:0:
320,192,101811,1,2,0:0:0:0:
192,192,102028,1,0,0:0:0:0:
64,192,102028,1,0,1:0:0:0:
320,192,102243,1,2,0:0:0:0:
448,192,102459,1,0,0:0:0:0:
64,192,102460,1,0,1:0:0:0:
320,192,102675,1,2,0:0:0:0:
64,192,102890,1,0,1:0:0:0:
448,192,102890,1,0,0:0:0:0:
192,192,103106,1,2,0:0:0:0:
448,192,103323,1,0,0:0:0:0:
64,192,103323,1,0,1:0:0:0:
320,192,103538,1,2,0:0:0:0:
192,192,103754,1,0,0:0:0:0:
64,192,103755,1,0,1:0:0:0:
320,192,103970,1,2,0:0:0:0:
448,192,104185,1,0,0:0:0:0:
64,192,104185,1,0,1:0:0:0:
192,192,104401,1,2,0:0:0:0:
64,192,104618,1,0,1:0:0:0:
320,192,104618,1,0,0:0:0:0:
448,192,104833,1,2,0:0:0:0:
192,192,105050,1,0,0:0:0:0:
64,192,105050,1,0,1:0:0:0:
320,192,105265,1,2,0:0:0:0:
448,192,105480,1,0,0:0:0:0:
64,192,105480,1,0,1:0:0:0:
320,192,105696,1,2,0:0:0:0:
192,192,105913,1,0,0:0:0:0:
64,192,105913,1,0,1:0:0:0:
448,192,106128,1,2,0:0:0:0:
320,192,106345,1,0,0:0:0:0:
64,192,106345,1,0,1:0:0:0:
448,192,106560,1,2,0:0:0:0:
192,192,106775,1,0,0:0:0:0:
64,192,106776,1,0,1:0:0:0:
320,192,106991,1,2,0:0:0:0:
448,192,107207,1,0,0:0:0:0:
64,192,107208,1,0,1:0:0:0:
320,192,107423,1,2,0:0:0:0:
192,192,107640,1,0,0:0:0:0:
64,192,107640,1,0,1:0:0:0:
448,192,107855,1,2,0:0:0:0:
64,192,108071,1,0,1:0:0:0:
192,192,108071,128,0,108719:0:0:0:0:
320,192,108071,1,4,0:0:0:0:
64,192,108502,1,0,1:0:0:0:
320,192,108718,128,0,109365:0:0:0:0:
64,192,108934,1,0,1:0:0:0:
448,192,109366,128,0,111093:0:0:0:0:
64,192,109366,1,0,1:0:0:0:
64,192,109797,1,0,0:0:0:0:
192,192,110013,1,2,0:0:0:0:
320,192,110229,1,0,0:0:0:0:
192,192,110444,1,2,0:0:0:0:
64,192,110660,1,0,0:0:0:0:
192,192,110876,1,2,0:0:0:0:
320,192,111092,1,0,0:0:0:0:
192,192,111308,1,2,0:0:0:0:
64,192,111525,128,0,112172:0:0:0:0:
320,192,111525,1,0,1:0:0:0:
320,192,111955,1,0,1:0:0:0:
192,192,112171,128,0,112819:0:0:0:0:
320,192,112387,1,0,1:0:0:0:
320,192,112819,1,0,1:0:0:0:
448,192,113034,128,0,114545:0:0:0:0:
64,192,113250,1,0,0:0:0:0:
192,192,113466,1,2,0:0:0:0:
320,192,113682,1,0,0:0:0:0:
192,192,113898,1,2,0:0:0:0:
64,192,114114,1,0,0:0:0:0:
192,192,114329,1,2,0:0:0:0:
320,192,114545,1,0,0:0:0:0:
192,192,114761,1,0,0:0:0:0:
64,192,114978,128,0,118000:0:0:0:0:
448,192,114978,1,0,1:0:0:0:
320,192,114978,1,4,0:0:0:0:
448,192,115408,1,0,1:0:0:0:
192,192,115624,128,0,117999:0:0:0:0:
448,192,115840,1,0,1:0:0:0:
320,192,116273,128,0,118000:0:0:0:0:
448,192,116273,1,0,1:0:0:0:
448,192,118431,128,0,121884:0:0:0:0:
64,192,118431,1,0,1:0:0:0:
64,192,118862,1,0,1:0:0:0:
320,192,119078,128,0,121883:0:0:0:0:
64,192,119293,1,0,1:0:0:0:
192,192,119726,128,0,121884:0:0:0:0:
64,192,119726,1,0,1:0:0:0:
64,192,121883,1,0,0:0:0:0:
448,192,122099,1,2,0:0:0:0:
320,192,122315,1,0,0:0:0:0:
448,192,122531,1,2,0:0:0:0:
192,192,122747,1,0,0:0:0:0:
448,192,123178,1,0,0:0:0:0:
64,192,123394,1,2,0:0:0:0:
192,192,123610,1,0,0:0:0:0:
64,192,123826,1,2,0:0:0:0:
320,192,124042,1,0,0:0:0:0:
64,192,124473,1,2,0:0:0:0:
192,192,124689,1,2,0:0:0:0:
320,192,124905,1,2,0:0:0:0:
448,192,125121,1,2,0:0:0:0:
64,192,125337,1,0,0:0:0:0:
448,192,125552,1,2,0:0:0:0:
320,192,125768,1,0,0:0:0:0:
448,192,125984,1,2,0:0:0:0:
192,192,126200,1,0,0:0:0:0:
448,192,126631,1,0,0:0:0:0:
64,192,126847,1,2,0:0:0:0:
192,192,127063,1,0,0:0:0:0:
64,192,127279,1,2,0:0:0:0:
320,192,127495,1,0,0:0:0:0:
448,192,127926,1,2,0:0:0:0:
320,192,128142,1,2,0:0:0:0:
192,192,128358,1,2,0:0:0:0:
64,192,128574,1,2,0:0:0:0:
448,192,128790,1,0,0:0:0:0:
64,192,129006,1,2,0:0:0:0:
192,192,129221,1,0,0:0:0:0:
64,192,129437,1,2,0:0:0:0:
320,192,129653,1,0,0:0:0:0:
64,192,130085,1,0,0:0:0:0:
448,192,130301,1,2,0:0:0:0:
320,192,130516,1,0,0:0:0:0:
448,192,130732,1,2,0:0:0:0:
192,192,130948,1,0,0:0:0:0:
320,192,131164,1,2,0:0:0:0:
64,192,131380,1,2,0:0:0:0:
192,192,131596,1,2,0:0:0:0:
320,192,131811,1,2,0:0:0:0:
448,192,132027,1,2,0:0:0:0:
64,192,132243,1,0,0:0:0:0:
448,192,132459,1,2,0:0:0:0:
320,192,132675,1,0,0:0:0:0:
448,192,132890,1,2,0:0:0:0:
192,192,133106,1,0,0:0:0:0:
448,192,133538,1,0,0:0:0:0:
192,192,133970,128,0,135696:0:0:0:0:
320,192,133970,128,0,135696:0:0:0:0:
448,192,135696,1,2,0:0:0:0:
64,192,135696,1,4,1:0:0:0:
192,192,135912,1,0,0:0:0:0:
320,192,136128,1,0,0:0:0:0:
64,192,136128,1,0,1:0:0:0:
320,192,136344,1,0,0:0:0:0:
64,192,136560,1,0,1:0:0:0:
192,192,136560,1,0,0:0:0:0:
320,192,136775,1,0,0:0:0:0:
64,192,136991,1,0,1:0:0:0:
448,192,136991,1,2,0:0:0:0:
320,192,137207,1,0,0:0:0:0:
64,192,137423,1,0,1:0:0:0:
192,192,137423,1,0,0:0:0:0:
448,192,137639,1,2,0:0:0:0:
64,192,137855,1,0,1:0:0:0:
320,192,137855,1,0,0:0:0:0:
192,192,138070,1,0,0:0:0:0:
64,192,138286,1,0,1:0:0:0:
320,192,138286,1,0,0:0:0:0:
64,192,138718,1,0,1:0:0:0:
448,192,138718,1,2,0:0:0:0:
64,192,139149,1,0,1:0:0:0:
448,192,139149,1,2,0:0:0:0:
192,192,139365,1,0,0:0:0:0:
64,192,139581,1,0,1:0:0:0:
320,192,139581,1,0,0:0:0:0:
320,192,139797,1,0,0:0:0:0:
64,192,140013,1,0,1:0:0:0:
192,192,140013,1,0,0:0:0:0:
320,192,140229,1,0,0:0:0:0:
64,192,140444,1,0,1:0:0:0:
448,192,140444,1,2,0:0:0:0:
320,192,140660,1,0,0:0:0:0:
64,192,140876,1,0,1:0:0:0:
192,192,140876,1,0,0:0:0:0:
448,192,141092,1,2,0:0:0:0:
320,192,141308,1,0,0:0:0:0:
64,192,141308,1,0,1:0:0:0:
192,192,141524,1,0,0:0:0:0:
320,192,141739,1,0,0:0:0:0:
64,192,141739,1,0,1:0:0:0:
64,192,142171,1,0,1:0:0:0:
448,192,142171,1,2,0:0:0:0:
64,192,142603,1,0,1:0:0:0:
320,192,142603,1,0,0:0:0:0:
192,192,142819,1,0,0:0:0:0:
64,192,143034,1,0,1:0:0:0:
448,192,143034,1,2,0:0:0:0:
448,192,143250,1,2,0:0:0:0:
64,192,143466,1,0,1:0:0:0:
192,192,143466,1,0,0:0:0:0:
320,192,143682,1,0,0:0:0:0:
64,192,143898,1,0,1:0:0:0:
448,192,143898,1,2,0:0:0:0:
192,192,144114,1,0,0:0:0:0:
64,192,144329,1,0,1:0:0:0:
320,192,144329,1,0,0:0:0:0:
448,192,144545,1,2,0:0:0:0:
64,192,144761,1,0,1:0:0:0:
192,192,144761,1,0,0:0:0:0:
320,192,144977,1,0,0:0:0:0:
64,192,145193,1,0,1:0:0:0:
448,192,145193,1,2,0:0:0:0:
64,192,145624,1,0,1:0:0:0:
448,192,145624,1,2,0:0:0:0:
64,192,146056,1,0,1:0:0:0:
448,192,146056,1,2,0:0:0:0:
64,192,146488,1,0,1:0:0:0:
448,192,146703,1,2,0:0:0:0:
64,192,146919,1,0,1:0:0:0:
192,192,146919,1,0,0:0:0:0:
320,192,147135,1,0,0:0:0:0:
64,192,147351,1,0,1:0:0:0:
192,192,147351,1,0,0:0:0:0:
64,192,147567,1,0,1:0:0:0:
320,192,147567,1,4,0:0:0:0:
448,192,147567,1,2,0:0:0:0:
