osu file format v12

[General]
AudioFilename: Toki wo Kizamu Uta -Trance Arrange-.mp3
AudioLeadIn: 0
PreviewTime: 93388
Countdown: 0
SampleSet: Soft
StackLeniency: 0.7
Mode: 3
LetterboxInBreaks: 1

[Editor]
DistanceSpacing: 0.8
BeatDivisor: 4
GridSize: 8

[Metadata]
Title:Toki wo Kizamu Uta
TitleUnicode:時を刻む唄
Artist:nayuta
ArtistUnicode:nayuta
Creator:Hanyuu
Version:4K EZ
Source:Clannad ~After Story~
Tags:
BeatmapID:225307
BeatmapSetID:65847

[Difficulty]
HPDrainRate:7
CircleSize:4
OverallDifficulty:7
ApproachRate:7
SliderMultiplier:0.400000005960464
SliderTickRate:1

[Events]
//Background and Video events
0,0,"bg.jpg",0,0
//Break Periods
//Storyboard Layer 0 (Background)
//Storyboard Layer 1 (Fail)
//Storyboard Layer 2 (Pass)
//Storyboard Layer 3 (Foreground)
//Storyboard Sound Samples
//Background Colour Transformations
3,100,0,0,0

[TimingPoints]
4506,431.654676258993,4,2,0,100,1,0
7959,-100,4,2,1,70,0,0
35584,431.465328165338,4,2,0,70,1,0
66632,431.654676258993,4,2,0,70,1,0
94259,-100,4,2,0,70,0,1
121883,-100,4,2,0,50,0,0
135696,-100,4,2,1,70,0,1
147567,-100,4,2,1,70,0,0

[Colours]
Combo1 : 17,254,176
Combo2 : 173,255,95
Combo3 : 255,88,100
Combo4 : 255,55,220

[HitObjects]
192,192,7959,1,0,0:0:0:0:
448,192,8606,1,0,0:0:0:0:
64,192,9254,1,0,0:0:0:0:
320,192,10549,1,0,0:0:0:0:
192,192,10980,1,0,0:0:0:0:
448,192,11412,1,0,0:0:0:0:
192,192,12275,1,0,0:0:0:0:
448,192,12707,1,0,0:0:0:0:
64,192,12923,1,0,0:0:0:0:
448,192,14002,1,0,0:0:0:0:
192,192,14865,1,0,0:0:0:0:
320,192,15513,1,0,0:0:0:0:
448,192,16160,1,0,0:0:0:0:
64,192,17455,1,0,0:0:0:0:
192,192,17887,1,0,0:0:0:0:
320,192,18318,1,0,0:0:0:0:
192,192,18966,1,0,0:0:0:0:
448,192,19613,1,0,0:0:0:0:
320,192,21772,1,2,0:0:0:0:
192,192,22203,1,2,0:0:0:0:
192,192,22419,1,2,0:0:0:0:
448,192,23067,1,2,0:0:0:0:
192,192,23714,1,2,0:0:0:0:
64,192,24362,1,2,0:0:0:0:
320,192,24793,1,2,0:0:0:0:
448,192,25225,1,2,0:0:0:0:
320,192,25657,1,2,0:0:0:0:
64,192,25872,1,2,0:0:0:0:
448,192,26520,1,2,0:0:0:0:
320,192,27167,1,2,0:0:0:0:
64,192,27815,1,2,0:0:0:0:
192,192,28247,1,2,0:0:0:0:
320,192,28678,1,2,0:0:0:0:
448,192,29110,1,2,0:0:0:0:
448,192,29326,1,2,0:0:0:0:
448,192,29973,1,2,0:0:0:0:
320,192,30621,1,2,0:0:0:0:
192,192,31268,1,2,0:0:0:0:
320,192,31700,1,2,0:0:0:0:
64,192,32131,1,2,0:0:0:0:
448,192,32779,1,2,0:0:0:0:
192,192,33426,1,2,0:0:0:0:
448,192,33642,1,2,0:0:0:0:
320,192,35584,1,4,1:0:0:0:
192,192,35584,1,0,1:0:0:0:
182,192,38172,1,0,0:0:0:0:
402,192,39035,1,0,0:0:0:0:
329,192,41624,1,0,0:0:0:0:
109,192,42487,1,0,0:0:0:0:
182,192,45076,1,0,0:0:0:0:
402,192,45939,1,0,0:0:0:0:
192,192,49390,1,0,1:0:0:0:
320,192,49390,1,4,1:0:0:0:
192,192,51979,1,0,0:0:0:0:
448,192,52842,1,0,0:0:0:0:
320,192,55431,1,0,0:0:0:0:
64,192,56294,1,0,0:0:0:0:
320,192,58883,1,0,0:0:0:0:
64,192,59746,128,0,63197:0:0:0:0:
192,192,59746,1,0,0:0:0:0:
320,192,63197,1,4,1:0:0:0:
320,192,65786,1,2,0:0:0:0:
320,192,66002,1,2,0:0:0:0:
448,192,66218,1,2,0:0:0:0:
192,192,66632,1,4,1:0:0:0:
192,192,67063,1,0,1:0:0:0:
192,192,67495,1,0,1:0:0:0:
182,192,67926,1,0,1:0:0:0:
329,192,68358,1,0,1:0:0:0:
329,192,68790,1,0,1:0:0:0:
329,192,69221,1,0,1:0:0:0:
329,192,69653,1,0,1:0:0:0:
182,192,70085,1,0,1:0:0:0:
329,192,70516,1,0,0:0:0:0:
475,192,70516,1,0,0:0:0:0:
182,192,70948,1,0,1:0:0:0:
329,192,71380,1,0,1:0:0:0:
475,192,71380,1,0,0:0:0:0:
182,192,71811,1,0,1:0:0:0:
329,192,72243,1,0,1:0:0:0:
475,192,72243,1,0,0:0:0:0:
182,192,72675,1,0,1:0:0:0:
329,192,73106,1,0,1:0:0:0:
475,192,73106,1,0,0:0:0:0:
36,192,73538,1,0,1:0:0:0:
36,192,73970,1,0,1:0:0:0:
36,192,74401,1,0,1:0:0:0:
36,192,74833,1,0,1:0:0:0:
475,192,75265,1,0,1:0:0:0:
475,192,75696,1,0,1:0:0:0:
475,192,76128,1,0,1:0:0:0:
475,192,76560,1,0,1:0:0:0:
182,192,76991,1,0,1:0:0:0:
182,192,77423,1,0,1:0:0:0:
36,192,77423,1,0,0:0:0:0:
182,192,77855,1,0,1:0:0:0:
182,192,78286,1,0,1:0:0:0:
36,192,78286,1,0,0:0:0:0:
329,192,78718,1,0,1:0:0:0:
475,192,79149,1,0,0:0:0:0:
329,192,79149,1,0,1:0:0:0:
329,192,79581,1,0,1:0:0:0:
475,192,80013,1,0,0:0:0:0:
329,192,80013,1,0,1:0:0:0:
182,192,80444,1,4,1:0:0:0:
329,192,80876,1,0,1:0:0:0:
182,192,81308,1,0,1:0:0:0:
329,192,81739,1,0,1:0:0:0:
182,192,82171,1,0,1:0:0:0:
36,192,82603,1,0,1:0:0:0:
329,192,83034,1,0,1:0:0:0:
475,192,83466,1,0,1:0:0:0:
182,192,83898,1,0,1:0:0:0:
329,192,84329,1,0,1:0:0:0:
475,192,84761,1,0,1:0:0:0:
329,192,85193,1,0,1:0:0:0:
182,192,85624,1,0,1:0:0:0:
36,192,86056,1,0,1:0:0:0:
182,192,86488,1,0,1:0:0:0:
329,192,86919,1,0,1:0:0:0:
475,192,87351,1,0,1:0:0:0:
402,192,87783,1,0,1:0:0:0:
36,192,88214,1,0,1:0:0:0:
109,192,88646,1,0,1:0:0:0:
329,192,89078,1,0,1:0:0:0:
256,192,89509,1,0,1:0:0:0:
182,192,89941,1,0,1:0:0:0:
256,192,90373,1,0,1:0:0:0:
329,192,90804,1,0,1:0:0:0:
402,192,91236,1,0,1:0:0:0:
109,192,91236,1,0,0:0:0:0:
329,192,91667,1,0,1:0:0:0:
402,192,92099,1,0,1:0:0:0:
109,192,92099,1,0,0:0:0:0:
329,192,92531,1,4,1:0:0:0:
36,192,94257,1,4,1:0:0:0:
182,192,94690,1,0,1:0:0:0:
329,192,95122,1,0,1:0:0:0:
475,192,95553,1,0,1:0:0:0:
109,192,95985,1,0,1:0:0:0:
256,192,96417,1,0,1:0:0:0:
402,192,96848,1,0,1:0:0:0:
256,192,97280,1,0,1:0:0:0:
475,192,97712,1,0,1:0:0:0:
329,192,98143,1,0,1:0:0:0:
182,192,98575,1,0,1:0:0:0:
36,192,99007,1,0,1:0:0:0:
109,192,99438,1,0,1:0:0:0:
256,192,99870,1,0,1:0:0:0:
402,192,100302,1,0,1:0:0:0:
256,192,100733,1,0,1:0:0:0:
182,192,101165,1,0,1:0:0:0:
109,192,101597,1,0,1:0:0:0:
329,192,102028,1,0,1:0:0:0:
256,192,102460,1,0,1:0:0:0:
192,192,102890,1,0,1:0:0:0:
64,192,103322,1,0,1:0:0:0:
320,192,103754,1,0,1:0:0:0:
320,192,104185,1,0,1:0:0:0:
64,192,104617,1,0,1:0:0:0:
256,192,105050,1,0,1:0:0:0:
448,192,105480,1,0,1:0:0:0:
448,192,105912,1,0,1:0:0:0:
64,192,106344,1,0,1:0:0:0:
320,192,106775,1,0,1:0:0:0:
448,192,107207,1,0,1:0:0:0:
475,192,107640,1,0,1:0:0:0:
64,192,108070,1,4,1:0:0:0:
182,192,108503,1,0,1:0:0:0:
329,192,108503,1,0,0:0:0:0:
475,192,108935,1,0,1:0:0:0:
182,192,109366,1,0,1:0:0:0:
329,192,109366,1,0,0:0:0:0:
36,192,109798,1,0,1:0:0:0:
182,192,110230,1,0,0:0:0:0:
329,192,110230,1,0,1:0:0:0:
475,192,110661,1,0,1:0:0:0:
182,192,111093,1,0,0:0:0:0:
329,192,111093,1,0,1:0:0:0:
256,192,111525,1,0,1:0:0:0:
402,192,111956,1,0,0:0:0:0:
109,192,111956,1,0,1:0:0:0:
256,192,112388,1,0,1:0:0:0:
36,192,112820,1,0,1:0:0:0:
475,192,112820,1,0,0:0:0:0:
256,192,113251,1,0,1:0:0:0:
329,192,113683,1,0,0:0:0:0:
182,192,113683,1,0,1:0:0:0:
256,192,114115,1,0,1:0:0:0:
402,192,114546,1,0,0:0:0:0:
109,192,114546,1,0,1:0:0:0:
182,192,114977,1,4,1:0:0:0:
64,192,115408,1,0,1:0:0:0:
448,192,115840,1,0,0:0:0:0:
64,192,116272,1,0,1:0:0:0:
320,192,116703,1,4,0:0:0:0:
448,192,117135,1,0,0:0:0:0:
64,192,117567,1,0,1:0:0:0:
448,192,117998,1,0,0:0:0:0:
320,192,118430,1,4,0:0:0:0:
64,192,118430,1,0,0:0:0:0:
64,192,118862,1,0,0:0:0:0:
320,192,119293,1,4,0:0:0:0:
64,192,119293,1,0,0:0:0:0:
64,192,119725,1,0,0:0:0:0:
320,192,120157,1,4,0:0:0:0:
64,192,120157,1,0,0:0:0:0:
192,192,121883,1,0,0:0:0:0:
182,192,122316,1,0,0:0:0:0:
329,192,122748,1,0,0:0:0:0:
109,192,123179,1,0,0:0:0:0:
256,192,123611,1,0,0:0:0:0:
329,192,124043,1,0,0:0:0:0:
109,192,124474,1,2,0:0:0:0:
182,192,124690,1,2,0:0:0:0:
256,192,124906,1,2,0:0:0:0:
448,192,125121,1,2,0:0:0:0:
182,192,125338,1,0,0:0:0:0:
320,192,125768,1,0,0:0:0:0:
192,192,126200,1,0,0:0:0:0:
64,192,126632,1,0,0:0:0:0:
320,192,127063,1,0,0:0:0:0:
192,192,127495,1,0,0:0:0:0:
448,192,127926,1,2,0:0:0:0:
320,192,128142,1,2,0:0:0:0:
192,192,128358,1,2,0:0:0:0:
64,192,128574,1,2,0:0:0:0:
448,192,128790,1,0,0:0:0:0:
192,192,129221,1,0,0:0:0:0:
320,192,129653,1,0,0:0:0:0:
109,192,130086,1,0,0:0:0:0:
329,192,130517,1,0,0:0:0:0:
448,192,130948,1,0,0:0:0:0:
109,192,131381,1,2,0:0:0:0:
182,192,131597,1,2,0:0:0:0:
256,192,131812,1,2,0:0:0:0:
448,192,132027,1,2,0:0:0:0:
192,192,132243,1,0,0:0:0:0:
320,192,132890,1,0,0:0:0:0:
192,192,133538,1,0,0:0:0:0:
448,192,134185,1,0,0:0:0:0:
320,192,134833,1,0,0:0:0:0:
448,192,135696,1,4,1:0:0:0:
192,192,135696,1,2,0:0:0:0:
320,192,136128,1,2,0:0:0:0:
320,192,136344,1,2,0:0:0:0:
192,192,136991,1,2,0:0:0:0:
64,192,137639,1,2,0:0:0:0:
320,192,138286,1,0,0:0:0:0:
320,192,138718,1,2,0:0:0:0:
192,192,139149,1,2,0:0:0:0:
320,192,139581,1,2,0:0:0:0:
448,192,139797,1,0,0:0:0:0:
192,192,140444,1,2,0:0:0:0:
320,192,141092,1,2,0:0:0:0:
320,192,141739,1,2,0:0:0:0:
192,192,142171,1,2,0:0:0:0:
320,192,142603,1,2,0:0:0:0:
192,192,143034,1,2,0:0:0:0:
192,192,143250,1,2,0:0:0:0:
320,192,143898,1,2,0:0:0:0:
448,192,144545,1,2,0:0:0:0:
320,192,145193,1,0,0:0:0:0:
320,192,145624,1,2,0:0:0:0:
64,192,146056,1,2,0:0:0:0:
448,192,146703,1,2,0:0:0:0:
64,192,147351,1,2,0:0:0:0:
192,192,147351,1,0,1:0:0:0:
448,192,147567,1,2,0:0:0:0:
320,192,147567,1,0,1:0:0:0:
