osu file format v9

[General]
AudioFilename: Shan Dara Rin.mp3
AudioLeadIn: 3000
PreviewTime: 13992
Countdown: 0
SampleSet: Soft
StackLeniency: 0.7
Mode: 0
LetterboxInBreaks: 0

[Editor]
DistanceSpacing: 1
BeatDivisor: 4
GridSize: 8

[Metadata]
Title:Shan Dara Rin
Artist:nayuta
Creator:Nooko
Version:Insane
Source:Touhou
Tags:Numbers 596108 pokedigi MOKEMOON Komeiji Yuki Makuri JoesSR

[Difficulty]
HPDrainRate:6
CircleSize:5
OverallDifficulty:7
ApproachRate:8
SliderMultiplier:1.6
SliderTickRate:1

[Events]
//Background and Video events
0,0,"Shan Dara Rin.jpg"
//Break Periods
2,87988,101490
2,145798,158863
//Storyboard Layer 0 (Background)
//Storyboard Layer 1 (Fail)
//Storyboard Layer 2 (Pass)
//Storyboard Layer 3 (Foreground)
Sprite,Foreground,Centre,"SB\inaba.png",320,240 M,0,30416,,71,410 F,0,30416,30853,0,1 S,0,30416,30853,0.1,1 F,0,30853,58007,1 S,0,30853,58007,1 F,0,58007,58445,1,0 S,0,58007,58445,1,0.1
Animation,Foreground,Centre,"SB\rap.png",320,240,4,750,LoopForever M,0,30853,,218,413 F,0,30853,31291,0,1 F,0,31291,58007,1 F,0,58007,58445,1,0
Sprite,Foreground,Centre,"SB\1-1.png",320,240 M,0,13773,14430,37,87,53,87 F,0,13773,14430,0,1 F,0,14430,16182,1 F,0,16182,16401,1,0
Sprite,Foreground,Centre,"SB\1-2.png",320,240 M,0,14430,,214,85 R,0,14430,14649,0,-0.025 F,0,14430,14868,0,1 R,0,14649,14868,-0.025,0 F,0,14649,16182,1 R,0,14868,15087,0,0.025 R,0,15087,15306,0.025,0 R,0,15306,15525,0,-0.025 R,0,15525,15744,-0.025,0 R,0,15744,15963,0,0.025 R,0,15963,16182,0.025,0 F,0,16182,16401,1,0 R,0,16182,16620,0,-0.025 R,0,16620,16839,-0.025,0 R,0,16839,17058,0,0.025 R,0,17058,17277,0.025,0
Sprite,Foreground,Centre,"SB\1-3.png",320,240 M,0,15306,,187,127 R,0,15306,15525,0,-0.025 F,0,15306,15744,0,1 R,0,15525,15744,-0.025,0 R,0,15744,15963,0,0.025 F,0,15744,16182,1 R,0,15963,16182,0.025,0 F,0,16182,16401,1,0 R,0,16182,16620,0,-0.025 R,0,16620,16839,-0.025,0 R,0,16839,17058,0,0.025 R,0,17058,17277,0.025,0
Sprite,Foreground,Centre,"SB\2-1.png",320,240 M,0,16182,,174,188 S,0,16182,,1.3 F,0,16182,16620,0,1 F,0,16620,17277,1 F,0,17277,17496,1,0
Sprite,Foreground,Centre,"SB\2-2.png",320,240 M,0,17277,,128,93 F,0,17277,17934,0,1 F,0,17934,20780,1 F,0,20780,20999,1,0
Sprite,Foreground,Centre,"SB\2-3.png",320,240 M,0,18591,,199,144 F,0,18591,19029,0,1 F,0,19029,20780,1 F,0,20780,20999,1,0
Sprite,Foreground,Centre,"SB\2-4.png",320,240 M,0,19686,,257,195 F,0,19686,20124,0,1 S,0,19905,20124,1,1.05 S,0,20124,20343,1.05,0.9 F,0,20124,20780,1 S,0,20343,20562,0.9,1.1 S,0,20562,20780,1.1,1 F,0,20780,20999,1,0
Sprite,Foreground,Centre,"SB\1-1.png",320,240 M,0,20780,21437,37,87,53,87 F,0,20780,21437,0,1 F,0,21437,23189,1 F,0,21437,23408,1,0
Sprite,Foreground,Centre,"SB\1-2.png",320,240 M,0,21437,,214,85 R,0,21437,21656,0,-0.025 F,0,21437,21875,0,1 R,0,21656,21875,-0.025,0 F,0,21656,23189,1 R,0,21875,22094,0,0.025 R,0,22094,22313,0.025,0 R,0,22313,22532,0,-0.025 R,0,22532,22751,-0.025,0 R,0,22751,22970,0,0.025 R,0,22970,23189,0.025,0 F,0,23189,23408,1,0 R,0,23189,23627,0,-0.025 R,0,23627,23846,-0.025,0 R,0,23846,24065,0,0.025 R,0,24065,24284,0.025,0
Sprite,Foreground,Centre,"SB\1-3.png",320,240 M,0,22313,,187,127 R,0,22313,22532,0,-0.025 F,0,22313,22751,0,1 R,0,22532,22751,-0.025,0 R,0,22751,22970,0,0.025 F,0,22751,23189,1 R,0,22970,23189,0.025,0 F,0,23189,23408,1,0 R,0,23189,23627,0,-0.025 R,0,23627,23846,-0.025,0 R,0,23846,24065,0,0.025 R,0,24065,24284,0.025,0
Sprite,Foreground,Centre,"SB\4-1.png",320,240 M,0,23189,,174,188 S,0,23189,,1.3 F,0,23189,23627,0,1 F,0,23627,24284,1 F,0,24284,24503,1,0
Sprite,Foreground,Centre,"SB\4-2.png",320,240 M,0,24503,24941,177,124,185,124 F,0,24503,24941,0,1 M,0,24941,26912,185,124 F,0,24941,26912,1 M,0,26912,27350,185,124,201,124 F,0,26912,27350,1,0
Sprite,Foreground,Centre,"SB\5-1.png",320,240 M,0,58226,,68,100 F,0,58226,58664,0,1 F,0,58664,64138,1 F,0,64138,64357,1,0
Sprite,Foreground,Centre,"SB\5-2.png",320,240 M,0,59102,,148,141 F,0,59102,59540,0,1 F,0,59540,64138,1 F,0,64138,64357,1,0
Sprite,Foreground,Centre,"SB\5-3.png",320,240 M,0,59540,,298,139 F,0,59540,59978,0,1 F,0,59978,64138,1 F,0,64138,64357,1,0
Sprite,Foreground,Centre,"SB\5-4.png",320,240 M,0,60634,,385,139 F,0,60634,61072,0,1 F,0,61072,64138,1 F,0,64138,64357,1,0
Sprite,Foreground,Centre,"SB\6-1.png",320,240 M,0,61510,61948,87,188,104,188 F,0,61510,61948,0,1 F,0,61948,64138,1 F,0,64138,64357,1,0
Sprite,Foreground,Centre,"SB\6-2.png",320,240 M,0,61948,,154,188 F,0,61948,62386,0,1 F,0,62386,64138,1 F,0,64138,64357,1,0
Sprite,Foreground,Centre,"SB\6-3.png",320,240 M,0,62167,,235,189 F,0,62167,62386,0,1 F,0,62386,62605,1 F,0,62605,64138,1 F,0,64138,64357,1,0
Sprite,Foreground,Centre,"SB\6-4.png",320,240 M,0,62605,63043,346,190,352,190 F,0,62605,63043,0,1 F,0,63043,64138,1 F,0,64138,64357,1,0
Sprite,Foreground,Centre,"SB\7-1.png",320,240 M,0,65233,,101,73 F,0,65233,65671,0,1 F,0,65671,70707,1 S,0,70051,70270,1,1.15 S,0,70270,70489,1.15,1 F,0,70707,71145,1,0
Sprite,Foreground,Centre,"SB\7-2.png",320,240 M,0,67642,,226,73 F,0,67642,68080,0,1 F,0,68080,70707,1 S,0,70051,70270,1,1.15 S,0,70270,70489,1.15,1 F,0,70707,71145,1,0
Sprite,Foreground,Centre,"SB\7-3.png",320,240 M,0,68518,,236,138 F,0,68518,68956,0,1 F,0,68956,70707,1 S,0,70051,70270,1,1.15 S,0,70270,70489,1.15,1 F,0,70707,71145,1,0
Sprite,Foreground,Centre,"SB\1-1.png",320,240 M,0,71583,72240,37,87,53,87 F,0,71583,72240,0,1 F,0,72240,73992,1 F,0,73992,74211,1,0
Sprite,Foreground,Centre,"SB\1-2.png",320,240 M,0,72240,,214,85 R,0,72240,72459,0,-0.025 F,0,72240,72678,0,1 R,0,72459,72678,-0.025,0 F,0,72459,73992,1 R,0,72678,72897,0,0.025 R,0,72897,73116,0.025,0 R,0,73116,73335,0,-0.025 R,0,73335,73554,-0.025,0 R,0,73554,73773,0,0.025 R,0,73773,73992,0.025,0 F,0,73992,74211,1,0 R,0,73992,74430,0,-0.025 R,0,74430,74649,-0.025,0 R,0,74649,74868,0,0.025 R,0,74868,75087,0.025,0
Sprite,Foreground,Centre,"SB\1-3.png",320,240 M,0,73116,,187,127 R,0,73116,73335,0,-0.025 F,0,73116,73554,0,1 R,0,73335,73554,-0.025,0 R,0,73554,73773,0,0.025 F,0,73554,73992,1 R,0,73773,73992,0.025,0 F,0,73992,74211,1,0 R,0,73992,74430,0,-0.025 R,0,74430,74649,-0.025,0 R,0,74649,74868,0,0.025
Sprite,Foreground,Centre,"SB\9-1.png",320,240 M,0,73992,,174,188 S,0,73992,,1.3 F,0,73992,74211,0,1 F,0,74211,75087,1 F,0,75087,75306,1,0
Sprite,Foreground,Centre,"SB\9-2.png",320,240 M,0,75087,,107,91 F,0,75087,75744,0,1 F,0,75744,78591,1 F,0,78591,78810,1,0
Sprite,Foreground,Centre,"SB\9-3.png",320,240 M,0,76620,,272,90 F,0,76620,77058,0,1 F,0,77058,78591,1 F,0,78591,78810,1,0
Sprite,Foreground,Centre,"SB\9-4.png",320,240 M,0,77496,77934,180,152,196,152 F,0,77496,77934,0,1 F,0,77934,78591,1 F,0,78591,78810,1,0
Sprite,Foreground,Centre,"SB\1-1.png",320,240 M,0,78591,79248,37,87,53,87 F,0,78591,79248,0,1 F,0,79248,81000,1 F,0,81000,81219,1,0
Sprite,Foreground,Centre,"SB\1-2.png",320,240 M,0,79248,,214,85 R,0,79248,79467,0,-0.025 F,0,79248,79686,0,1 R,0,79467,79686,-0.025,0 F,0,79467,81000,1 R,0,79686,79905,0,0.025 R,0,79905,80124,0.025,0 R,0,80124,80343,0,-0.025 R,0,80343,80562,-0.025,0 R,0,80562,80781,0,0.025 R,0,80781,81000,0.025,0 F,0,81000,81219,1,0 R,0,81000,81438,0,-0.025 R,0,81438,81657,-0.025,0 R,0,81657,81876,0,0.025 R,0,81876,82095,0.025,0
Sprite,Foreground,Centre,"SB\1-3.png",320,240 M,0,80124,,187,127 R,0,80124,80343,0,-0.025 F,0,80124,80562,0,1 R,0,80343,80562,-0.025,0 R,0,80562,80781,0,0.025 F,0,80562,81000,1 R,0,80781,81000,0.025,0 F,0,81000,81219,1,0 R,0,81000,81438,0,-0.025 R,0,81438,81657,-0.025,0 R,0,81657,81876,0,0.025
Sprite,Foreground,Centre,"SB\11-1.png",320,240 M,0,80999,,174,188 S,0,80999,,1.3 F,0,80999,81219,0,1 F,0,81219,82095,1 F,0,82095,82314,1,0
Sprite,Foreground,Centre,"SB\11-2.png",320,240 M,0,82313,82751,84,110,91,110 F,0,82313,82751,0,1 M,0,82751,84722,91,110 F,0,82751,84722,1 M,0,84722,85160,91,110,107,110 F,0,84722,85160,1,0
Sprite,Foreground,Centre,"SB\11-3.png",320,240 M,0,82970,83408,219,113,228,112 F,0,82970,83408,0,1 M,0,83408,84722,228,112 F,0,83408,84722,1 M,0,84722,85160,228,112,245,112 F,0,84722,85160,1,0
Sprite,Foreground,Centre,"SB\inaba.png",320,240 M,0,88226,,71,410 F,0,88226,88663,0,1 S,0,88226,88663,0.1,1 F,0,88663,115817,1 S,0,88663,115817,1 F,0,115817,116255,1,0 S,0,115817,116255,1,0.1
Animation,Foreground,Centre,"SB\rap.png",320,240,4,750,LoopForever M,0,88663,,218,413 F,0,88663,89101,0,1 F,0,89101,115817,1 F,0,115817,116255,1,0
Sprite,Foreground,Centre,"SB\12-1.png",320,240 M,0,116036,,111,104 F,0,116036,116474,0,1 F,0,116474,121948,1 F,0,121948,122167,1,0
Sprite,Foreground,Centre,"SB\12-3.png",320,240 M,0,116036,,311,104 F,0,116036,116474,0,1 F,0,116474,121948,1 F,0,121948,122167,1,0
Sprite,Foreground,Centre,"SB\12-2.png",320,240 M,0,117788,,255,107 F,0,118664,118883,0,1 F,0,118883,121948,1 F,0,121948,122167,1,0
Sprite,Foreground,Centre,"SB\13-1.png",320,240 M,0,119102,,49,162 F,0,119102,119540,0,1 F,0,119540,121948,1 F,0,121948,122167,1,0
Sprite,Foreground,Centre,"SB\13-2.png",320,240 M,0,120634,,237,165 F,0,120634,121072,0,1 F,0,121072,121948,1 F,0,121948,122167,1,0
Sprite,Foreground,Centre,"SB\13-3.png",320,240 M,0,120853,,321,169 F,0,120853,121291,0,1 F,0,121291,121948,1 F,0,121948,122167,1,0
Sprite,Foreground,Centre,"SB\13-1_.png",320,240 M,0,119759,120197,103,163,114,163 F,0,119759,120197,0,1 F,0,120197,121948,1 F,0,121948,122167,1,0
Sprite,Foreground,Centre,"SB\13-1__.png",320,240 M,0,120197,120634,158,164,167,164 F,0,120197,120634,0,1 F,0,120634,121948,1 F,0,121948,122167,1,0
Sprite,Foreground,Centre,"SB\14-1.png",320,240 M,0,123043,,150,110 F,0,123043,123481,0,1 F,0,123481,128518,1 F,0,128518,128956,1,0
Sprite,Foreground,Centre,"SB\14-2.png",320,240 M,0,125671,,126,169 F,0,125671,126109,0,1 F,0,126109,128518,1 F,0,128518,128956,1,0
Sprite,Foreground,Centre,"SB\14-3.png",320,240 M,0,126328,,217,171 F,0,126328,126766,0,1 F,0,126766,128518,1 F,0,128518,128956,1,0
Sprite,Foreground,Centre,"SB\14-4.png",320,240 M,0,126766,,274,223 F,0,126766,127204,0,1 F,0,127204,128518,1 F,0,128518,128956,1,0
Sprite,Foreground,Centre,"SB\1-1.png",320,240 M,0,129394,130051,37,87,53,87 F,0,129394,130051,0,1 F,0,130051,131803,1 F,0,131803,132022,1,0
Sprite,Foreground,Centre,"SB\1-3.png",320,240 M,0,130927,,187,127 R,0,130927,131146,0,-0.025 F,0,130927,131365,0,1 R,0,131146,131365,-0.025,0 R,0,131365,131584,0,0.025 F,0,131365,131803,1 R,0,131584,131803,0.025,0 F,0,131803,132022,1,0 R,0,131803,132241,0,-0.025 R,0,132241,132460,-0.025,0 R,0,132460,132679,0,0.025
Sprite,Foreground,Centre,"SB\1-2.png",320,240 M,0,130051,,214,85 R,0,130051,130270,0,-0.025 F,0,130051,130489,0,1 R,0,130270,130489,-0.025,0 F,0,130270,131803,1 R,0,130489,130708,0,0.025 R,0,130708,130927,0.025,0 R,0,130927,131146,0,-0.025 R,0,131146,131365,-0.025,0 R,0,131365,131584,0,0.025 R,0,131584,131803,0.025,0 F,0,131803,132022,1,0 R,0,131803,132241,0,-0.025 R,0,132241,132460,-0.025,0 R,0,132460,132679,0,0.025 R,0,132679,132898,0.025,0
Sprite,Foreground,Centre,"SB\16-1.png",320,240 M,0,131802,,174,188 S,0,131802,,1.3 F,0,131802,132240,0,1 F,0,132240,132897,1 F,0,132897,133116,1,0
Sprite,Foreground,Centre,"SB\1-1.png",320,240 M,0,136401,137058,37,87,53,87 F,0,136401,137058,0,1 F,0,137058,138810,1 F,0,138810,139029,1,0
Sprite,Foreground,Centre,"SB\1-3.png",320,240 M,0,137934,,187,127 R,0,137934,138153,0,-0.025 F,0,137934,138372,0,1 R,0,138153,138372,-0.025,0 R,0,138372,138591,0,0.025 F,0,138372,138810,1 R,0,138591,138810,0.025,0 F,0,138810,139029,1,0 R,0,138810,139248,0,-0.025 R,0,139248,139467,-0.025,0 R,0,139467,139686,0,0.025
Sprite,Foreground,Centre,"SB\1-2.png",320,240 M,0,137058,,214,85 R,0,137058,137277,0,-0.025 F,0,137058,137496,0,1 R,0,137277,137496,-0.025,0 F,0,137277,138810,1 R,0,137496,137715,0,0.025 R,0,137715,137934,0.025,0 R,0,137934,138153,0,-0.025 R,0,138153,138372,-0.025,0 R,0,138372,138591,0,0.025 R,0,138591,138810,0.025,0 F,0,138810,139029,1,0 R,0,138810,139248,0,-0.025 R,0,139248,139467,-0.025,0 R,0,139467,139686,0,0.025 R,0,139686,139905,0.025,0
Sprite,Foreground,Centre,"SB\16-2.png",320,240 M,0,132897,,62,121 F,0,132897,133335,0,1 F,0,133335,136401,1 F,0,136401,136620,1,0
Sprite,Foreground,Centre,"SB\16-3.png",320,240 M,0,133773,134211,139,122,148,122 F,0,133773,134211,0,1 F,0,134211,136401,1 F,0,136401,136620,1,0
Sprite,Foreground,Centre,"SB\16-4.png",320,240 M,0,134430,134868,106,169,117,169 F,0,134430,134868,0,1 F,0,134868,136401,1 F,0,136401,136620,1,0
Sprite,Foreground,Centre,"SB\16-5.png",320,240 M,0,135306,,206,170 F,0,135306,135744,0,1 F,0,135744,136401,1 S,0,135963,136182,1,1.1 S,0,136182,136401,1.1,1 F,0,136401,136620,1,0
Sprite,Foreground,Centre,"SB\18-1.png",320,240 F,0,138810,139248,0,1 M,0,138810,142532,123,182 F,0,139248,142532,1 M,0,142532,142970,123,182,131,182 F,0,142532,142970,1,0
Sprite,Foreground,Centre,"SB\18-2.png",320,240 F,0,140124,140562,0,1 M,0,140124,142532,323,182 F,0,140562,142532,1 M,0,142532,142970,323,182,330,182 F,0,142532,142970,1,0
Sprite,Foreground,Centre,"SB\18-3.png",320,240 F,0,141437,141875,0,1 M,0,141437,142532,227,242 F,0,141875,142532,1 M,0,142532,142970,227,242,236,242 F,0,142532,142970,1,0
Sprite,Foreground,Centre,"SB\1-1.png",320,240 M,0,159175,159832,37,87,53,87 F,0,159175,159832,0,1 F,0,159832,161584,1 F,0,161584,161803,1,0
Sprite,Foreground,Centre,"SB\1-3.png",320,240 M,0,160708,,187,127 R,0,160708,160927,0,-0.025 F,0,160708,161146,0,1 R,0,160927,161146,-0.025,0 R,0,161146,161365,0,0.025 F,0,161146,161584,1 R,0,161365,161584,0.025,0 F,0,161584,161803,1,0 R,0,161584,162022,0,-0.025 R,0,162022,162241,-0.025,0 R,0,162241,162460,0,0.025
Sprite,Foreground,Centre,"SB\1-2.png",320,240 M,0,159832,,214,85 R,0,159832,160051,0,-0.025 F,0,159832,160270,0,1 R,0,160051,160270,-0.025,0 F,0,160051,161584,1 R,0,160270,160489,0,0.025 R,0,160489,160708,0.025,0 R,0,160708,160927,0,-0.025 R,0,160927,161146,-0.025,0 R,0,161146,161365,0,0.025 R,0,161365,161584,0.025,0 F,0,161584,161803,1,0 R,0,161584,162022,0,-0.025 R,0,162022,162241,-0.025,0 R,0,162241,162460,0,0.025 R,0,162460,162679,0.025,0
Sprite,Foreground,Centre,"SB\20-1.png",320,240 M,0,161583,,174,188 S,0,161583,,1.3 F,0,161583,162021,0,1 F,0,162021,162678,1 F,0,162678,162897,1,0
Sprite,Foreground,Centre,"SB\20-2.png",320,240 M,0,162678,,128,93 F,0,162678,163335,0,1 F,0,163335,166181,1 F,0,166181,166400,1,0
Sprite,Foreground,Centre,"SB\20-3.png",320,240 M,0,163992,,199,144 F,0,163992,164430,0,1 F,0,164430,166181,1 F,0,166181,166400,1,0
Sprite,Foreground,Centre,"SB\20-4.png",320,240 M,0,165087,,257,195 F,0,165087,165525,0,1 S,0,165306,165525,1,1.05 S,0,165525,165744,1.05,0.9 F,0,165525,166181,1 S,0,165744,165963,0.9,1.1 S,0,165963,166181,1.1,1 F,0,166181,166400,1,0
Sprite,Foreground,Centre,"SB\1-1.png",320,240 M,0,166182,166839,37,87,53,87 F,0,166182,166839,0,1 F,0,166839,168591,1 F,0,168591,168810,1,0
Sprite,Foreground,Centre,"SB\1-3.png",320,240 M,0,167715,,187,127 R,0,167715,167934,0,-0.025 F,0,167715,168153,0,1 R,0,167934,168153,-0.025,0 R,0,168153,168372,0,0.025 F,0,168153,168591,1 R,0,168372,168591,0.025,0 F,0,168591,168810,1,0 R,0,168591,169029,0,-0.025 R,0,169029,169248,-0.025,0 R,0,169248,169467,0,0.025
Sprite,Foreground,Centre,"SB\1-2.png",320,240 M,0,166839,,214,85 R,0,166839,167058,0,-0.025 F,0,166839,167277,0,1 R,0,167058,167277,-0.025,0 F,0,167058,168591,1 R,0,167277,167496,0,0.025 R,0,167496,167715,0.025,0 R,0,167715,167934,0,-0.025 R,0,167934,168153,-0.025,0 R,0,168153,168372,0,0.025 R,0,168372,168591,0.025,0 F,0,168591,168810,1,0 R,0,168591,169029,0,-0.025 R,0,169029,169248,-0.025,0 R,0,169248,169467,0,0.025 R,0,169467,169686,0.025,0
Sprite,Foreground,Centre,"SB\22-1.png",320,240 M,0,168591,,174,188 S,0,168591,,1.3 F,0,168591,169029,0,1 F,0,169029,169686,1 F,0,169686,169905,1,0
Sprite,Foreground,Centre,"SB\22-2.png",320,240 M,0,169905,170343,81,161,81,145 F,0,169905,170343,0,1 M,0,170343,172313,81,145 F,0,170343,172313,1 M,0,172313,172751,81,145,81,129 F,0,172313,172751,1,0
Sprite,Foreground,Centre,"SB\22-3.png",320,240 F,0,170343,170780,0,1 M,0,170343,172313,177,146 F,0,170780,172313,1 M,0,172313,172751,177,146,177,130 F,0,172313,172751,1,0
Sprite,Foreground,Centre,"SB\22-4.png",320,240 F,0,171218,171656,0,1 M,0,171218,172313,311,148 F,0,171656,172313,1 M,0,172313,172751,311,148,310,133 F,0,172313,172751,1,0
Sprite,Foreground,Centre,"SB\1-1.png",320,240 M,0,173189,173846,37,87,53,87 F,0,173189,173846,0,1 F,0,173846,175598,1 F,0,175598,175817,1,0
Sprite,Foreground,Centre,"SB\1-2.png",320,240 M,0,173846,,214,85 R,0,173846,174065,0,-0.025 F,0,173846,174284,0,1 R,0,174065,174284,-0.025,0 F,0,174065,175598,1 R,0,174284,174503,0,0.025 R,0,174503,174722,0.025,0 R,0,174722,174941,0,-0.025 R,0,174941,175160,-0.025,0 R,0,175160,175379,0,0.025 R,0,175379,175598,0.025,0 F,0,175598,175817,1,0 R,0,175598,176036,0,-0.025 R,0,176036,176255,-0.025,0 R,0,176255,176474,0,0.025 R,0,176474,176693,0.025,0
Sprite,Foreground,Centre,"SB\1-3.png",320,240 M,0,174722,,187,127 R,0,174722,174941,0,-0.025 F,0,174722,175160,0,1 R,0,174941,175160,-0.025,0 R,0,175160,175379,0,0.025 F,0,175160,175598,1 R,0,175379,175598,0.025,0 F,0,175598,175817,1,0 R,0,175598,176036,0,-0.025 R,0,176036,176255,-0.025,0 R,0,176255,176474,0,0.025 R,0,176474,176693,0.025,0
Sprite,Foreground,Centre,"SB\2-1.png",320,240 M,0,175598,,174,188 S,0,175598,,1.3 F,0,175598,176036,0,1 F,0,176036,176693,1 F,0,176693,176912,1,0
Sprite,Foreground,Centre,"SB\2-2.png",320,240 M,0,176693,,128,93 F,0,176693,177350,0,1 F,0,177350,180196,1 F,0,180196,180415,1,0
Sprite,Foreground,Centre,"SB\2-3.png",320,240 M,0,178007,,199,144 F,0,178007,178445,0,1 F,0,178445,180196,1 F,0,180196,180415,1,0
Sprite,Foreground,Centre,"SB\2-4.png",320,240 M,0,179102,,257,195 F,0,179102,179540,0,1 S,0,179321,179540,1,1.05 S,0,179540,179759,1.05,0.9 F,0,179540,180196,1 S,0,179759,179978,0.9,1.1 S,0,179978,180196,1.1,1 F,0,180196,180415,1,0
Sprite,Foreground,Centre,"SB\1-1.png",320,240 M,0,180196,180853,37,87,53,87 F,0,180196,180853,0,1 F,0,180853,182605,1 F,0,180853,182824,1,0
Sprite,Foreground,Centre,"SB\1-2.png",320,240 M,0,180853,,214,85 R,0,180853,181072,0,-0.025 F,0,180853,181291,0,1 R,0,181072,181291,-0.025,0 F,0,181072,182605,1 R,0,181291,181510,0,0.025 R,0,181510,181729,0.025,0 R,0,181729,181948,0,-0.025 R,0,181948,182167,-0.025,0 R,0,182167,182386,0,0.025 R,0,182386,182605,0.025,0 F,0,182605,182824,1,0 R,0,182605,183043,0,-0.025 R,0,183043,183262,-0.025,0 R,0,183262,183481,0,0.025 R,0,183481,183700,0.025,0
Sprite,Foreground,Centre,"SB\1-3.png",320,240 M,0,181729,,187,127 R,0,181729,181948,0,-0.025 F,0,181729,182167,0,1 R,0,181948,182167,-0.025,0 R,0,182167,182386,0,0.025 F,0,182167,182605,1 R,0,182386,182605,0.025,0 F,0,182605,182824,1,0 R,0,182605,183043,0,-0.025 R,0,183043,183262,-0.025,0 R,0,183262,183481,0,0.025 R,0,183481,183700,0.025,0
Sprite,Foreground,Centre,"SB\26-1.png",320,240 M,0,182605,,174,188 S,0,182605,,1.3 F,0,182605,183043,0,1 F,0,183043,183700,1 F,0,183700,183919,1,0
Sprite,Foreground,Centre,"SB\1-1.png",320,240 M,0,195963,196620,37,87,53,87 F,0,195963,196620,0,1 F,0,196620,198372,1 F,0,198372,198591,1,0
Sprite,Foreground,Centre,"SB\1-2.png",320,240 M,0,196620,,214,85 R,0,196620,196839,0,-0.025 F,0,196620,197058,0,1 R,0,196839,197058,-0.025,0 F,0,196839,198372,1 R,0,197058,197277,0,0.025 R,0,197277,197496,0.025,0 R,0,197496,197715,0,-0.025 R,0,197715,197934,-0.025,0 R,0,197934,198153,0,0.025 R,0,198153,198372,0.025,0 F,0,198372,198591,1,0 R,0,198372,198810,0,-0.025 R,0,198810,199029,-0.025,0 R,0,199029,199248,0,0.025 R,0,199248,199467,0.025,0
Sprite,Foreground,Centre,"SB\1-3.png",320,240 M,0,197496,,187,127 R,0,197496,197715,0,-0.025 F,0,197496,197934,0,1 R,0,197715,197934,-0.025,0 R,0,197934,198153,0,0.025 F,0,197934,198372,1 R,0,198153,198372,0.025,0 F,0,198372,198591,1,0 R,0,198372,198810,0,-0.025 R,0,198810,199029,-0.025,0 R,0,199029,199248,0,0.025
Sprite,Foreground,Centre,"SB\28-1.png",320,240 M,0,198371,,174,188 S,0,198371,,1.3 F,0,198371,198591,0,1 F,0,198591,199467,1 F,0,199467,199686,1,0
Sprite,Foreground,Centre,"SB\11-2.png",320,240 M,0,199685,200123,84,110,91,110 F,0,199685,200123,0,1 M,0,200123,202094,91,110 F,0,200123,202094,1 M,0,202094,202532,91,110,107,110 F,0,202094,202532,1,0
Sprite,Foreground,Centre,"SB\11-3.png",320,240 M,0,200342,200780,219,113,228,112 F,0,200342,200780,0,1 M,0,200780,202094,228,112 F,0,200780,202094,1 M,0,202094,202532,228,112,245,112 F,0,202094,202532,1,0
Sprite,Foreground,Centre,"SB\26-2.png",320,240 M,0,183919,184357,81,113,82,129 F,0,183919,184357,0,1 M,0,184357,186328,82,129 F,0,184357,186328,1 M,0,186328,186766,82,129,82,144 F,0,186328,186766,1,0
Sprite,Foreground,Centre,"SB\26-3.png",320,240 M,0,185014,185452,248,112,248,128 F,0,185014,185452,0,1 M,0,185452,186328,248,128 F,0,185452,186328,1 M,0,186328,186766,248,128,248,145 F,0,186328,186766,1,0
Sprite,Foreground,Centre,"SB\Title.png",320,240 M,0,635,1072,153,81,169,81 F,0,635,1072,0,1 M,0,1072,12897,169,81 F,0,1072,12897,1 M,0,12897,13335,169,81,185,81 F,0,12897,13335,1,0
Sprite,Foreground,Centre,"SB\Vocal.png",320,240 M,0,1510,1948,202,134,219,134 F,0,1510,1948,0,1 F,0,1948,12897,1 M,0,12897,13335,219,134,236,134 F,0,12897,13335,1,0
Sprite,Foreground,Centre,"SB\Mapper.png",320,240 M,0,2386,2824,237,178,250,178 F,0,2386,2824,0,1 M,0,2824,12897,250,178 F,0,2824,12897,1 M,0,12897,13335,250,178,267,178 F,0,12897,13335,1,0
Sprite,Foreground,Centre,"SB\SB.png",320,240 M,0,3262,3700,299,222,315,222 F,0,3262,3700,0,1 M,0,3700,12897,315,222 F,0,3700,12897,1 M,0,12897,13335,315,222,331,222 F,0,12897,13335,1,0
//Storyboard Sound Samples
//Background Colour Transformations
3,100,163,162,255

[TimingPoints]
635,437.956204379562,4,2,1,70,1,0
14649,-100,4,2,1,90,0,1
26912,-100,4,2,1,40,0,0
28226,-100,4,2,1,70,0,0
63700,-100,4,2,1,40,0,0
65014,-100,4,2,1,70,0,0
72459,-100,4,2,1,90,0,1
84722,-100,4,2,1,40,0,0
86474,-100,4,2,1,70,0,0
86583,-100,4,2,1,40,0,0
87788,-100,4,2,1,70,0,0
121510,-100,4,2,1,40,0,0
122824,-100,4,2,1,70,0,0
130270,-100,4,2,1,90,0,1
142532,-100,4,2,1,70,0,0
160051,-100,4,2,1,90,0,1
172313,-200,4,2,1,90,0,1
173189,-100,4,2,1,90,0,1
186328,-100,4,2,1,40,0,0
187642,-100,4,2,1,70,0,0
196839,-100,4,2,1,90,0,1
202094,-100,4,2,1,40,0,0
203846,-100,4,2,1,70,0,0

[HitObjects]
24,336,197,2,0,B|56:304|96:304,1,80,2|0
176,312,635,2,0,B|208:280|208:240,1,80,10|0
207,240,963,1,2
207,240,1072,1,0
288,248,1291,2,0,B|320:216|360:216,1,80,10|10
359,216,1729,1,0
359,216,1839,1,2
359,216,1948,1,0
440,208,2167,1,10
440,208,2386,1,10
464,128,2605,2,0,B|488:104,3,26.6666666666667,0|2|2|2
416,64,3043,2,0,B|384:32|344:32,1,80,8|10
344,32,3700,1,2
312,104,3919,6,0,B|280:136|240:136,1,80,0|10
160,120,4357,2,0,B|144:136|144:160,1,40,0|2
144,155,4576,1,0
104,224,4795,2,0,B|72:256|32:256,2,80,10|10|0
104,224,5343,1,2
104,224,5452,1,0
104,224,5671,1,10
184,240,5889,1,10
216,216,5999,1,0
256,208,6108,1,2
336,224,6328,2,0,B|368:192|368:152,1,80,2|8
360,72,6766,1,10
200,80,7204,5,2
144,24,7423,1,0
72,64,7642,1,10
88,144,7861,1,0
88,144,7970,1,2
88,144,8080,2,0,B|56:176|56:216,1,80,0|10
56,215,8518,1,10
128,248,8737,2,0,B|128:272|144:288,1,40,0|2
141,284,8956,1,0
141,284,9175,1,10
224,296,9394,1,10
224,296,9613,2,0,B|248:320,3,26.6666666666667,0|2|2|2
320,328,10051,2,0,B|352:360|392:360,1,80,8|10
391,359,10707,1,2
456,312,10926,5,0
424,240,11145,1,10
440,160,11364,1,0
440,160,11474,1,2
440,160,11583,2,0,B|408:128|368:128,1,80,0|10
288,144,12021,1,10
368,128,12240,1,0
288,144,12459,2,0,B|256:112|256:72,1,80,2|8
176,80,12897,2,0,B|120:24|24:24,1,160,10|0
30,24,13445,1,0
30,24,13554,1,0
30,24,13664,1,0
30,24,13773,1,4
96,168,14211,6,0,B|96:248|160:312,1,160,0|2
158,310,14868,1,0
158,310,14978,1,2
158,310,15087,1,0
240,304,15306,2,0,B|272:336|312:336,1,80,2|2
392,328,15744,2,0,B|408:344|408:368,2,40,0|2|0
448,272,16182,1,2
424,192,16401,2,0,B|424:168|440:152,1,40,2|0
437,155,16620,1,0
437,155,16729,1,0
437,155,16839,1,2
368,120,17058,2,0,B|336:88|296:88,1,80,0|2
296,88,17386,1,0
296,88,17496,1,0
216,104,17715,5,2
216,104,17934,2,0,B|184:72|184:32,2,80,0|2|0
240,136,18481,2,0,B|256:152|256:176,1,40,2|0
255,171,18810,1,2
264,248,19029,1,2
264,248,19248,1,0
264,248,19357,1,2
264,248,19467,2,0,B|264:288|232:320,1,80,0|2
152,312,19905,2,0,B|120:344|80:344,1,80,2|0
80,343,20233,1,0
80,343,20343,1,2
32,280,20562,1,0
32,280,20671,1,0
32,280,20780,1,2
56,200,20999,1,0
56,200,21109,1,0
56,200,21218,2,0,B|56:160|24:128,2,80,2|0|2
136,224,21875,5,0
136,224,21985,1,2
136,224,22094,2,0,B|168:256|208:256,1,80,0|2
264,312,22532,2,0,B|304:312|336:280,1,80,2|0
360,256,22861,2,0,B|376:240|376:216,1,40,2|0
375,220,23189,1,2
392,144,23408,1,2
392,144,23518,1,0
392,144,23627,1,0
392,144,23737,1,0
392,144,23846,2,0,B|392:104|424:72,1,80,2|0
344,56,24284,2,0,B|312:24|272:24,1,80,2|0
256,104,24722,6,0,B|224:136|184:136,1,80,2|0
112,104,25160,1,2
56,160,25379,1,0
96,232,25598,2,0,B|64:264|64:304,2,80,2|0|2
176,224,26255,2,0,B|192:208|216:208,1,40,0|0
211,208,26474,1,2
211,208,26693,1,0
256,192,26912,12,0,28226
24,152,28664,6,0,B|48:152|64:136,1,40,2|0
96,120,28883,1,0
128,96,28992,1,0
152,64,29102,1,2
232,72,29321,1,0
264,48,29430,1,0
304,40,29540,1,2
232,72,29759,1,0
264,48,29868,1,0
304,40,29978,1,4
432,136,30416,5,0
432,136,30525,1,0
432,136,30634,1,2
432,136,30744,1,0
432,136,30853,2,0,B|464:168|464:208,1,80,0|2
464,248,31182,1,0
456,288,31291,1,0
432,320,31401,1,0
400,344,31510,1,2
360,352,31620,1,0
320,344,31729,1,0
160,352,32167,6,0,B|144:336|120:336,1,40
124,336,32386,1,2
96,264,32605,2,0,B|80:248|80:224,3,40,0|0|2|0
72,192,33043,2,0,B|72:168|56:152,1,40
32,128,33262,1,2
16,88,33372,1,0
24,48,33481,1,0
176,88,33919,5,0
208,64,34029,1,0
248,56,34138,1,2
288,64,34248,1,0
320,88,34357,1,0
360,160,34576,1,2
360,160,34795,1,0
384,192,34905,1,0
416,216,35014,1,2
456,224,35124,1,0
496,224,35233,1,0
368,328,35671,6,0,B|352:344|328:344,3,40,0|0|2|0
296,352,36109,1,0
256,344,36218,1,0
224,320,36328,1,2
200,288,36437,1,0
184,248,36547,1,0
168,216,36656,1,0
136,192,36766,1,2
96,184,36875,1,0
56,192,36985,1,0
120,40,37423,5,0
120,40,37532,1,0
120,40,37642,1,2
120,40,37751,1,0
120,40,37861,2,0,B|144:40|160:56,1,40
192,72,38080,2,0,B|224:104|264:104,1,80,2|0
304,104,38408,2,0,B|328:104|344:88,1,40,0|2
340,90,38627,1,0
340,90,38737,1,0
456,200,39175,5,0
456,200,39284,2,0,B|472:216|472:240,1,40,0|2
480,272,39503,1,0
472,312,39613,1,0
448,344,39722,1,0
408,352,39832,1,2
368,336,39941,1,0
344,304,40051,2,0,B|312:272|272:272,1,80,0|2
232,272,40379,1,0
192,288,40489,1,0
48,208,40926,5,0
56,168,41036,2,0,B|56:144|72:128,3,40,0|2|0|0
88,96,41474,2,0,B|104:80|104:56,3,40,0|2|0|0
184,72,42021,1,2
216,48,42131,1,0
256,40,42240,1,0
416,24,42678,6,0,B|432:40|432:64,3,40,0|0|2|0
432,96,43116,1,0
416,136,43226,1,0
376,152,43335,1,2
384,232,43554,1,0
344,248,43664,1,0
312,280,43773,1,2
296,320,43883,1,0
296,360,43992,1,0
136,344,44430,6,0,B|120:328|120:304,1,40
112,272,44649,2,0,B|112:248|96:232,3,40,2|0|0|0
72,208,45087,1,2
56,128,45306,2,0,B|40:112|40:88,1,40
40,92,45525,1,2
40,92,45634,1,0
40,92,45744,1,0
200,80,46182,5,0
224,48,46291,1,0
264,32,46401,1,2
304,32,46510,1,0
344,48,46620,1,0
368,80,46729,1,0
376,120,46839,1,2
368,160,46948,1,0
336,192,47058,1,0
320,224,47167,1,0
320,264,47277,1,2
336,304,47386,1,0
368,328,47496,1,0
208,352,47934,5,0
208,352,48043,1,0
208,352,48153,2,0,B|208:328|192:312,3,40,2|0|0|0
176,280,48591,2,0,B|160:264|160:240,3,40,2|0|0|0
160,208,49029,2,0,B|160:168|192:136,1,80,2|0
328,56,49686,6,0,B|344:40|368:40,1,40
363,40,49905,1,2
424,88,50124,1,0
424,88,50233,2,0,B|448:88|464:104,1,40,0|2
456,184,50562,2,0,B|472:200|472:224,3,40,0|0|2|0
471,219,50999,1,0
344,320,51437,5,0
320,288,51547,1,0
288,264,51656,1,2
248,256,51766,1,0
208,264,51875,1,0
176,288,51985,1,0
152,320,52094,2,0,B|120:352|80:352,1,80,2|0
80,351,52423,1,0
80,351,52532,1,2
80,351,52642,1,0
80,351,52751,1,0
56,192,53189,5,0
40,152,53299,1,0
48,112,53408,1,2
72,80,53518,1,0
112,64,53627,1,0
152,64,53737,2,0,B|176:64|192:80,1,40,0|2
224,96,53956,1,0
264,112,54065,1,0
304,112,54175,2,0,B|328:112|344:96,1,40,0|2
376,72,54394,1,0
400,40,54503,1,0
448,192,54941,5,0
448,192,55051,1,0
448,192,55160,1,2
448,192,55270,1,0
448,192,55379,2,0,B|448:216|464:232,3,40,0|0|2|0
472,264,55817,1,0
464,304,55926,1,0
440,336,56036,1,2
400,344,56145,1,0
360,328,56255,1,0
208,368,56693,5,0
184,336,56802,1,0
152,312,56912,1,2
112,296,57021,1,0
72,296,57131,1,0
80,136,57569,2,0,B|32:88|32:24,1,120,2|0
32,29,58007,1,4
192,48,58445,6,0,B|224:16|264:16,1,80,2|0
288,96,58883,2,0,B|320:128|360:128,1,80,2|0
432,104,59321,1,2
359,127,59540,1,0
432,104,59759,2,0,B|464:136|464:176,1,80,2|0
392,208,60197,2,0,B|392:288|328:352,1,160,2|0
248,336,60853,2,0,B|216:368|176:368,1,80,2|0
160,288,61291,1,2
96,336,61510,1,0
80,256,61729,2,0,B|24:200|24:104,1,160,2|0
104,88,62386,6,0,B|104:48|136:16,2,80,2|0|2
184,112,63043,1,0
184,112,63153,1,0
184,112,63262,2,0,B|216:144|216:184,1,80,2|0
256,192,63700,12,0,65014
56,24,65452,5,2
96,96,65671,1,0
176,80,65890,2,0,B|216:80|248:112,1,80,2|0
328,120,66328,2,0,B|360:152|400:152,1,80,2|0
440,224,66766,2,0,B|472:256|472:296,1,80,2|0
392,312,67204,2,0,B|336:368|240:368,1,160,2|0
216,296,67861,2,0,B|176:296|144:264,1,80,2|0
160,184,68299,2,0,B|160:144|128:112,1,80,2|0
208,88,68737,2,0,B|264:32|360:32,1,160,2|0
353,32,69394,1,2
400,96,69613,5,0
400,96,69832,2,0,B|440:96|472:128,1,80,2|0
464,208,70270,2,0,B|496:240|496:280,1,80,2|0
432,328,70707,2,0,B|432:352|416:368,7,40,2|0|2|0|2|0|2|0
418,364,71583,1,0
264,328,72021,6,0,B|232:296|192:296,1,80
112,312,72459,2,0,B|80:280|80:240,1,80,2|0
80,240,72788,1,2
80,240,72897,1,0
104,168,73116,2,0,B|72:136|32:136,2,80,2|2|0
104,168,73664,1,2
104,168,73773,1,0
184,176,73992,2,0,B|216:208|256:208,1,80,2|2
336,296,74430,2,0,B|376:296|408:264,1,80,0|2
488,168,74868,1,0
432,64,75087,1,2
280,24,75525,5,2
232,88,75744,1,0
152,80,75963,2,0,B|120:112|80:112,1,80,2|0
80,111,76291,1,2
80,111,76401,1,0
80,111,76620,1,2
56,192,76839,1,2
56,192,77058,1,0
56,192,77167,1,2
56,192,77277,2,0,B|24:224|24:264,1,80,0|2
96,288,77715,2,0,B|96:328|128:360,1,80,2|0
232,304,78153,1,2
344,344,78372,1,0
432,256,78591,1,2
416,96,79029,6,0,B|448:64|488:64,2,80,2|0|2
336,80,79686,2,0,B|320:96|320:120,1,40,0|2
320,115,79905,1,0
240,136,80124,2,0,B|208:168|168:168,1,80,2|2
168,167,80562,1,0
168,167,80671,1,2
168,167,80780,1,0
152,88,80999,2,0,B|120:56|80:56,1,80,2|2
24,160,81437,1,0
120,232,81656,1,2
120,232,81875,1,0
56,336,82094,1,2
216,352,82532,6,0,B|256:352|288:320,1,80,2|0
368,328,82970,2,0,B|400:296|400:256,1,80,2|0
408,216,83299,2,0,B|408:192|424:176,1,40,2|0
421,179,83627,1,2
464,112,83846,1,2
352,64,84065,2,0,B|320:32|280:32,1,80,0|2
160,24,84503,1,0
256,192,84722,12,2,86474
256,192,86583,12,4,87788
32,352,102240,6,0,B|56:352|72:336,3,40,0|0|2|0
104,320,102678,1,0
136,296,102788,1,0
160,264,102897,1,2
240,272,103116,1,0
272,248,103226,2,0,B|288:232|312:232,3,40,0|2|0|0
432,336,103992,5,0
432,336,104102,1,0
432,336,104211,1,2
432,336,104321,1,0
432,336,104430,2,0,B|464:304|464:264,1,80,0|2
448,184,104868,1,0
424,152,104978,1,0
416,112,105087,1,2
424,72,105197,1,0
448,40,105306,1,0
320,136,105744,6,0,B|304:120|304:96,3,40,0|0|2|0
288,64,106182,1,0
256,40,106291,1,0
216,32,106401,1,2
176,40,106510,1,0
144,64,106620,1,0
128,104,106729,1,0
104,136,106839,1,2
72,160,106948,1,0
32,168,107058,1,0
56,328,107496,5,0
80,296,107605,1,0
112,272,107715,1,2
152,264,107824,1,0
192,272,107934,1,0
224,296,108043,1,0
248,328,108153,1,2
280,352,108262,1,0
320,360,108372,1,0
360,352,108481,1,0
392,328,108591,1,2
416,296,108700,1,0
432,256,108810,1,0
488,104,109248,5,0
488,104,109357,1,0
488,104,109467,1,2
488,104,109576,2,0,B|488:80|472:64,1,40
448,40,109795,2,0,B|432:24|408:24,3,40,0|2|0|0
376,24,110233,2,0,B|352:24|336:40,1,40,0|2
312,64,110452,1,0
296,104,110562,1,0
144,48,110999,5,0
136,88,111109,2,0,B|136:112|120:128,3,40,0|2|0|0
96,152,111547,1,0
64,176,111656,1,2
48,216,111766,1,0
56,256,111875,1,0
80,288,111985,2,0,B|96:304|120:304,3,40,0|2|0|0
272,352,112751,5,0
312,336,112861,1,0
344,312,112970,1,2
368,280,113080,2,0,B|384:264|384:240,3,40,0|0|0|2
400,168,113627,1,0
400,168,113737,2,0,B|400:144|416:128,1,40,0|2
448,64,114065,1,0
288,32,114503,5,0
288,32,114613,1,0
288,32,114722,1,2
288,32,114832,2,0,B|264:32|248:48,3,40,0|0|0|2
168,40,115379,2,0,B|120:88|120:152,1,120,2|0
120,146,115817,1,4
16,272,116255,6,0,B|48:304|88:304,1,80,2|0
136,368,116693,2,0,B|176:368|208:336,1,80,2|0
224,256,117131,2,0,B|264:256|296:288,1,80,2|0
352,344,117569,2,0,B|384:312|424:312,1,80,2|0
440,232,118007,2,0,B|496:176|496:80,1,160,2|0
416,112,118664,2,0,B|384:80|384:40,1,80,2|0
304,48,119102,2,0,B|272:16|232:16,1,80,2|0
200,88,119540,2,0,B|120:88|56:152,1,160,2|0
57,150,120197,1,2
16,224,120416,5,0
88,256,120635,1,2
48,328,120853,2,0,B|64:344|64:368,2,40,0|0|2
48,328,121291,1,0
256,192,121510,12,0,122824
496,184,123262,5,2
456,256,123481,1,0
384,232,123700,1,2
328,288,123919,2,0,B|296:320|256:320,1,80,0|2
184,296,124357,2,0,B|152:328|152:368,2,80,0|2|0
112,264,125014,2,0,B|56:208|56:112,1,160,2|0
96,48,125671,2,0,B|64:16|24:16,2,80,2|0|2
152,104,126328,1,0
232,96,126547,2,0,B|288:152|384:152,1,160,2|0
456,128,127204,6,0,B|488:160|488:200,1,80,2|0
416,240,127642,2,0,B|416:280|384:312,1,80,2|0
312,280,128080,1,2
256,336,128299,1,0
176,328,128518,2,0,B|160:344|136:344,7,40,2|0|2|0|2|0|2|0
140,343,129394,1,0
88,192,129832,5,0
24,144,130051,1,0
56,72,130270,1,2
136,80,130489,1,0
136,80,130598,1,2
136,80,130707,1,0
160,152,130926,2,0,B|192:184|232:184,1,80,2|2
288,128,131364,1,0
288,128,131474,1,2
288,128,131583,2,0,B|328:128|360:96,1,80,0|2
440,88,132021,2,0,B|456:72|480:72,2,40,2|0|0
472,160,132459,1,2
472,160,132678,1,0
472,160,132788,1,0
472,160,132897,1,2
416,216,133116,1,0
448,288,133335,6,0,B|408:288|376:320,1,80,2|0
296,328,133773,1,2
376,319,133992,1,0
296,328,134211,2,0,B|264:360|224:360,1,80,2|0
176,296,134649,2,0,B|136:296|104:264,1,80,2|0
104,264,134978,1,2
104,264,135087,1,0
104,264,135306,1,2
120,184,135525,2,0,B|64:128|64:32,2,160,2|0|2
200,168,136620,1,0
200,168,136729,1,0
200,168,136839,2,0,B|240:168|272:200,1,80,2|0
352,208,137277,5,2
352,208,137496,1,0
352,208,137605,2,0,B|368:224|392:224,1,40,2|0
432,288,137934,2,0,B|464:320|464:360,2,80,2|2|0
432,288,138481,1,2
432,288,138591,1,0
352,304,138810,2,0,B|312:304|280:272,1,80,2|2
280,272,139138,1,0
280,272,139248,1,0
280,272,139357,1,0
280,272,139467,1,2
200,264,139686,1,0
168,240,139795,1,0
128,232,139905,1,2
128,232,140124,1,0
104,152,140343,6,0,B|72:120|72:80,2,80,2|0|2
184,128,140999,1,0
104,152,141218,1,2
184,128,141437,1,0
240,184,141656,1,2
320,168,141875,1,0
320,168,141985,1,2
320,168,142094,2,0,B|360:168|392:200,1,80,0|2
472,192,142532,1,2
472,192,142642,1,0
496,264,142861,1,0
496,264,142970,1,2
448,328,143189,1,0
368,336,143408,2,0,B|352:352|328:352,1,40,2|0
304,280,143737,2,0,B|288:264|264:264,1,40,0|2
192,272,144065,6,0,B|160:240|160:200,1,80,0|2
160,200,144394,1,0
88,160,144613,1,0
88,160,144722,2,0,B|88:120|120:88,1,80,2|0
200,80,145160,2,0,B|216:64|240:64,1,40,2|0
235,64,145379,1,0
235,64,145489,1,0
235,64,145598,1,4
40,376,159613,6,0,B|120:376|184:312,1,160,0|2
264,320,160270,1,0
264,320,160379,1,2
264,320,160489,2,0,B|296:288|336:288,1,80,0|2
416,296,160926,2,0,B|448:264|448:224,1,80,2|0
456,184,161255,2,0,B|456:160|472:144,1,40,2|0
469,147,161583,1,2
408,96,161802,2,0,B|392:80|392:56,1,40,2|0
392,60,162021,1,0
312,48,162240,2,0,B|280:16|240:16,1,80,2|0
184,72,162678,2,0,B|160:72|144:88,3,40,2|0|0|0
147,85,163116,1,2
128,160,163335,6,0,B|96:192|96:232,1,80,0|2
120,304,163773,1,0
120,304,163883,1,2
120,304,163992,2,0,B|88:336|48:336,2,80,0|2|2
192,280,164649,1,0
192,280,164759,1,2
192,280,164868,1,0
192,280,165087,2,0,B|232:280|264:312,1,80,2|2
344,320,165525,2,0,B|360:336|384:336,1,40
379,335,165744,1,2
456,328,165963,2,0,B|472:344|472:368,2,40,0|0|2
488,256,166401,1,0
424,208,166620,1,2
488,256,166839,1,0
424,208,167058,1,2
432,128,167277,5,0
432,128,167386,1,2
432,128,167496,2,0,B|400:96|400:56,1,80,0|2
320,48,167934,2,0,B|288:16|248:16,1,80,2|0
248,16,168262,1,2
248,16,168372,1,0
232,96,168591,2,0,B|200:128|160:128,1,80,2|2
120,136,168919,2,0,B|96:136|80:152,1,40
83,149,169138,1,0
83,149,169248,1,2
88,232,169467,2,0,B|56:264|56:304,2,80,0|2|0
88,232,170014,1,0
88,232,170124,1,2
168,224,170343,6,0,B|200:192|240:192,1,80,0|2
256,272,170780,1,0
288,296,170890,1,2
328,304,170999,1,0
256,272,171218,1,0
288,296,171328,1,2
328,304,171437,1,0
408,296,171656,2,0,B|424:312|424:336,2,40,2|0|2
472,248,172094,1,0
448,168,172313,2,0,B|504:112|504:16,1,160,2|0
352,64,173627,6,0,B|320:96|280:96,1,80
200,80,174065,2,0,B|168:112|168:152,1,80,2|0
168,151,174394,1,2
168,151,174503,1,0
96,184,174722,2,0,B|96:224|128:256,1,80,2|2
208,232,175160,1,0
208,232,175270,1,2
208,232,175379,1,0
256,296,175598,1,2
336,288,175817,2,0,B|368:320|408:320,1,80,2|0
488,224,176255,1,2
488,224,176474,1,0
448,112,176693,1,2
320,24,177131,5,2
272,88,177350,1,0
272,88,177569,1,2
192,64,177788,1,0
192,64,177897,1,2
192,64,178007,1,0
136,120,178226,2,0,B|104:152|64:152,1,80,2|2
48,232,178664,1,0
48,232,178773,1,2
48,232,178883,2,0,B|16:264|16:304,2,80,0|2|2
120,328,179540,1,0
224,272,179759,1,2
336,304,179978,1,0
408,208,180197,1,2
440,48,180634,6,0,B|400:48|368:80,1,80,2|0
288,88,181072,2,0,B|256:120|216:120,1,80,2|0
216,119,181401,1,2
216,119,181510,1,0
136,104,181729,2,0,B|104:136|104:176,1,80,2|2
32,208,182167,1,0
32,208,182277,1,2
32,208,182386,2,0,B|32:248|64:280,1,80,0|2
144,264,182824,1,2
264,264,183043,1,0
168,328,183262,1,2
204,212,183481,1,0
240,328,183700,1,2
400,352,184138,5,2
400,352,184357,2,0,B|400:312|432:280,1,80,0|2
424,200,184795,1,0
456,176,184905,1,2
472,136,185014,1,0
472,136,185233,1,0
472,96,185343,1,2
456,56,185452,1,0
344,104,185671,1,2
240,40,185890,1,2
176,144,186109,1,0
256,192,186328,12,0,187642
40,32,188080,5,2
72,104,188299,1,0
152,88,188518,1,2
208,144,188737,1,0
288,136,188956,1,2
312,168,189065,1,2
344,192,189175,1,0
384,208,189284,1,0
424,216,189394,1,2
464,288,189613,6,0,B|496:320|496:360,2,80,0|10|0
464,288,190160,1,2
464,288,190270,1,0
384,280,190489,2,0,B|352:248|312:248,1,80,10|10
264,312,190926,1,0
264,312,191036,1,2
264,312,191145,2,0,B|224:312|192:344,1,80,0|10
112,336,191583,1,10
112,336,191802,2,0,B|88:360,3,26.6666666666667,0|2|2|2
16,368,192240,1,8
16,368,192459,1,10
56,216,192897,6,0,B|24:184|24:144,1,80,2|0
96,112,193335,2,0,B|96:72|128:40,1,80,10|0
127,40,193664,1,2
127,40,193773,1,0
208,48,193992,2,0,B|240:16|280:16,1,80,10|10
279,16,194430,1,0
279,16,194540,1,2
279,16,194649,1,0
328,80,194868,2,0,B|368:80|400:112,1,80,10|10
399,111,195197,1,0
399,111,195306,1,2
384,192,195525,2,0,B|384:232|416:264,1,80,2|8
415,263,195963,1,10
264,320,196401,6,0,B|232:352|192:352,1,80
176,272,196839,2,0,B|144:240|104:240,1,80,2|0
104,240,197167,1,2
104,240,197277,1,0
80,160,197496,2,0,B|48:128|48:88,2,80,2|2|0
80,160,198043,1,2
80,160,198153,1,0
80,160,198372,1,2
160,144,198591,1,2
320,144,198810,1,0
192,232,199029,1,2
240,80,199248,1,0
288,232,199467,1,2
416,336,199905,6,0,B|384:368|344:368,2,80,2|0|2
432,256,200562,1,0
432,256,200671,1,2
432,256,200780,2,0,B|464:224|464:184,1,80,0|2
384,160,201218,2,0,B|352:128|352:88,1,80,2|0
240,56,201656,2,0,B|208:24|168:24,1,80,2|0
256,192,202094,12,4,203846
