osu file format v9

[General]
AudioFilename: Shan Dara Rin.mp3
AudioLeadIn: 3000
PreviewTime: 13992
Countdown: 0
SampleSet: Soft
StackLeniency: 0.7
Mode: 0
LetterboxInBreaks: 0

[Editor]
DistanceSpacing: 0.9
BeatDivisor: 2
GridSize: 8

[Metadata]
Title:Shan Dara Rin
Artist:nayuta
Creator:Nooko
Version:Easy
Source:Touhou
Tags:Numbers 596108 pokedigi MOKEMOON Komeiji Yuki Makuri JoesSR

[Difficulty]
HPDrainRate:2
CircleSize:3
OverallDifficulty:2
ApproachRate:2
SliderMultiplier:0.9
SliderTickRate:1

[Events]
//Background and Video events
0,0,"Shan Dara Rin.jpg"
//Break Periods
2,87988,100680
2,145798,158053
//Storyboard Layer 0 (Background)
//Storyboard Layer 1 (Fail)
//Storyboard Layer 2 (Pass)
//Storyboard Layer 3 (Foreground)
Sprite,Foreground,Centre,"SB\inaba.png",320,240 M,0,30416,,71,410 F,0,30416,30853,0,1 S,0,30416,30853,0.1,1 F,0,30853,58007,1 S,0,30853,58007,1 F,0,58007,58445,1,0 S,0,58007,58445,1,0.1
Animation,Foreground,Centre,"SB\rap.png",320,240,4,750,LoopForever M,0,30853,,218,413 F,0,30853,31291,0,1 F,0,31291,58007,1 F,0,58007,58445,1,0
Sprite,Foreground,Centre,"SB\1-1.png",320,240 M,0,13773,14430,37,87,53,87 F,0,13773,14430,0,1 F,0,14430,16182,1 F,0,16182,16401,1,0
Sprite,Foreground,Centre,"SB\1-2.png",320,240 M,0,14430,,214,85 R,0,14430,14649,0,-0.025 F,0,14430,14868,0,1 R,0,14649,14868,-0.025,0 F,0,14649,16182,1 R,0,14868,15087,0,0.025 R,0,15087,15306,0.025,0 R,0,15306,15525,0,-0.025 R,0,15525,15744,-0.025,0 R,0,15744,15963,0,0.025 R,0,15963,16182,0.025,0 F,0,16182,16401,1,0 R,0,16182,16620,0,-0.025 R,0,16620,16839,-0.025,0 R,0,16839,17058,0,0.025 R,0,17058,17277,0.025,0
Sprite,Foreground,Centre,"SB\1-3.png",320,240 M,0,15306,,187,127 R,0,15306,15525,0,-0.025 F,0,15306,15744,0,1 R,0,15525,15744,-0.025,0 R,0,15744,15963,0,0.025 F,0,15744,16182,1 R,0,15963,16182,0.025,0 F,0,16182,16401,1,0 R,0,16182,16620,0,-0.025 R,0,16620,16839,-0.025,0 R,0,16839,17058,0,0.025 R,0,17058,17277,0.025,0
Sprite,Foreground,Centre,"SB\2-1.png",320,240 M,0,16182,,174,188 S,0,16182,,1.3 F,0,16182,16620,0,1 F,0,16620,17277,1 F,0,17277,17496,1,0
Sprite,Foreground,Centre,"SB\2-2.png",320,240 M,0,17277,,128,93 F,0,17277,17934,0,1 F,0,17934,20780,1 F,0,20780,20999,1,0
Sprite,Foreground,Centre,"SB\2-3.png",320,240 M,0,18591,,199,144 F,0,18591,19029,0,1 F,0,19029,20780,1 F,0,20780,20999,1,0
Sprite,Foreground,Centre,"SB\2-4.png",320,240 M,0,19686,,257,195 F,0,19686,20124,0,1 S,0,19905,20124,1,1.05 S,0,20124,20343,1.05,0.9 F,0,20124,20780,1 S,0,20343,20562,0.9,1.1 S,0,20562,20780,1.1,1 F,0,20780,20999,1,0
Sprite,Foreground,Centre,"SB\1-1.png",320,240 M,0,20780,21437,37,87,53,87 F,0,20780,21437,0,1 F,0,21437,23189,1 F,0,21437,23408,1,0
Sprite,Foreground,Centre,"SB\1-2.png",320,240 M,0,21437,,214,85 R,0,21437,21656,0,-0.025 F,0,21437,21875,0,1 R,0,21656,21875,-0.025,0 F,0,21656,23189,1 R,0,21875,22094,0,0.025 R,0,22094,22313,0.025,0 R,0,22313,22532,0,-0.025 R,0,22532,22751,-0.025,0 R,0,22751,22970,0,0.025 R,0,22970,23189,0.025,0 F,0,23189,23408,1,0 R,0,23189,23627,0,-0.025 R,0,23627,23846,-0.025,0 R,0,23846,24065,0,0.025 R,0,24065,24284,0.025,0
Sprite,Foreground,Centre,"SB\1-3.png",320,240 M,0,22313,,187,127 R,0,22313,22532,0,-0.025 F,0,22313,22751,0,1 R,0,22532,22751,-0.025,0 R,0,22751,22970,0,0.025 F,0,22751,23189,1 R,0,22970,23189,0.025,0 F,0,23189,23408,1,0 R,0,23189,23627,0,-0.025 R,0,23627,23846,-0.025,0 R,0,23846,24065,0,0.025 R,0,24065,24284,0.025,0
Sprite,Foreground,Centre,"SB\4-1.png",320,240 M,0,23189,,174,188 S,0,23189,,1.3 F,0,23189,23627,0,1 F,0,23627,24284,1 F,0,24284,24503,1,0
Sprite,Foreground,Centre,"SB\4-2.png",320,240 M,0,24503,24941,177,124,185,124 F,0,24503,24941,0,1 M,0,24941,26912,185,124 F,0,24941,26912,1 M,0,26912,27350,185,124,201,124 F,0,26912,27350,1,0
Sprite,Foreground,Centre,"SB\5-1.png",320,240 M,0,58226,,68,100 F,0,58226,58664,0,1 F,0,58664,64138,1 F,0,64138,64357,1,0
Sprite,Foreground,Centre,"SB\5-2.png",320,240 M,0,59102,,148,141 F,0,59102,59540,0,1 F,0,59540,64138,1 F,0,64138,64357,1,0
Sprite,Foreground,Centre,"SB\5-3.png",320,240 M,0,59540,,298,139 F,0,59540,59978,0,1 F,0,59978,64138,1 F,0,64138,64357,1,0
Sprite,Foreground,Centre,"SB\5-4.png",320,240 M,0,60634,,385,139 F,0,60634,61072,0,1 F,0,61072,64138,1 F,0,64138,64357,1,0
Sprite,Foreground,Centre,"SB\6-1.png",320,240 M,0,61510,61948,87,188,104,188 F,0,61510,61948,0,1 F,0,61948,64138,1 F,0,64138,64357,1,0
Sprite,Foreground,Centre,"SB\6-2.png",320,240 M,0,61948,,154,188 F,0,61948,62386,0,1 F,0,62386,64138,1 F,0,64138,64357,1,0
Sprite,Foreground,Centre,"SB\6-3.png",320,240 M,0,62167,,235,189 F,0,62167,62386,0,1 F,0,62386,62605,1 F,0,62605,64138,1 F,0,64138,64357,1,0
Sprite,Foreground,Centre,"SB\6-4.png",320,240 M,0,62605,63043,346,190,352,190 F,0,62605,63043,0,1 F,0,63043,64138,1 F,0,64138,64357,1,0
Sprite,Foreground,Centre,"SB\7-1.png",320,240 M,0,65233,,101,73 F,0,65233,65671,0,1 F,0,65671,70707,1 S,0,70051,70270,1,1.15 S,0,70270,70489,1.15,1 F,0,70707,71145,1,0
Sprite,Foreground,Centre,"SB\7-2.png",320,240 M,0,67642,,226,73 F,0,67642,68080,0,1 F,0,68080,70707,1 S,0,70051,70270,1,1.15 S,0,70270,70489,1.15,1 F,0,70707,71145,1,0
Sprite,Foreground,Centre,"SB\7-3.png",320,240 M,0,68518,,236,138 F,0,68518,68956,0,1 F,0,68956,70707,1 S,0,70051,70270,1,1.15 S,0,70270,70489,1.15,1 F,0,70707,71145,1,0
Sprite,Foreground,Centre,"SB\1-1.png",320,240 M,0,71583,72240,37,87,53,87 F,0,71583,72240,0,1 F,0,72240,73992,1 F,0,73992,74211,1,0
Sprite,Foreground,Centre,"SB\1-2.png",320,240 M,0,72240,,214,85 R,0,72240,72459,0,-0.025 F,0,72240,72678,0,1 R,0,72459,72678,-0.025,0 F,0,72459,73992,1 R,0,72678,72897,0,0.025 R,0,72897,73116,0.025,0 R,0,73116,73335,0,-0.025 R,0,73335,73554,-0.025,0 R,0,73554,73773,0,0.025 R,0,73773,73992,0.025,0 F,0,73992,74211,1,0 R,0,73992,74430,0,-0.025 R,0,74430,74649,-0.025,0 R,0,74649,74868,0,0.025 R,0,74868,75087,0.025,0
Sprite,Foreground,Centre,"SB\1-3.png",320,240 M,0,73116,,187,127 R,0,73116,73335,0,-0.025 F,0,73116,73554,0,1 R,0,73335,73554,-0.025,0 R,0,73554,73773,0,0.025 F,0,73554,73992,1 R,0,73773,73992,0.025,0 F,0,73992,74211,1,0 R,0,73992,74430,0,-0.025 R,0,74430,74649,-0.025,0 R,0,74649,74868,0,0.025
Sprite,Foreground,Centre,"SB\9-1.png",320,240 M,0,73992,,174,188 S,0,73992,,1.3 F,0,73992,74211,0,1 F,0,74211,75087,1 F,0,75087,75306,1,0
Sprite,Foreground,Centre,"SB\9-2.png",320,240 M,0,75087,,107,91 F,0,75087,75744,0,1 F,0,75744,78591,1 F,0,78591,78810,1,0
Sprite,Foreground,Centre,"SB\9-3.png",320,240 M,0,76620,,272,90 F,0,76620,77058,0,1 F,0,77058,78591,1 F,0,78591,78810,1,0
Sprite,Foreground,Centre,"SB\9-4.png",320,240 M,0,77496,77934,180,152,196,152 F,0,77496,77934,0,1 F,0,77934,78591,1 F,0,78591,78810,1,0
Sprite,Foreground,Centre,"SB\1-1.png",320,240 M,0,78591,79248,37,87,53,87 F,0,78591,79248,0,1 F,0,79248,81000,1 F,0,81000,81219,1,0
Sprite,Foreground,Centre,"SB\1-2.png",320,240 M,0,79248,,214,85 R,0,79248,79467,0,-0.025 F,0,79248,79686,0,1 R,0,79467,79686,-0.025,0 F,0,79467,81000,1 R,0,79686,79905,0,0.025 R,0,79905,80124,0.025,0 R,0,80124,80343,0,-0.025 R,0,80343,80562,-0.025,0 R,0,80562,80781,0,0.025 R,0,80781,81000,0.025,0 F,0,81000,81219,1,0 R,0,81000,81438,0,-0.025 R,0,81438,81657,-0.025,0 R,0,81657,81876,0,0.025 R,0,81876,82095,0.025,0
Sprite,Foreground,Centre,"SB\1-3.png",320,240 M,0,80124,,187,127 R,0,80124,80343,0,-0.025 F,0,80124,80562,0,1 R,0,80343,80562,-0.025,0 R,0,80562,80781,0,0.025 F,0,80562,81000,1 R,0,80781,81000,0.025,0 F,0,81000,81219,1,0 R,0,81000,81438,0,-0.025 R,0,81438,81657,-0.025,0 R,0,81657,81876,0,0.025
Sprite,Foreground,Centre,"SB\11-1.png",320,240 M,0,80999,,174,188 S,0,80999,,1.3 F,0,80999,81219,0,1 F,0,81219,82095,1 F,0,82095,82314,1,0
Sprite,Foreground,Centre,"SB\11-2.png",320,240 M,0,82313,82751,84,110,91,110 F,0,82313,82751,0,1 M,0,82751,84722,91,110 F,0,82751,84722,1 M,0,84722,85160,91,110,107,110 F,0,84722,85160,1,0
Sprite,Foreground,Centre,"SB\11-3.png",320,240 M,0,82970,83408,219,113,228,112 F,0,82970,83408,0,1 M,0,83408,84722,228,112 F,0,83408,84722,1 M,0,84722,85160,228,112,245,112 F,0,84722,85160,1,0
Sprite,Foreground,Centre,"SB\inaba.png",320,240 M,0,88226,,71,410 F,0,88226,88663,0,1 S,0,88226,88663,0.1,1 F,0,88663,115817,1 S,0,88663,115817,1 F,0,115817,116255,1,0 S,0,115817,116255,1,0.1
Animation,Foreground,Centre,"SB\rap.png",320,240,4,750,LoopForever M,0,88663,,218,413 F,0,88663,89101,0,1 F,0,89101,115817,1 F,0,115817,116255,1,0
Sprite,Foreground,Centre,"SB\12-1.png",320,240 M,0,116036,,111,104 F,0,116036,116474,0,1 F,0,116474,121948,1 F,0,121948,122167,1,0
Sprite,Foreground,Centre,"SB\12-3.png",320,240 M,0,116036,,311,104 F,0,116036,116474,0,1 F,0,116474,121948,1 F,0,121948,122167,1,0
Sprite,Foreground,Centre,"SB\12-2.png",320,240 M,0,117788,,255,107 F,0,118664,118883,0,1 F,0,118883,121948,1 F,0,121948,122167,1,0
Sprite,Foreground,Centre,"SB\13-1.png",320,240 M,0,119102,,49,162 F,0,119102,119540,0,1 F,0,119540,121948,1 F,0,121948,122167,1,0
Sprite,Foreground,Centre,"SB\13-2.png",320,240 M,0,120634,,237,165 F,0,120634,121072,0,1 F,0,121072,121948,1 F,0,121948,122167,1,0
Sprite,Foreground,Centre,"SB\13-3.png",320,240 M,0,120853,,321,169 F,0,120853,121291,0,1 F,0,121291,121948,1 F,0,121948,122167,1,0
Sprite,Foreground,Centre,"SB\13-1_.png",320,240 M,0,119759,120197,103,163,114,163 F,0,119759,120197,0,1 F,0,120197,121948,1 F,0,121948,122167,1,0
Sprite,Foreground,Centre,"SB\13-1__.png",320,240 M,0,120197,120634,158,164,167,164 F,0,120197,120634,0,1 F,0,120634,121948,1 F,0,121948,122167,1,0
Sprite,Foreground,Centre,"SB\14-1.png",320,240 M,0,123043,,150,110 F,0,123043,123481,0,1 F,0,123481,128518,1 F,0,128518,128956,1,0
Sprite,Foreground,Centre,"SB\14-2.png",320,240 M,0,125671,,126,169 F,0,125671,126109,0,1 F,0,126109,128518,1 F,0,128518,128956,1,0
Sprite,Foreground,Centre,"SB\14-3.png",320,240 M,0,126328,,217,171 F,0,126328,126766,0,1 F,0,126766,128518,1 F,0,128518,128956,1,0
Sprite,Foreground,Centre,"SB\14-4.png",320,240 M,0,126766,,274,223 F,0,126766,127204,0,1 F,0,127204,128518,1 F,0,128518,128956,1,0
Sprite,Foreground,Centre,"SB\1-1.png",320,240 M,0,129394,130051,37,87,53,87 F,0,129394,130051,0,1 F,0,130051,131803,1 F,0,131803,132022,1,0
Sprite,Foreground,Centre,"SB\1-3.png",320,240 M,0,130927,,187,127 R,0,130927,131146,0,-0.025 F,0,130927,131365,0,1 R,0,131146,131365,-0.025,0 R,0,131365,131584,0,0.025 F,0,131365,131803,1 R,0,131584,131803,0.025,0 F,0,131803,132022,1,0 R,0,131803,132241,0,-0.025 R,0,132241,132460,-0.025,0 R,0,132460,132679,0,0.025
Sprite,Foreground,Centre,"SB\1-2.png",320,240 M,0,130051,,214,85 R,0,130051,130270,0,-0.025 F,0,130051,130489,0,1 R,0,130270,130489,-0.025,0 F,0,130270,131803,1 R,0,130489,130708,0,0.025 R,0,130708,130927,0.025,0 R,0,130927,131146,0,-0.025 R,0,131146,131365,-0.025,0 R,0,131365,131584,0,0.025 R,0,131584,131803,0.025,0 F,0,131803,132022,1,0 R,0,131803,132241,0,-0.025 R,0,132241,132460,-0.025,0 R,0,132460,132679,0,0.025 R,0,132679,132898,0.025,0
Sprite,Foreground,Centre,"SB\16-1.png",320,240 M,0,131802,,174,188 S,0,131802,,1.3 F,0,131802,132240,0,1 F,0,132240,132897,1 F,0,132897,133116,1,0
Sprite,Foreground,Centre,"SB\1-1.png",320,240 M,0,136401,137058,37,87,53,87 F,0,136401,137058,0,1 F,0,137058,138810,1 F,0,138810,139029,1,0
Sprite,Foreground,Centre,"SB\1-3.png",320,240 M,0,137934,,187,127 R,0,137934,138153,0,-0.025 F,0,137934,138372,0,1 R,0,138153,138372,-0.025,0 R,0,138372,138591,0,0.025 F,0,138372,138810,1 R,0,138591,138810,0.025,0 F,0,138810,139029,1,0 R,0,138810,139248,0,-0.025 R,0,139248,139467,-0.025,0 R,0,139467,139686,0,0.025
Sprite,Foreground,Centre,"SB\1-2.png",320,240 M,0,137058,,214,85 R,0,137058,137277,0,-0.025 F,0,137058,137496,0,1 R,0,137277,137496,-0.025,0 F,0,137277,138810,1 R,0,137496,137715,0,0.025 R,0,137715,137934,0.025,0 R,0,137934,138153,0,-0.025 R,0,138153,138372,-0.025,0 R,0,138372,138591,0,0.025 R,0,138591,138810,0.025,0 F,0,138810,139029,1,0 R,0,138810,139248,0,-0.025 R,0,139248,139467,-0.025,0 R,0,139467,139686,0,0.025 R,0,139686,139905,0.025,0
Sprite,Foreground,Centre,"SB\16-2.png",320,240 M,0,132897,,62,121 F,0,132897,133335,0,1 F,0,133335,136401,1 F,0,136401,136620,1,0
Sprite,Foreground,Centre,"SB\16-3.png",320,240 M,0,133773,134211,139,122,148,122 F,0,133773,134211,0,1 F,0,134211,136401,1 F,0,136401,136620,1,0
Sprite,Foreground,Centre,"SB\16-4.png",320,240 M,0,134430,134868,106,169,117,169 F,0,134430,134868,0,1 F,0,134868,136401,1 F,0,136401,136620,1,0
Sprite,Foreground,Centre,"SB\16-5.png",320,240 M,0,135306,,206,170 F,0,135306,135744,0,1 F,0,135744,136401,1 S,0,135963,136182,1,1.1 S,0,136182,136401,1.1,1 F,0,136401,136620,1,0
Sprite,Foreground,Centre,"SB\18-1.png",320,240 F,0,138810,139248,0,1 M,0,138810,142532,123,182 F,0,139248,142532,1 M,0,142532,142970,123,182,131,182 F,0,142532,142970,1,0
Sprite,Foreground,Centre,"SB\18-2.png",320,240 F,0,140124,140562,0,1 M,0,140124,142532,323,182 F,0,140562,142532,1 M,0,142532,142970,323,182,330,182 F,0,142532,142970,1,0
Sprite,Foreground,Centre,"SB\18-3.png",320,240 F,0,141437,141875,0,1 M,0,141437,142532,227,242 F,0,141875,142532,1 M,0,142532,142970,227,242,236,242 F,0,142532,142970,1,0
Sprite,Foreground,Centre,"SB\1-1.png",320,240 M,0,159175,159832,37,87,53,87 F,0,159175,159832,0,1 F,0,159832,161584,1 F,0,161584,161803,1,0
Sprite,Foreground,Centre,"SB\1-3.png",320,240 M,0,160708,,187,127 R,0,160708,160927,0,-0.025 F,0,160708,161146,0,1 R,0,160927,161146,-0.025,0 R,0,161146,161365,0,0.025 F,0,161146,161584,1 R,0,161365,161584,0.025,0 F,0,161584,161803,1,0 R,0,161584,162022,0,-0.025 R,0,162022,162241,-0.025,0 R,0,162241,162460,0,0.025
Sprite,Foreground,Centre,"SB\1-2.png",320,240 M,0,159832,,214,85 R,0,159832,160051,0,-0.025 F,0,159832,160270,0,1 R,0,160051,160270,-0.025,0 F,0,160051,161584,1 R,0,160270,160489,0,0.025 R,0,160489,160708,0.025,0 R,0,160708,160927,0,-0.025 R,0,160927,161146,-0.025,0 R,0,161146,161365,0,0.025 R,0,161365,161584,0.025,0 F,0,161584,161803,1,0 R,0,161584,162022,0,-0.025 R,0,162022,162241,-0.025,0 R,0,162241,162460,0,0.025 R,0,162460,162679,0.025,0
Sprite,Foreground,Centre,"SB\20-1.png",320,240 M,0,161583,,174,188 S,0,161583,,1.3 F,0,161583,162021,0,1 F,0,162021,162678,1 F,0,162678,162897,1,0
Sprite,Foreground,Centre,"SB\20-2.png",320,240 M,0,162678,,128,93 F,0,162678,163335,0,1 F,0,163335,166181,1 F,0,166181,166400,1,0
Sprite,Foreground,Centre,"SB\20-3.png",320,240 M,0,163992,,199,144 F,0,163992,164430,0,1 F,0,164430,166181,1 F,0,166181,166400,1,0
Sprite,Foreground,Centre,"SB\20-4.png",320,240 M,0,165087,,257,195 F,0,165087,165525,0,1 S,0,165306,165525,1,1.05 S,0,165525,165744,1.05,0.9 F,0,165525,166181,1 S,0,165744,165963,0.9,1.1 S,0,165963,166181,1.1,1 F,0,166181,166400,1,0
Sprite,Foreground,Centre,"SB\1-1.png",320,240 M,0,166182,166839,37,87,53,87 F,0,166182,166839,0,1 F,0,166839,168591,1 F,0,168591,168810,1,0
Sprite,Foreground,Centre,"SB\1-3.png",320,240 M,0,167715,,187,127 R,0,167715,167934,0,-0.025 F,0,167715,168153,0,1 R,0,167934,168153,-0.025,0 R,0,168153,168372,0,0.025 F,0,168153,168591,1 R,0,168372,168591,0.025,0 F,0,168591,168810,1,0 R,0,168591,169029,0,-0.025 R,0,169029,169248,-0.025,0 R,0,169248,169467,0,0.025
Sprite,Foreground,Centre,"SB\1-2.png",320,240 M,0,166839,,214,85 R,0,166839,167058,0,-0.025 F,0,166839,167277,0,1 R,0,167058,167277,-0.025,0 F,0,167058,168591,1 R,0,167277,167496,0,0.025 R,0,167496,167715,0.025,0 R,0,167715,167934,0,-0.025 R,0,167934,168153,-0.025,0 R,0,168153,168372,0,0.025 R,0,168372,168591,0.025,0 F,0,168591,168810,1,0 R,0,168591,169029,0,-0.025 R,0,169029,169248,-0.025,0 R,0,169248,169467,0,0.025 R,0,169467,169686,0.025,0
Sprite,Foreground,Centre,"SB\22-1.png",320,240 M,0,168591,,174,188 S,0,168591,,1.3 F,0,168591,169029,0,1 F,0,169029,169686,1 F,0,169686,169905,1,0
Sprite,Foreground,Centre,"SB\22-2.png",320,240 M,0,169905,170343,81,161,81,145 F,0,169905,170343,0,1 M,0,170343,172313,81,145 F,0,170343,172313,1 M,0,172313,172751,81,145,81,129 F,0,172313,172751,1,0
Sprite,Foreground,Centre,"SB\22-3.png",320,240 F,0,170343,170780,0,1 M,0,170343,172313,177,146 F,0,170780,172313,1 M,0,172313,172751,177,146,177,130 F,0,172313,172751,1,0
Sprite,Foreground,Centre,"SB\22-4.png",320,240 F,0,171218,171656,0,1 M,0,171218,172313,311,148 F,0,171656,172313,1 M,0,172313,172751,311,148,310,133 F,0,172313,172751,1,0
Sprite,Foreground,Centre,"SB\1-1.png",320,240 M,0,173189,173846,37,87,53,87 F,0,173189,173846,0,1 F,0,173846,175598,1 F,0,175598,175817,1,0
Sprite,Foreground,Centre,"SB\1-2.png",320,240 M,0,173846,,214,85 R,0,173846,174065,0,-0.025 F,0,173846,174284,0,1 R,0,174065,174284,-0.025,0 F,0,174065,175598,1 R,0,174284,174503,0,0.025 R,0,174503,174722,0.025,0 R,0,174722,174941,0,-0.025 R,0,174941,175160,-0.025,0 R,0,175160,175379,0,0.025 R,0,175379,175598,0.025,0 F,0,175598,175817,1,0 R,0,175598,176036,0,-0.025 R,0,176036,176255,-0.025,0 R,0,176255,176474,0,0.025 R,0,176474,176693,0.025,0
Sprite,Foreground,Centre,"SB\1-3.png",320,240 M,0,174722,,187,127 R,0,174722,174941,0,-0.025 F,0,174722,175160,0,1 R,0,174941,175160,-0.025,0 R,0,175160,175379,0,0.025 F,0,175160,175598,1 R,0,175379,175598,0.025,0 F,0,175598,175817,1,0 R,0,175598,176036,0,-0.025 R,0,176036,176255,-0.025,0 R,0,176255,176474,0,0.025 R,0,176474,176693,0.025,0
Sprite,Foreground,Centre,"SB\2-1.png",320,240 M,0,175598,,174,188 S,0,175598,,1.3 F,0,175598,176036,0,1 F,0,176036,176693,1 F,0,176693,176912,1,0
Sprite,Foreground,Centre,"SB\2-2.png",320,240 M,0,176693,,128,93 F,0,176693,177350,0,1 F,0,177350,180196,1 F,0,180196,180415,1,0
Sprite,Foreground,Centre,"SB\2-3.png",320,240 M,0,178007,,199,144 F,0,178007,178445,0,1 F,0,178445,180196,1 F,0,180196,180415,1,0
Sprite,Foreground,Centre,"SB\2-4.png",320,240 M,0,179102,,257,195 F,0,179102,179540,0,1 S,0,179321,179540,1,1.05 S,0,179540,179759,1.05,0.9 F,0,179540,180196,1 S,0,179759,179978,0.9,1.1 S,0,179978,180196,1.1,1 F,0,180196,180415,1,0
Sprite,Foreground,Centre,"SB\1-1.png",320,240 M,0,180196,180853,37,87,53,87 F,0,180196,180853,0,1 F,0,180853,182605,1 F,0,180853,182824,1,0
Sprite,Foreground,Centre,"SB\1-2.png",320,240 M,0,180853,,214,85 R,0,180853,181072,0,-0.025 F,0,180853,181291,0,1 R,0,181072,181291,-0.025,0 F,0,181072,182605,1 R,0,181291,181510,0,0.025 R,0,181510,181729,0.025,0 R,0,181729,181948,0,-0.025 R,0,181948,182167,-0.025,0 R,0,182167,182386,0,0.025 R,0,182386,182605,0.025,0 F,0,182605,182824,1,0 R,0,182605,183043,0,-0.025 R,0,183043,183262,-0.025,0 R,0,183262,183481,0,0.025 R,0,183481,183700,0.025,0
Sprite,Foreground,Centre,"SB\1-3.png",320,240 M,0,181729,,187,127 R,0,181729,181948,0,-0.025 F,0,181729,182167,0,1 R,0,181948,182167,-0.025,0 R,0,182167,182386,0,0.025 F,0,182167,182605,1 R,0,182386,182605,0.025,0 F,0,182605,182824,1,0 R,0,182605,183043,0,-0.025 R,0,183043,183262,-0.025,0 R,0,183262,183481,0,0.025 R,0,183481,183700,0.025,0
Sprite,Foreground,Centre,"SB\26-1.png",320,240 M,0,182605,,174,188 S,0,182605,,1.3 F,0,182605,183043,0,1 F,0,183043,183700,1 F,0,183700,183919,1,0
Sprite,Foreground,Centre,"SB\1-1.png",320,240 M,0,195963,196620,37,87,53,87 F,0,195963,196620,0,1 F,0,196620,198372,1 F,0,198372,198591,1,0
Sprite,Foreground,Centre,"SB\1-2.png",320,240 M,0,196620,,214,85 R,0,196620,196839,0,-0.025 F,0,196620,197058,0,1 R,0,196839,197058,-0.025,0 F,0,196839,198372,1 R,0,197058,197277,0,0.025 R,0,197277,197496,0.025,0 R,0,197496,197715,0,-0.025 R,0,197715,197934,-0.025,0 R,0,197934,198153,0,0.025 R,0,198153,198372,0.025,0 F,0,198372,198591,1,0 R,0,198372,198810,0,-0.025 R,0,198810,199029,-0.025,0 R,0,199029,199248,0,0.025 R,0,199248,199467,0.025,0
Sprite,Foreground,Centre,"SB\1-3.png",320,240 M,0,197496,,187,127 R,0,197496,197715,0,-0.025 F,0,197496,197934,0,1 R,0,197715,197934,-0.025,0 R,0,197934,198153,0,0.025 F,0,197934,198372,1 R,0,198153,198372,0.025,0 F,0,198372,198591,1,0 R,0,198372,198810,0,-0.025 R,0,198810,199029,-0.025,0 R,0,199029,199248,0,0.025
Sprite,Foreground,Centre,"SB\28-1.png",320,240 M,0,198371,,174,188 S,0,198371,,1.3 F,0,198371,198591,0,1 F,0,198591,199467,1 F,0,199467,199686,1,0
Sprite,Foreground,Centre,"SB\11-2.png",320,240 M,0,199685,200123,84,110,91,110 F,0,199685,200123,0,1 M,0,200123,202094,91,110 F,0,200123,202094,1 M,0,202094,202532,91,110,107,110 F,0,202094,202532,1,0
Sprite,Foreground,Centre,"SB\11-3.png",320,240 M,0,200342,200780,219,113,228,112 F,0,200342,200780,0,1 M,0,200780,202094,228,112 F,0,200780,202094,1 M,0,202094,202532,228,112,245,112 F,0,202094,202532,1,0
Sprite,Foreground,Centre,"SB\26-2.png",320,240 M,0,183919,184357,81,113,82,129 F,0,183919,184357,0,1 M,0,184357,186328,82,129 F,0,184357,186328,1 M,0,186328,186766,82,129,82,144 F,0,186328,186766,1,0
Sprite,Foreground,Centre,"SB\26-3.png",320,240 M,0,185014,185452,248,112,248,128 F,0,185014,185452,0,1 M,0,185452,186328,248,128 F,0,185452,186328,1 M,0,186328,186766,248,128,248,145 F,0,186328,186766,1,0
Sprite,Foreground,Centre,"SB\Title.png",320,240 M,0,635,1072,153,81,169,81 F,0,635,1072,0,1 M,0,1072,12897,169,81 F,0,1072,12897,1 M,0,12897,13335,169,81,185,81 F,0,12897,13335,1,0
Sprite,Foreground,Centre,"SB\Vocal.png",320,240 M,0,1510,1948,202,134,219,134 F,0,1510,1948,0,1 F,0,1948,12897,1 M,0,12897,13335,219,134,236,134 F,0,12897,13335,1,0
Sprite,Foreground,Centre,"SB\Mapper.png",320,240 M,0,2386,2824,237,178,250,178 F,0,2386,2824,0,1 M,0,2824,12897,250,178 F,0,2824,12897,1 M,0,12897,13335,250,178,267,178 F,0,12897,13335,1,0
Sprite,Foreground,Centre,"SB\SB.png",320,240 M,0,3262,3700,299,222,315,222 F,0,3262,3700,0,1 M,0,3700,12897,315,222 F,0,3700,12897,1 M,0,12897,13335,315,222,331,222 F,0,12897,13335,1,0
//Storyboard Sound Samples
//Background Colour Transformations
3,100,163,162,255

[TimingPoints]
635,437.956204379562,4,2,1,70,1,0
14649,-100,4,2,1,90,0,1
26912,-100,4,2,1,70,0,0
72459,-100,4,2,1,90,0,1
84722,-100,4,2,1,40,0,0
87788,-100,4,2,1,70,0,0
130270,-100,4,2,1,90,0,1
142532,-100,4,2,1,70,0,0
160051,-100,4,2,1,90,0,1
186328,-100,4,2,1,70,0,0
196839,-100,4,2,1,90,0,1
199905,-100,4,2,1,40,0,1
202094,-100,4,2,1,40,0,0
203846,-100,4,2,1,70,0,0

[HitObjects]
24,336,197,1,0
80,280,635,2,0,B|144:216|248:216,1,180,0|10
392,272,2386,1,0
456,224,2824,2,0,B|496:184|496:144,1,90,0|10
400,16,4138,5,0
320,40,4576,1,0
264,96,5014,1,10
104,88,5890,2,0,B|64:128|24:128,2,90,0|0|10
80,248,7642,6,0,B|168:248|240:320,1,180,0|10
400,328,9394,1,0
400,328,9832,2,0,B|440:368|480:368,1,90,0|10
432,208,11145,6,0,B|392:168|392:128,1,90
312,136,12021,2,0,B|272:96|232:96,1,90,10|0
234,96,12897,1,0
120,208,13773,1,4
120,208,14211,2,0,B|120:248|80:288,1,90
240,240,15525,6,0,B|304:176|408:176,1,180,2|0
392,256,16839,2,0,B|432:256|472:296,1,90,0|2
424,136,18153,6,0,B|384:96|384:56,1,90
384,58,19029,1,2
224,80,19905,2,0,B|184:80|144:120,1,90
72,88,20780,2,0,B|32:128|32:168,1,90,2|0
40,248,21656,5,0
160,352,22532,2,0,B|248:352|320:280,1,180,2|0
400,304,23846,2,0,B|440:264|480:264,1,90,0|2
392,128,25160,5,0
392,128,25598,2,0,B|392:88|352:48,1,90,0|2
280,88,26474,1,0
280,88,26912,2,0,B|216:24|112:24,1,180,0|2
64,176,28664,5,0
144,184,29102,2,0,B|184:184|224:224,1,90,0|2
272,288,29978,1,4
352,264,30416,6,0,B|392:304|432:304,2,90,0|0|2
400,112,32167,2,0,B|336:48|232:48,1,180,0|2
80,104,33919,6,0,B|40:64|40:24,2,90,0|0|2
80,104,35233,1,0
136,160,35671,2,0,B|176:200|176:240,1,90
168,320,36547,1,2
328,304,37423,5,0
392,256,37861,1,0
392,256,38299,2,0,B|456:192|456:88,1,180,2|0
376,112,39613,2,0,B|336:72|296:72,3,90,0|2|0|0
136,56,41802,5,2
112,216,42678,2,0,B|112:256|72:296,2,90,0|0|2
264,272,44430,5,0
264,272,44868,1,0
264,272,45306,2,0,B|352:272|424:200,1,180,2|0
368,144,46620,2,0,B|408:104|408:64,1,90,0|2
248,40,47934,5,0
168,64,48372,1,0
112,120,48810,1,2
72,280,49686,2,0,B|112:280|152:240,1,90
232,264,50562,2,0,B|296:200|400:200,1,180,2|0
472,56,52313,5,2
312,80,53189,2,0,B|272:40|232:40,1,90
152,32,54065,1,2
48,152,54941,6,0,B|48:240|120:312,1,180,0|2
280,296,56693,2,0,B|320:336|360:336,1,90
368,256,57569,2,0,B|408:256|448:216,1,90,2|4
488,144,58445,5,0
352,64,59321,2,0,B|312:24|272:24,1,90,2|0
192,40,60197,2,0,B|128:104|24:104,1,180,0|2
29,104,61510,1,0
29,104,61948,1,0
96,248,62824,5,2
152,304,63262,1,0
152,304,63700,2,0,B|216:368|320:368,1,180,0|2
384,224,65452,6,0,B|424:224|464:184,1,90
432,112,66328,2,0,B|472:72|472:32,2,90,2|0|0
272,88,68080,2,0,B|232:88|192:128,1,90,2|0
193,127,68956,1,0
104,264,69832,5,2
256,320,70707,1,0
256,320,71145,2,0,B|296:280|336:280,1,90,0|4
416,296,72021,6,0,B|456:256|456:216,1,90
416,56,73335,1,2
256,96,74211,1,0
256,96,74649,1,0
256,96,75087,2,0,B|192:32|88:32,1,180,2|0
104,192,76839,6,0,B|64:232|64:272,2,90,2|0|0
184,216,78153,2,0,B|224:176|264:176,1,90,0|2
400,264,79467,6,0,B|464:200|464:96,1,180,0|2
304,112,81218,2,0,B|264:72|224:72,1,90
144,64,82094,1,2
104,224,82970,5,0
104,224,83408,2,0,B|64:224|24:264,1,90,0|2
256,192,84722,12,4,87788
40,80,102240,5,0
96,144,102678,2,0,B|136:184|176:184,1,90,0|2
328,136,103992,2,0,B|392:200|392:304,1,180,0|2
232,280,105744,2,0,B|192:320|152:320,2,90,0|0|2
96,192,107496,6,0,B|56:152|56:112,1,90
56,114,108372,1,2
136,104,108810,2,0,B|136:64|176:24,1,90
232,88,109686,1,0
232,88,110124,2,0,B|296:24|400:24,1,180,2|0
440,184,111875,5,2
352,320,112751,1,0
296,264,113189,1,0
216,240,113627,1,2
72,168,114503,1,0
72,168,114941,2,0,B|40:136|40:80,2,90,0|2|4
144,136,116255,6,0,B|184:136|224:176,1,90
280,232,117131,1,2
376,360,118007,2,0,B|440:296|440:192,1,180,0|2
400,128,119321,2,0,B|360:88|360:48,1,90
280,56,120197,6,0,B|240:16|200:16,1,90,0|2
192,96,121072,1,0
192,96,121510,2,0,B|104:96|32:168,1,180,0|2
168,256,123262,6,0,B|128:296|128:336,2,90,0|0|2
248,280,124576,1,0
248,280,125014,2,0,B|336:280|408:208,1,180,0|2
456,144,126328,1,0
480,64,126766,5,0
320,104,127642,1,2
160,144,128518,2,0,B|120:104|120:64,2,90,0|0|4
128,216,129832,6,0,B|168:256|168:296,1,90
248,288,130707,2,0,B|288:328|328:328,1,90,0|2
408,192,132021,2,0,B|448:152|448:112,1,90
440,32,132897,1,2
288,80,133773,5,0
288,80,134211,1,0
288,80,134649,2,0,B|224:16|120:16,1,180,2|0
144,96,135963,2,0,B|104:96|64:136,1,90,0|2
80,296,137277,5,0
216,216,138153,2,0,B|304:216|376:288,1,180,2|0
448,248,139467,2,0,B|488:288|488:328,2,90,0|2|0
408,176,140780,6,0,B|368:136|368:96,1,90
368,98,141656,1,2
208,112,142532,2,0,B|144:48|40:48,1,180,0|2
80,208,144284,5,0
80,208,144722,2,0,B|40:248|40:288,1,90,0|2
40,286,145598,1,4
208,304,159613,6,0,B|248:264|288:264,1,90
360,240,160489,2,0,B|400:200|400:160,3,90,0|2|0|0
400,162,162240,1,0
392,80,162678,1,2
232,96,163554,6,0,B|168:32|64:32,1,180,0|2
120,184,165306,2,0,B|56:248|56:352,2,180,0|2|0
192,224,167496,6,0,B|232:184|272:184,1,90,0|2
432,208,168810,2,0,B|472:168|472:128,1,90
464,48,169686,1,2
304,88,170562,6,0,B|264:88|224:128,1,90
152,88,171437,2,0,B|112:128|112:168,1,90,2|0
32,184,172313,2,0,B|32:272|104:344,1,180,0|2
184,320,173627,6,0,B|224:320|264:360,1,90
376,248,174941,2,0,B|416:248|456:208,1,90,2|0
455,209,175817,1,0
416,136,176255,2,0,B|456:96|456:56,1,90,0|2
296,80,177569,5,0
296,80,178007,1,0
296,80,178445,2,0,B|208:80|136:152,1,180,2|0
96,224,179759,2,0,B|96:264|56:304,2,90,0|2|0
96,224,181072,1,0
176,240,181510,6,0,B|216:200|256:200,1,90,0|2
400,264,182824,2,0,B|440:304|480:304,2,90,0|0|2
440,104,184576,6,0,B|400:64|360:64,1,90
362,64,185452,1,2
280,80,185890,1,0
280,80,186328,2,0,B|216:144|112:144,1,180,0|2
24,272,188080,6,0,B|24:312|64:352,1,90
136,320,188956,1,2
136,320,189394,2,0,B|176:360|216:360,1,90
320,240,190707,6,0,B|408:240|480:168,1,180,10|0
480,168,192021,1,0
480,168,192459,1,10
368,56,193335,5,0
216,104,194211,2,0,B|152:40|48:40,2,180,10|0|10
280,152,196401,6,0,B|320:192|360:192,1,90
432,160,197277,2,0,B|472:200|472:240,1,90,0|2
360,352,198591,1,0
208,296,199467,1,2
256,192,199905,12,4,203846
