osu file format v14

[General]
AudioFilename: NATO - Yog Sothoth.mp3
AudioLeadIn: 0
PreviewTime: 75223
Countdown: 0
SampleSet: Soft
StackLeniency: 0.7
Mode: 3
LetterboxInBreaks: 0
SpecialStyle: 0
WidescreenStoryboard: 0

[Editor]
DistanceSpacing: 1.3
BeatDivisor: 8
GridSize: 4
TimelineZoom: 1.4

[Metadata]
Title:Yog-Sothoth
TitleUnicode:Yog-Sothoth
Artist:nato
ArtistUnicode:nato
Creator:AJIekceu
Version:NM
Source:Pump It Up 2015 Prime
Tags:piu Andamiro dance arcade artcore
BeatmapID:592403
BeatmapSetID:258097

[Difficulty]
HPDrainRate:7
CircleSize:4
OverallDifficulty:7
ApproachRate:5
SliderMultiplier:1.4
SliderTickRate:1

[Events]
//Background and Video events
0,0,"BG.png",0,0
Video,-308,"bga.avi"
//Break Periods
//Storyboard Layer 0 (Background)
//Storyboard Layer 1 (Fail)
//Storyboard Layer 2 (Pass)
//Storyboard Layer 3 (Foreground)
//Storyboard Sound Samples

[TimingPoints]
3298.50989818573,300,4,2,1,40,1,0
75298,-100,4,2,1,40,0,1
84823,-100,4,2,1,40,0,0

[HitObjects]
320,192,1798,128,0,3298:0:0:0:0:
64,192,3298,128,0,3598:0:0:0:0:
448,192,3298,1,8,0:0:0:0:
320,192,3898,128,8,4198:0:0:0:0:
192,192,3898,1,0,0:0:0:0:
64,192,4348,1,8,0:0:0:0:
192,192,4498,128,8,4798:0:0:0:0:
448,192,4498,1,0,0:0:0:0:
320,192,4798,1,8,0:0:0:0:
64,192,5098,128,8,5398:0:0:0:0:
448,192,5098,1,0,0:0:0:0:
448,192,5698,128,0,5998:0:0:0:0:
192,192,5698,1,8,0:0:0:0:
64,192,6298,128,0,6598:0:0:0:0:
320,192,6298,1,8,0:0:0:0:
320,192,6748,1,8,0:0:0:0:
448,192,6898,128,0,7198:0:0:0:0:
64,192,6898,1,8,0:0:0:0:
192,192,7198,1,8,0:0:0:0:
320,192,7498,128,0,8098:0:0:0:0:
448,192,7498,1,8,0:0:0:0:
64,192,7798,1,8,0:0:0:0:
192,192,8098,128,0,8398:0:0:0:0:
448,192,8098,1,8,0:0:0:0:
448,192,8698,128,8,8998:0:0:0:0:
64,192,8698,1,0,0:0:0:0:
320,192,9148,1,8,0:0:0:0:
192,192,9298,128,8,9598:0:0:0:0:
64,192,9298,1,0,0:0:0:0:
320,192,9598,1,8,0:0:0:0:
448,192,9898,128,8,10198:0:0:0:0:
64,192,9898,1,0,0:0:0:0:
64,192,10498,128,0,10798:0:0:0:0:
320,192,10498,1,8,0:0:0:0:
448,192,11098,128,8,11398:0:0:0:0:
192,192,11098,1,0,0:0:0:0:
192,192,11548,1,8,0:0:0:0:
64,192,11698,128,8,11998:0:0:0:0:
448,192,11698,1,0,0:0:0:0:
448,192,12298,128,8,12898:0:0:0:0:
64,192,12298,1,0,0:0:0:0:
192,192,12448,1,8,0:0:0:0:
64,192,12748,1,8,0:0:0:0:
192,192,12898,128,2,13198:0:0:0:0:
320,192,12898,1,8,0:0:0:0:
320,192,13498,128,8,13798:0:0:0:0:
64,192,13498,1,0,0:0:0:0:
192,192,13948,1,8,0:0:0:0:
64,192,14098,128,8,14398:0:0:0:0:
448,192,14098,1,0,0:0:0:0:
320,192,14398,1,8,0:0:0:0:
192,192,14698,128,0,14998:0:0:0:0:
448,192,14698,1,8,0:0:0:0:
320,192,15298,128,8,15598:0:0:0:0:
64,192,15298,1,0,0:0:0:0:
64,192,15898,128,8,16198:0:0:0:0:
448,192,15898,1,0,0:0:0:0:
192,192,16348,1,8,0:0:0:0:
320,192,16498,128,8,16798:0:0:0:0:
64,192,16498,1,0,0:0:0:0:
192,192,16798,1,8,0:0:0:0:
448,192,17098,128,0,17698:0:0:0:0:
320,192,17098,1,8,0:0:0:0:
64,192,17398,1,8,0:0:0:0:
192,192,17698,128,8,17998:0:0:0:0:
320,192,17698,1,0,0:0:0:0:
64,192,18298,128,0,18598:0:0:0:0:
448,192,18298,1,8,0:0:0:0:
192,192,18748,1,8,0:0:0:0:
320,192,18898,128,0,19198:0:0:0:0:
64,192,18898,1,8,0:0:0:0:
448,192,19198,1,8,0:0:0:0:
320,192,19498,128,0,19798:0:0:0:0:
192,192,19498,1,8,0:0:0:0:
64,192,20098,128,8,20398:0:0:0:0:
448,192,20098,1,0,0:0:0:0:
448,192,20698,128,8,20998:0:0:0:0:
192,192,21148,1,8,0:0:0:0:
64,192,21298,128,0,21898:0:0:0:0:
448,192,21298,1,8,0:0:0:0:
320,192,21598,1,8,0:0:0:0:
192,192,21898,128,4,22498:0:0:0:0:
320,192,22198,1,4,0:0:0:0:
448,192,22648,128,4,23548:0:0:0:0:
320,192,23548,1,0,0:0:0:0:
192,192,23698,1,2,0:0:0:0:
64,192,23848,1,0,0:0:0:0:
320,192,23998,1,2,0:0:0:0:
448,192,24148,1,0,0:0:0:0:
192,192,24298,1,2,0:0:0:0:
320,192,24448,1,0,0:0:0:0:
64,192,24598,1,2,0:0:0:0:
192,192,24748,1,0,0:0:0:0:
320,192,24898,1,2,0:0:0:0:
448,192,24898,1,8,0:0:0:0:
192,192,25048,1,8,0:0:0:0:
64,192,25198,1,8,0:0:0:0:
192,192,25348,1,8,0:0:0:0:
320,192,25348,1,0,0:0:0:0:
448,192,25648,1,0,0:0:0:0:
64,192,25648,1,8,0:0:0:0:
320,192,25798,1,2,0:0:0:0:
64,192,26098,1,0,0:0:0:0:
448,192,26098,128,8,26998:0:0:0:0:
192,192,26248,1,8,0:0:0:0:
320,192,26398,1,8,0:0:0:0:
64,192,26548,1,8,0:0:0:0:
64,192,26848,1,8,0:0:0:0:
320,192,26998,1,2,0:0:0:0:
64,192,27298,128,8,28198:0:0:0:0:
448,192,27298,1,2,0:0:0:0:
448,192,27598,1,0,0:0:0:0:
320,192,27598,1,8,0:0:0:0:
192,192,27748,1,8,0:0:0:0:
448,192,28048,1,8,0:0:0:0:
192,192,28198,1,0,0:0:0:0:
320,192,28198,1,8,0:0:0:0:
64,192,28498,1,8,0:0:0:0:
448,192,28498,1,2,0:0:0:0:
192,192,28648,1,0,0:0:0:0:
320,192,28798,1,8,0:0:0:0:
448,192,28948,1,8,0:0:0:0:
64,192,28948,1,0,0:0:0:0:
320,192,29098,1,0,0:0:0:0:
192,192,29248,1,8,0:0:0:0:
64,192,29398,1,8,0:0:0:0:
448,192,29398,1,0,0:0:0:0:
320,192,29698,1,2,0:2:0:0:
64,192,29698,1,8,0:0:0:0:
192,192,29848,1,0,0:0:0:0:
320,192,29998,1,8,0:0:0:0:
448,192,30148,1,0,0:0:0:0:
192,192,30148,1,8,0:0:0:0:
64,192,30298,1,0,0:0:0:0:
192,192,30448,1,8,0:0:0:0:
64,192,30598,1,0,0:0:0:0:
320,192,30598,1,8,0:0:0:0:
448,192,30898,1,8,0:0:0:0:
192,192,30898,1,2,0:2:0:0:
64,192,31048,1,0,0:0:0:0:
192,192,31198,1,8,0:0:0:0:
448,192,31348,1,8,0:0:0:0:
320,192,31348,1,2,0:2:0:0:
192,192,31498,1,2,0:2:0:0:
320,192,31648,1,2,0:2:0:0:
448,192,31648,1,8,0:0:0:0:
192,192,31798,1,2,0:2:0:0:
64,192,31948,1,2,0:2:0:0:
192,192,32098,128,8,32998:0:0:0:0:
448,192,32398,1,0,0:0:0:0:
320,192,32398,1,8,0:0:0:0:
64,192,32548,1,8,0:0:0:0:
64,192,32848,1,8,0:0:0:0:
320,192,32998,1,8,0:0:0:0:
448,192,32998,1,0,0:0:0:0:
64,192,33298,1,8,0:0:0:0:
448,192,33298,1,2,0:0:0:0:
320,192,33448,1,0,0:0:0:0:
192,192,33598,1,8,0:0:0:0:
448,192,33748,1,0,0:0:0:0:
320,192,33748,1,8,0:0:0:0:
192,192,33898,1,0,0:0:0:0:
320,192,34048,1,8,0:0:0:0:
64,192,34198,1,8,0:0:0:0:
192,192,34198,1,2,0:0:0:0:
448,192,34498,1,8,0:0:0:0:
192,192,34498,1,2,0:0:0:0:
320,192,34648,1,0,0:0:0:0:
64,192,34798,1,0,0:0:0:0:
192,192,34948,1,8,0:0:0:0:
448,192,34948,1,0,0:0:0:0:
320,192,35098,1,0,0:0:0:0:
64,192,35248,1,8,0:0:0:0:
192,192,35398,1,8,0:0:0:0:
448,192,35398,1,0,0:0:0:0:
64,192,35698,128,8,36298:0:0:0:0:
320,192,35698,1,2,0:0:0:0:
448,192,35998,1,2,0:0:0:0:
192,192,35998,1,8,0:0:0:0:
320,192,36298,1,8,0:0:0:0:
448,192,36448,1,2,0:0:0:0:
320,192,36598,128,0,36898:0:0:0:0:
64,192,36898,128,8,37798:0:0:0:0:
192,192,36898,1,2,0:0:0:0:
192,192,37198,1,8,0:0:0:0:
320,192,37198,1,0,0:0:0:0:
448,192,37348,1,8,0:0:0:0:
448,192,37648,1,8,0:0:0:0:
320,192,37798,1,8,0:0:0:0:
192,192,37798,1,0,0:0:0:0:
448,192,38098,1,8,0:0:0:0:
192,192,38098,1,2,0:0:0:0:
64,192,38248,1,0,0:0:0:0:
192,192,38398,1,8,0:0:0:0:
64,192,38548,1,0,0:0:0:0:
448,192,38548,1,8,0:0:0:0:
320,192,38698,1,0,0:0:0:0:
192,192,38848,1,8,0:0:0:0:
64,192,38998,1,8,0:0:0:0:
448,192,38998,1,0,0:0:0:0:
192,192,39148,1,8,0:0:0:0:
448,192,39298,1,2,0:0:0:0:
320,192,39298,1,8,0:0:0:0:
192,192,39448,1,0,0:0:0:0:
448,192,39598,1,8,0:0:0:0:
64,192,39748,1,0,0:0:0:0:
320,192,39748,1,8,0:0:0:0:
192,192,39898,1,0,0:0:0:0:
320,192,40048,1,8,0:0:0:0:
64,192,40198,1,0,0:0:0:0:
448,192,40198,1,8,0:0:0:0:
192,192,40498,1,2,0:0:0:0:
64,192,40498,1,8,0:0:0:0:
320,192,40648,1,0,0:0:0:0:
448,192,40798,1,8,0:0:0:0:
192,192,40948,1,0,0:0:0:0:
320,192,40948,1,8,0:0:0:0:
64,192,41098,1,0,0:0:0:0:
192,192,41248,1,0,0:0:0:0:
320,192,41248,1,8,0:0:0:0:
448,192,41398,1,8,0:0:0:0:
320,192,41548,1,8,0:0:0:0:
448,192,41698,128,8,42598:0:0:0:0:
192,192,41698,1,2,0:0:0:0:
64,192,41998,1,0,0:0:0:0:
320,192,41998,1,8,0:0:0:0:
192,192,42148,1,8,0:0:0:0:
192,192,42448,1,8,0:0:0:0:
64,192,42598,1,8,0:0:0:0:
320,192,42598,1,0,0:0:0:0:
64,192,42898,1,8,0:0:0:0:
320,192,42898,1,2,0:0:0:0:
448,192,43048,1,0,0:0:0:0:
320,192,43198,1,8,0:0:0:0:
64,192,43348,1,0,0:0:0:0:
448,192,43348,1,8,0:0:0:0:
192,192,43498,1,0,0:0:0:0:
320,192,43648,1,8,0:0:0:0:
64,192,43798,1,0,0:0:0:0:
448,192,43798,1,8,0:0:0:0:
192,192,43948,1,8,0:0:0:0:
64,192,44098,1,8,0:0:0:0:
448,192,44098,1,2,0:0:0:0:
320,192,44248,1,0,0:0:0:0:
192,192,44398,1,8,0:0:0:0:
64,192,44548,1,0,0:0:0:0:
448,192,44548,1,8,0:0:0:0:
320,192,44698,1,0,0:0:0:0:
192,192,44848,1,8,0:0:0:0:
64,192,44998,1,0,0:0:0:0:
448,192,44998,1,8,0:0:0:0:
192,192,45298,1,8,0:0:0:0:
320,192,45298,1,2,0:0:0:0:
64,192,45448,1,0,0:0:0:0:
448,192,45598,128,0,45898:0:0:0:0:
320,192,45898,1,0,0:0:0:0:
192,192,46048,1,2,0:0:0:0:
64,192,46198,128,0,46498:0:0:0:0:
192,192,46498,1,8,0:0:0:0:
448,192,46648,128,4,46798:0:0:0:0:
320,192,46798,1,8,0:0:0:0:
64,192,46948,128,4,47098:0:0:0:0:
192,192,47098,1,8,0:0:0:0:
448,192,47248,128,4,47398:0:0:0:0:
320,192,47398,1,8,0:0:0:0:
64,192,47548,128,4,47698:0:0:0:0:
192,192,47698,1,8,0:0:0:0:
448,192,47848,1,2,0:0:0:0:
320,192,47998,1,8,0:0:0:0:
192,192,47998,1,0,0:0:0:0:
64,192,48148,1,2,0:0:0:0:
192,192,48298,1,0,0:0:0:0:
320,192,48298,1,8,0:0:0:0:
448,192,48448,1,2,0:0:0:0:
64,192,48598,128,8,48898:0:0:0:0:
320,192,48748,1,8,0:0:0:0:
448,192,48898,1,8,0:0:0:0:
192,192,49048,128,4,49198:0:0:0:0:
448,192,49198,1,8,0:0:0:0:
320,192,49348,128,4,49498:0:0:0:0:
64,192,49498,1,8,0:0:0:0:
192,192,49648,128,4,49798:0:0:0:0:
448,192,49798,1,8,0:0:0:0:
320,192,49948,128,4,50098:0:0:0:0:
64,192,50098,1,8,0:0:0:0:
192,192,50248,1,2,0:0:0:0:
448,192,50398,1,8,0:0:0:0:
64,192,50398,1,0,0:0:0:0:
320,192,50548,1,2,0:0:0:0:
64,192,50698,1,0,0:0:0:0:
448,192,50698,1,8,0:0:0:0:
192,192,50848,1,2,0:0:0:0:
64,192,50998,128,8,51298:0:0:0:0:
320,192,51148,1,8,0:0:0:0:
448,192,51298,1,8,0:0:0:0:
320,192,51448,128,4,51598:0:0:0:0:
192,192,51598,1,8,0:0:0:0:
64,192,51748,128,4,51898:0:0:0:0:
320,192,51898,1,8,0:0:0:0:
448,192,52048,128,4,52198:0:0:0:0:
64,192,52198,1,8,0:0:0:0:
192,192,52348,128,4,52498:0:0:0:0:
320,192,52498,1,8,0:0:0:0:
448,192,52648,1,2,0:0:0:0:
192,192,52798,1,8,0:0:0:0:
64,192,52798,1,0,0:0:0:0:
448,192,52948,1,2,0:0:0:0:
320,192,53098,1,8,0:0:0:0:
64,192,53098,1,0,0:0:0:0:
192,192,53248,1,2,0:0:0:0:
448,192,53398,128,8,53698:0:0:0:0:
192,192,53548,1,8,0:0:0:0:
320,192,53698,1,8,0:0:0:0:
192,192,53848,1,8,0:0:0:0:
320,192,53998,1,2,0:0:0:0:
64,192,53998,1,8,0:0:0:0:
448,192,54148,128,8,55498:0:0:0:0:
192,192,54298,1,8,0:0:0:0:
320,192,54448,1,0,0:0:0:0:
64,192,54598,1,8,0:0:0:0:
320,192,54748,1,0,0:0:0:0:
192,192,54898,1,8,0:0:0:0:
64,192,55048,1,0,0:0:0:0:
320,192,55198,1,8,0:0:0:0:
192,192,55348,1,0,0:0:0:0:
64,192,55498,1,8,0:0:0:0:
320,192,55498,1,0,0:0:0:0:
192,192,55723,1,8,0:0:0:0:
320,192,55723,1,0,0:0:0:0:
64,192,55948,1,8,0:0:0:0:
448,192,55948,1,0,0:0:0:0:
192,192,56098,1,2,0:0:0:0:
320,192,56098,1,8,0:0:0:0:
448,192,56248,128,4,56398:0:0:0:0:
192,192,56398,1,8,0:0:0:0:
320,192,56548,128,4,56698:0:0:0:0:
64,192,56698,1,8,0:0:0:0:
192,192,56848,128,4,56998:0:0:0:0:
320,192,56998,1,8,0:0:0:0:
64,192,57148,128,4,57298:0:0:0:0:
448,192,57298,1,8,0:0:0:0:
320,192,57448,1,2,0:0:0:0:
192,192,57598,1,8,0:0:0:0:
448,192,57598,1,0,0:0:0:0:
64,192,57748,1,2,0:0:0:0:
192,192,57898,1,8,0:0:0:0:
448,192,57898,1,0,0:0:0:0:
320,192,58048,1,2,0:0:0:0:
64,192,58198,128,8,58498:0:0:0:0:
320,192,58348,1,8,0:0:0:0:
192,192,58498,1,8,0:0:0:0:
448,192,58648,128,4,58798:0:0:0:0:
320,192,58798,1,8,0:0:0:0:
64,192,58948,128,4,59098:0:0:0:0:
192,192,59098,1,8,0:0:0:0:
320,192,59248,128,4,59398:0:0:0:0:
448,192,59398,1,8,0:0:0:0:
192,192,59548,128,4,59698:0:0:0:0:
64,192,59698,1,8,0:0:0:0:
320,192,59848,1,2,0:0:0:0:
64,192,59998,1,0,0:0:0:0:
448,192,59998,1,8,0:0:0:0:
192,192,60148,1,2,0:2:0:0:
320,192,60298,1,8,0:0:0:0:
64,192,60298,1,0,0:0:0:0:
448,192,60448,1,8,0:0:0:0:
320,192,60598,128,8,60898:0:0:0:0:
192,192,60748,1,8,0:0:0:0:
64,192,60898,1,8,0:2:0:0:
192,192,61048,128,4,61198:0:0:0:0:
320,192,61198,1,8,0:0:0:0:
448,192,61348,128,4,61498:0:0:0:0:
192,192,61498,1,8,0:0:0:0:
64,192,61648,128,4,61798:0:0:0:0:
448,192,61798,1,8,0:0:0:0:
320,192,61948,128,4,62098:0:0:0:0:
64,192,62098,1,8,0:0:0:0:
192,192,62248,1,2,0:0:0:0:
448,192,62398,1,0,0:0:0:0:
320,192,62398,1,8,0:0:0:0:
192,192,62548,1,2,0:0:0:0:
320,192,62698,1,8,0:0:0:0:
64,192,62698,128,0,62998:0:0:0:0:
448,192,62848,1,2,0:0:0:0:
320,192,62998,128,8,63298:0:0:0:0:
192,192,63148,1,8,0:0:0:0:
64,192,63298,1,8,0:0:0:0:
448,192,63448,1,8,0:0:0:0:
320,192,63598,1,8,0:0:0:0:
192,192,63598,1,0,0:0:0:0:
64,192,63748,1,8,0:0:0:0:
448,192,63898,128,0,65098:0:0:0:0:
192,192,63898,1,8,0:0:0:0:
320,192,64048,1,8,0:0:0:0:
64,192,64198,1,8,0:0:0:0:
192,192,64348,1,0,0:0:0:0:
320,192,64498,1,8,0:0:0:0:
192,192,64648,1,0,0:0:0:0:
64,192,64798,1,8,0:0:0:0:
192,192,64948,1,0,0:0:0:0:
320,192,65098,1,8,0:0:0:0:
192,192,65323,1,8,0:0:0:0:
320,192,65323,1,0,0:0:0:0:
64,192,65548,1,8,0:0:0:0:
448,192,65548,1,0,0:0:0:0:
320,192,65698,128,0,68098:0:0:0:0:
192,192,65698,128,8,68098:0:0:0:0:
448,192,68098,128,4,68398:0:0:0:0:
192,192,68398,128,4,68698:0:0:0:0:
320,192,68698,128,4,68998:0:0:0:0:
64,192,68998,128,4,69298:0:0:0:0:
448,192,69298,128,4,69598:0:0:0:0:
320,192,69598,128,4,69898:0:0:0:0:
64,192,69898,128,4,70198:0:0:0:0:
192,192,70198,128,4,70498:0:0:0:0:
320,192,70498,128,2,70798:0:0:0:0:
448,192,70798,128,2,71098:0:0:0:0:
192,192,71098,128,2,71398:0:0:0:0:
64,192,71398,128,2,71698:0:0:0:0:
320,192,71698,128,2,71998:0:0:0:0:
192,192,71998,128,2,72298:0:0:0:0:
448,192,72298,128,2,72598:0:0:0:0:
64,192,72298,128,0,72898:0:0:0:0:
320,192,72598,128,2,72898:0:0:0:0:
448,192,72898,128,0,74998:0:0:0:0:
192,192,72898,128,2,73198:0:0:0:0:
64,192,73198,128,2,73498:0:0:0:0:
320,192,73498,128,2,73798:0:0:0:0:
192,192,73798,128,2,74098:0:0:0:0:
64,192,74098,128,2,74398:0:0:0:0:
320,192,74398,1,2,0:0:0:0:
192,192,74548,1,2,0:0:0:0:
64,192,74698,128,2,74998:0:0:0:0:
320,192,74998,1,0,0:0:0:0:
192,192,75298,1,2,0:0:0:0:
320,192,75298,128,8,75898:0:0:0:0:
64,192,75598,1,2,0:0:0:0:
192,192,75898,1,2,0:0:0:0:
448,192,75898,1,0,0:0:0:0:
64,192,76198,128,2,76498:0:0:0:0:
192,192,76498,128,8,77098:0:0:0:0:
448,192,76498,1,2,0:0:0:0:
448,192,76798,1,2,0:0:0:0:
320,192,76948,1,2,0:0:0:0:
64,192,77098,1,2,0:0:0:0:
320,192,77248,128,2,77548:0:0:0:0:
192,192,77548,1,2,0:0:0:0:
64,192,77698,128,8,78298:0:0:0:0:
448,192,77698,1,2,0:0:0:0:
192,192,77998,1,2,0:0:0:0:
448,192,78298,1,2,0:0:0:0:
320,192,78448,1,2,0:0:0:0:
192,192,78598,128,2,78898:0:0:0:0:
448,192,78898,128,8,79498:0:0:0:0:
64,192,78898,1,2,0:0:0:0:
64,192,79198,1,2,0:0:0:0:
192,192,79348,1,2,0:0:0:0:
320,192,79498,1,2,0:0:0:0:
64,192,79648,128,2,80098:0:0:0:0:
448,192,79948,1,2,0:0:0:0:
192,192,80098,128,8,80698:0:0:0:0:
320,192,80098,1,2,0:0:0:0:
448,192,80398,1,2,0:0:0:0:
64,192,80698,1,2,0:0:0:0:
448,192,80848,1,2,0:0:0:0:
192,192,80998,128,2,81298:0:0:0:0:
320,192,81298,128,8,81898:0:0:0:0:
64,192,81298,1,2,0:0:0:0:
448,192,81598,1,2,0:0:0:0:
192,192,81748,1,2,0:0:0:0:
64,192,81898,128,4,82198:0:0:0:0:
448,192,82198,128,4,82498:0:0:0:0:
64,192,82498,1,8,0:0:0:0:
320,192,82698,1,4,0:0:0:0:
192,192,82898,1,4,0:0:0:0:
448,192,83098,1,4,0:0:0:0:
320,192,83298,1,4,0:0:0:0:
192,192,83498,1,4,0:0:0:0:
64,192,83698,1,8,0:0:0:0:
320,192,83848,1,0,0:0:0:0:
192,192,83998,1,0,0:0:0:0:
448,192,84148,1,0,0:0:0:0:
320,192,84298,1,4,0:0:0:0:
192,192,84448,1,2,0:0:0:0:
64,192,84598,128,2,84898:0:0:0:0:
448,192,84898,1,8,0:0:0:0:
320,192,85048,128,4,85948:0:0:0:0:
448,192,85948,1,0,0:0:0:0:
192,192,86098,1,2,0:0:0:0:
64,192,86248,1,0,0:0:0:0:
320,192,86398,1,2,0:0:0:0:
448,192,86548,1,0,0:0:0:0:
192,192,86698,1,2,0:0:0:0:
64,192,86848,1,0,0:0:0:0:
320,192,86998,1,2,0:0:0:0:
448,192,87148,1,0,0:0:0:0:
192,192,87298,1,2,0:0:0:0:
64,192,87298,1,8,0:0:0:0:
448,192,87448,1,8,0:0:0:0:
320,192,87598,1,8,0:0:0:0:
64,192,87598,1,0,0:0:0:0:
192,192,87748,1,8,0:0:0:0:
320,192,88048,1,8,0:0:0:0:
64,192,88198,1,0,0:0:0:0:
448,192,88198,1,2,0:0:0:0:
192,192,88498,128,8,89698:0:0:0:0:
320,192,88498,1,0,0:0:0:0:
64,192,88648,1,8,0:0:0:0:
448,192,88798,1,8,0:0:0:0:
320,192,88948,1,8,0:0:0:0:
64,192,89248,1,8,0:0:0:0:
320,192,89398,1,2,0:0:0:0:
448,192,89698,1,0,0:0:0:0:
320,192,89698,1,8,0:0:0:0:
64,192,89923,1,0,0:0:0:0:
192,192,90148,1,8,0:0:0:0:
448,192,90148,1,0,0:0:0:0:
64,192,90298,1,0,0:0:0:0:
320,192,90448,1,8,0:0:0:0:
192,192,90748,1,2,0:0:0:0:
320,192,90898,1,0,0:0:0:0:
64,192,90898,1,8,0:0:0:0:
448,192,91123,1,0,0:0:0:0:
64,192,91348,1,0,0:0:0:0:
320,192,91348,1,8,0:0:0:0:
192,192,91498,1,0,0:0:0:0:
448,192,91648,1,8,0:0:0:0:
192,192,91948,1,8,0:0:0:0:
320,192,92098,1,8,0:0:0:0:
448,192,92098,1,0,0:0:0:0:
64,192,92398,128,8,92698:0:0:0:0:
192,192,92548,1,8,0:0:0:0:
320,192,92698,128,0,92998:0:0:0:0:
448,192,92848,1,8,0:0:0:0:
192,192,92998,128,8,93298:0:0:0:0:
64,192,93298,1,8,0:0:0:0:
448,192,93598,128,8,93898:0:0:0:0:
192,192,93748,1,8,0:0:0:0:
320,192,93898,128,0,94198:0:0:0:0:
64,192,94048,1,8,0:0:0:0:
192,192,94198,128,8,94498:0:0:0:0:
448,192,94498,1,0,0:0:0:0:
64,192,94498,1,8,0:0:0:0:
320,192,94723,1,0,0:0:0:0:
192,192,94948,1,8,0:0:0:0:
64,192,95098,128,0,95398:0:0:0:0:
320,192,95248,1,8,0:0:0:0:
192,192,95398,128,2,95698:0:0:0:0:
320,192,95698,128,8,95998:0:0:0:0:
448,192,95998,128,8,96298:0:0:0:0:
64,192,96148,1,8,0:0:0:0:
192,192,96298,128,0,96598:0:0:0:0:
320,192,96448,1,8,0:0:0:0:
64,192,96598,128,2,96898:0:0:0:0:
320,192,96898,128,8,97198:0:0:0:0:
448,192,97198,128,8,97498:0:0:0:0:
64,192,97348,1,8,0:0:0:0:
192,192,97498,128,0,97798:0:0:0:0:
320,192,97798,128,2,98098:0:0:0:0:
64,192,98098,128,8,98398:0:0:0:0:
448,192,98398,128,8,98698:0:0:0:0:
192,192,98698,1,0,0:0:0:0:
320,192,98698,1,8,0:0:0:0:
192,192,98923,1,0,0:0:0:0:
320,192,98923,1,8,0:0:0:0:
192,192,99148,1,0,0:0:0:0:
320,192,99148,1,8,0:0:0:0:
64,192,99298,1,0,0:0:0:0:
448,192,99298,1,8,0:0:0:0:
320,192,99448,1,4,0:0:0:0:
192,192,99598,1,8,0:0:0:0:
64,192,99748,1,8,0:0:0:0:
448,192,99898,1,0,0:0:0:0:
320,192,100048,1,8,0:0:0:0:
448,192,100198,1,8,0:0:0:0:
64,192,100348,1,4,0:0:0:0:
448,192,100498,1,8,0:0:0:0:
320,192,100648,1,4,0:0:0:0:
192,192,100798,1,8,0:0:0:0:
64,192,100948,1,8,0:0:0:0:
448,192,101098,1,0,0:0:0:0:
192,192,101248,1,8,0:0:0:0:
448,192,101398,1,8,0:0:0:0:
64,192,101548,1,8,0:0:0:0:
192,192,101698,1,8,0:0:0:0:
320,192,101848,1,4,0:0:0:0:
448,192,101998,1,8,0:0:0:0:
64,192,102148,1,8,0:0:0:0:
192,192,102298,1,0,0:0:0:0:
64,192,102448,1,8,0:0:0:0:
320,192,102598,1,8,0:0:0:0:
192,192,102898,1,8,0:0:0:0:
448,192,102898,1,0,0:0:0:0:
64,192,103048,1,4,0:0:0:0:
192,192,103198,1,8,0:0:0:0:
320,192,103348,1,4,0:0:0:0:
64,192,103348,1,8,0:0:0:0:
448,192,103498,1,0,0:0:0:0:
320,192,103648,1,8,0:0:0:0:
192,192,103798,1,8,0:0:0:0:
448,192,103798,1,0,0:0:0:0:
64,192,103948,1,4,0:0:0:0:
192,192,104098,128,8,104698:0:0:0:0:
320,192,104098,1,0,0:0:0:0:
448,192,104698,1,2,0:0:0:0:
64,192,104848,1,8,0:0:0:0:
192,192,104998,1,8,0:0:0:0:
320,192,105148,1,4,0:0:0:0:
448,192,105298,1,8,0:0:0:0:
192,192,105598,1,8,0:0:0:0:
448,192,105748,1,8,0:0:0:0:
64,192,106048,1,8,0:0:0:0:
320,192,106198,1,8,0:0:0:0:
192,192,106348,1,2,0:0:0:0:
448,192,106498,1,8,0:0:0:0:
320,192,106648,1,2,0:0:0:0:
192,192,106798,1,8,0:0:0:0:
64,192,106948,1,8,0:0:0:0:
448,192,107098,1,2,0:0:0:0:
192,192,107248,1,8,0:0:0:0:
64,192,107398,1,8,0:0:0:0:
320,192,107548,1,8,0:0:0:0:
192,192,107698,1,8,0:0:0:0:
64,192,107848,1,8,0:0:0:0:
192,192,107998,1,8,0:0:0:0:
448,192,107998,1,0,0:0:0:0:
320,192,108148,1,8,0:0:0:0:
192,192,108298,1,8,0:0:0:0:
448,192,108298,1,0,0:0:0:0:
64,192,108448,1,8,0:0:0:0:
192,192,108598,1,8,0:0:0:0:
448,192,108598,1,0,0:0:0:0:
320,192,108748,1,8,0:0:0:0:
64,192,108898,1,0,0:0:0:0:
448,192,108898,1,8,0:0:0:0:
64,192,109198,1,0,0:0:0:0:
320,192,109198,1,8,0:0:0:0:
192,192,109348,1,8,0:0:0:0:
320,192,109648,1,8,0:0:0:0:
192,192,109798,1,0,0:0:0:0:
448,192,109798,1,8,0:0:0:0:
64,192,109948,1,8,0:0:0:0:
320,192,110098,1,8,0:0:0:0:
192,192,110248,1,8,0:0:0:0:
64,192,110398,1,8,0:0:0:0:
448,192,110398,1,0,0:0:0:0:
192,192,110548,1,8,0:0:0:0:
320,192,110548,1,0,0:0:0:0:
64,192,110698,1,8,0:0:0:0:
448,192,110848,128,2,110998:0:0:0:0:
320,192,110998,128,8,111298:0:0:0:0:
64,192,111298,1,8,0:0:0:0:
192,192,111448,1,4,0:0:0:0:
320,192,111598,1,8,0:0:0:0:
448,192,111748,1,8,0:0:0:0:
320,192,111898,1,8,0:0:0:0:
192,192,112048,1,8,0:0:0:0:
64,192,112198,1,8,0:0:0:0:
192,192,112348,1,8,0:0:0:0:
320,192,112498,1,8,0:0:0:0:
64,192,112798,1,8,0:0:0:0:
448,192,112948,1,8,0:0:0:0:
192,192,113098,1,8,0:0:0:0:
320,192,113248,1,8,0:0:0:0:
64,192,113398,1,8,0:0:0:0:
448,192,113398,1,0,0:0:0:0:
320,192,113548,1,0,0:0:0:0:
192,192,113548,1,8,0:0:0:0:
64,192,113698,1,8,0:0:0:0:
448,192,113698,1,0,0:0:0:0:
320,192,113848,1,0,0:0:0:0:
192,192,113848,1,8,0:0:0:0:
64,192,113998,1,8,0:0:0:0:
320,192,114148,128,8,114598:0:0:0:0:
64,192,114598,1,8,0:0:0:0:
448,192,114748,1,8,0:0:0:0:
320,192,114898,1,8,0:0:0:0:
192,192,114898,1,0,0:0:0:0:
448,192,115123,128,4,117298:0:0:0:0:
64,192,115123,128,0,117298:0:0:0:0:
