osu file format v6

[General]
AudioFilename: Naruto_-_9th_Opening_-_Yura_Yura.mp3
AudioLeadIn: 0
PreviewTime: -1
Countdown: 1
SampleSet: Normal
StackLeniency: 0.6
Mode: 0
LetterboxInBreaks: 1

[Editor]
DistanceSpacing: 0.800000011920929
BeatDivisor: 3
GridSize: 32

[Metadata]
Title:yurayura
Artist:naruto
Creator:bloo124
Version:Easy
Source:
Tags:naruto

[Difficulty]
HPDrainRate:6
CircleSize:4
OverallDifficulty:6
SliderMultiplier:1.2
SliderTickRate:3

[Events]
//Background and Video events
0,0,"sasuke-and-naruto-dark[1].jpg"
//Break Periods
2,86866,87283
//Storyboard Layer 0 (Background)
//Storyboard Layer 1 (Fail)
//Storyboard Layer 2 (Pass)
//Storyboard Layer 3 (Foreground)
//Storyboard Sound Samples
//Background Colour Transformations
3,100,163,162,255

[TimingPoints]
0,1000,4,1,0,100,1,0

[HitObjects]
256,192,500,12,0,9000
64,64,13000,5,0
224,96,13500,1,0
320,64,14000,1,0
96,128,16500,1,0
192,128,17000,1,0
256,128,17500,1,0
128,32,19500,1,0
224,64,20000,1,0
320,64,20500,1,0
64,192,22500,1,0
160,192,23000,1,0
256,192,23500,1,0
352,192,24000,1,0
384,192,24500,1,0
160,128,27000,1,0
256,128,27500,1,0
96,160,31000,1,0
224,128,31500,1,0
128,96,34000,1,0
224,128,35500,1,0
352,128,37000,1,0
96,192,38500,1,0
160,64,40500,1,0
320,96,41000,1,0
96,160,42500,1,0
288,160,44000,1,0
384,96,45500,1,0
96,64,47500,1,0
64,160,50000,1,0
256,192,51500,1,0
96,160,54666,1,0
128,160,55000,1,0
192,160,55333,1,0
256,160,56000,1,0
96,128,57666,1,0
256,96,58666,1,0
320,128,59333,1,0
128,192,60333,1,0
192,224,61000,1,0
352,224,62000,1,0
352,160,62666,1,0
224,128,63333,1,0
64,96,64333,1,0
96,128,64666,1,0
256,128,64999,1,0
288,96,65666,1,0
384,128,66000,1,0
384,160,66333,1,0
288,192,66666,1,0
160,192,67000,1,0
64,224,67666,1,0
64,96,68000,1,0
192,96,68333,1,0
256,128,69000,1,0
352,96,69333,1,0
416,128,69666,1,0
352,224,70666,1,0
192,192,72000,1,0
96,128,74000,1,0
192,64,75333,1,0
256,96,77000,1,0
352,96,77333,1,0
416,192,77666,1,0
352,224,78333,1,0
288,224,78666,1,0
160,64,80333,1,0
128,160,81000,1,0
192,224,81666,1,0
288,192,83333,1,0
416,128,84333,1,0
320,96,85000,1,0
160,96,85666,1,0
64,128,86666,1,0
160,192,88333,5,0
