osu file format v7

[General]
AudioFilename: fragments (cut).mp3
AudioLeadIn: 0
PreviewTime: 87885
Countdown: 0
SampleSet: Normal
StackLeniency: 0.3
Mode: 0
LetterboxInBreaks: 1

[Editor]
DistanceSpacing: 1.10000002384186
BeatDivisor: 4
GridSize: 8

[Metadata]
Title:Fragments
Artist:narco & capo
Creator:Shinxyn
Version:Hard
Source:Touhou
Tags:Nexy Mafiamaster necrofantasia yukari yakumo perfect cherry blossom phantasm unchained melody c76 tim vegas condor king Toho Kinema Kan

[Difficulty]
HPDrainRate:4
CircleSize:5
OverallDifficulty:7
SliderMultiplier:1.4
SliderTickRate:2

[Events]
//Background and Video events
Video,-1987,"PV.avi"
0,0,"yukari.jpg"
//Break Periods
2,74584,83797
//Storyboard Layer 0 (Background)
//Storyboard Layer 1 (Fail)
//Storyboard Layer 2 (Pass)
//Storyboard Layer 3 (Foreground)
//Storyboard Sound Samples
//Background Colour Transformations
3,100,163,162,255

[TimingPoints]
14385,375,4,1,0,40,1,0
14572,-100,4,2,0,60,0,0
17010,-100,4,2,2,60,0,0
17385,-100,4,2,0,60,0,0
20010,-100,4,2,2,60,0,0
20385,-100,4,2,0,60,0,0
21510,-100,4,2,2,60,0,0
21885,-100,4,2,0,60,0,0
22260,-100,4,2,2,60,0,0
22635,-100,4,2,0,60,0,0
23760,-100,4,2,2,60,0,0
24135,-100,4,2,0,60,0,0
24510,-100,4,2,2,60,0,0
25260,-100,4,2,0,60,0,0
27510,-100,4,2,2,60,0,0
27885,-100,4,2,0,60,0,0
29760,-100,4,2,2,60,0,0
30135,-100,4,2,0,60,0,0
33510,-100,4,2,2,60,0,0
33885,-100,4,2,0,60,0,0
34260,-100,4,2,2,60,0,0
34635,-100,4,2,0,60,0,0
36885,-100,4,2,2,60,0,0
37260,-100,4,2,0,60,0,0
38010,-100,4,2,2,60,0,0
38385,-100,4,2,0,60,0,0
40260,-100,4,2,2,60,0,0
40635,-100,4,2,0,60,0,0
41760,-100,4,2,2,60,0,0
42135,-100,4,2,0,60,0,0
42510,-100,4,2,2,60,0,0
42885,-100,4,2,0,60,0,0
43260,-100,4,2,2,60,0,0
43635,-100,4,2,0,60,0,0
49260,-100,4,2,2,60,0,0
49635,-100,4,2,0,60,0,0
51885,-100,4,2,2,60,0,0
52260,-100,4,2,0,60,0,0
52635,-100,4,2,2,60,0,0
53010,-100,4,2,0,60,0,0
55635,-100,4,2,2,60,0,0
56010,-100,4,2,0,60,0,0
57135,-100,4,2,2,60,0,0
57510,-100,4,2,0,60,0,0
57885,-100,4,2,2,60,0,0
58260,-100,4,2,0,60,0,0
60885,-100,4,2,2,60,0,0
61260,-100,4,2,0,60,0,0
62385,-100,4,2,2,60,0,0
62760,-100,4,2,0,60,0,0
63135,-100,4,2,2,60,0,0
63510,-100,4,2,0,60,0,0
63885,-100,4,2,2,60,0,0
64260,-100,4,2,0,60,0,0
64635,-100,4,2,2,60,0,0
65010,-100,4,2,0,60,0,0
65385,-100,4,2,2,60,0,0
65760,-100,4,2,0,60,0,0
67635,-100,4,2,2,60,0,0
68385,-100,4,2,0,60,0,0
69135,-100,4,2,2,60,0,0
69510,-100,4,2,0,60,0,0
71385,-100,4,2,2,60,0,0
71760,-100,4,2,0,60,0,0
72885,-100,4,2,2,60,0,0
73260,-100,4,2,0,60,0,0
73635,-100,4,2,2,60,0,0
74385,-100,4,2,0,60,0,0
86385,-200,4,2,0,60,0,0
87510,-100,4,2,0,60,0,0
94635,-100,4,2,2,60,0,0
95010,-100,4,2,0,60,0,0
95385,-100,4,2,2,60,0,0
95760,-100,4,2,0,60,0,0
96885,-100,4,2,2,60,0,0
97260,-100,4,2,0,60,0,0
97635,-100,4,2,2,60,0,0
98010,-100,4,2,0,60,0,0
98760,-100,4,2,2,60,0,0
99135,-100,4,2,0,60,0,0
99885,-100,4,2,2,60,0,0
100260,-100,4,2,0,60,0,0
100635,-100,4,2,2,60,0,0
101010,-100,4,2,0,60,0,0
102885,-100,4,2,2,60,0,0
103260,-100,4,2,0,60,0,0
103635,-100,4,2,2,60,0,0
104010,-100,4,2,0,60,0,0
104385,-100,4,2,2,60,0,0
104760,-100,4,2,0,60,0,0
108885,-100,4,2,2,60,0,0
109260,-100,4,2,0,60,0,0
109635,-100,4,2,2,60,0,0
110010,-100,4,2,0,60,0,0
110947,-100,4,1,2,60,0,0
111322,-100,4,2,0,60,0,0
111697,-100,4,1,2,40,0,0
112072,-100,4,2,0,60,0,0
112541,-100,4,1,2,40,0,0
112728,-100,4,2,0,60,0,0
113291,-100,4,1,2,40,0,0
113478,-100,4,2,0,60,0,0
114135,-100,4,2,2,60,0,0
114510,-100,4,2,0,60,0,0
114791,-100,4,2,0,60,0,0
114885,-100,4,1,2,40,0,0
114978,-100,4,2,2,60,0,0
115260,-100,4,2,0,60,0,0
115541,-100,4,1,2,40,0,0
115728,-100,4,2,0,60,0,0
116291,-100,4,1,2,40,0,0
116478,-100,4,2,0,60,0,0
117791,-100,4,1,2,40,0,0
117978,-100,4,2,0,60,0,0
119291,-100,4,1,2,40,0,0
119478,-100,4,2,0,60,0,0
120791,-100,4,1,2,40,0,0
120978,-100,4,2,0,60,0,0
121260,-100,4,2,2,60,0,0
121635,-100,4,2,0,60,0,0
122291,-100,4,1,2,50,0,0
122478,-100,4,2,0,60,0,0
123041,-100,4,1,2,50,0,0
123228,-100,4,2,0,60,0,0
123510,-100,4,2,2,60,0,0
123885,-100,4,1,2,50,0,0
124728,-100,4,2,0,60,0,0
124822,-100,4,2,2,60,0,0
125010,-100,4,2,0,60,0,0
126791,-100,4,1,2,50,0,0
127353,-100,4,2,0,60,0,0
127541,-100,4,1,2,50,0,0
127728,-100,4,2,0,60,0,0
128385,-100,4,2,2,60,0,0
128760,-100,4,2,0,60,0,0
129041,-100,4,1,2,60,0,0
129228,-100,4,2,0,60,0,0
129885,-100,4,2,2,60,0,0
130260,-100,4,2,0,60,0,0
132041,-100,4,1,2,40,0,0
132228,-100,4,2,0,60,0,0
133541,-100,4,1,2,50,0,0
133728,-100,4,2,0,60,0,0
134291,-100,4,1,2,50,0,0
134478,-100,4,2,0,60,0,0
135041,-100,4,1,2,50,0,0
135416,-100,4,2,0,60,0,0
135603,-100,4,1,2,50,0,0
135791,-100,4,2,0,60,0,0
140385,-100,4,2,2,60,0,0
140760,-100,4,2,0,60,0,0
141135,-100,4,2,2,60,0,0
141510,-100,4,2,0,60,0,0
141885,-100,4,2,2,60,0,0
142260,-100,4,2,0,60,0,0
146385,-100,4,2,2,60,0,0
146760,-100,4,2,0,60,0,0
147135,-100,4,2,2,60,0,0
147510,-100,4,2,0,60,0,0
147697,-100,4,2,0,10,0,0
149197,-100,4,2,0,0,0,0

[Colours]
Combo1 : 250,241,78
Combo2 : 124,252,124
Combo3 : 252,101,206
Combo4 : 253,166,87

[HitObjects]
368,192,14385,1,4
288,72,14760,2,0,B|208:72|208:72,1,70,0|2
224,144,15135,2,0,B|136:144|136:144,1,70
160,216,15510,2,0,B|72:216,1,70,0|2
368,192,16072,5,0
368,192,16260,1,0
288,312,16635,2,0,B|144:312|144:312,2,140
288,240,17572,1,0
288,240,17760,2,0,B|360:240|360:240,1,70,0|2
224,176,18135,2,0,B|152:176|152:176,1,70
288,112,18510,2,0,B|376:112|376:112,1,70,0|2
224,176,19072,5,0
224,176,19260,1,0
184,232,19447,1,2
184,232,19635,2,0,B|184:312|184:312,1,70
120,336,20010,2,0,B|120:184|120:184|120:176,1,140,0|4
80,64,20760,5,0
80,64,21135,2,0,B|4:114|122:137|30:192|30:192,2,140,0|0|0
208,120,22072,1,0
208,120,22260,2,0,B|192:160|192:160|224:200|224:200|200:240|200:240,2,140
328,56,23197,1,2
328,56,23385,2,0,B|392:120|256:120|360:192|360:192,2,140
456,120,24322,1,0
456,120,24510,2,0,B|448:176|448:176|488:184|488:184|496:248|496:248,2,140
408,56,25447,5,2
344,104,25635,1,0
392,168,25822,1,2
456,120,26010,1,0
408,56,26197,1,4
344,104,26385,6,0,B|192:104|192:104,1,140,4|8
128,104,26947,1,2
160,176,27135,2,0,B|16:176|16:176,2,140,0|8|0
200,240,28072,5,0
200,240,28260,1,8
272,272,28447,1,2
272,272,28635,1,0
344,304,28822,1,0
344,304,29010,2,0,B|400:232|400:232,1,70,8|2
352,184,29385,6,0,B|264:304|264:304,2,140,0|8|0
288,136,30322,1,0
208,136,30510,1,8
128,136,30697,1,2
48,136,30885,2,0,B|40:208|40:208|48:208,1,70
128,136,31260,2,0,B|144:64|144:64,1,70,8|2
208,136,31635,2,0,B|216:208|216:208|208:208,1,70
288,136,32010,2,0,B|304:64|304:64,1,70,8|2
376,56,32385,5,4
448,88,32572,1,0
456,168,32760,1,8
408,232,32947,1,2
328,224,33135,1,0
288,160,33322,1,0
368,144,33510,6,0,B|368:288|368:288,1,140,8|0
256,192,34072,1,0
144,284,34260,2,0,B|144:288|144:144,2,140,8|0|8
144,284,35197,5,2
144,284,35385,1,0
348,304,35760,1,8
348,304,35947,1,2
368,100,36322,1,0
368,100,36510,1,8
164,80,36885,2,0,B|120:216|120:216,1,140,0|8
192,240,37447,5,2
168,312,37635,1,0
96,288,37822,1,2
120,216,38010,2,0,B|164:80,1,140,8|4
320,80,38760,6,0,B|392:112|392:112,1,70,8|2
416,176,39135,2,0,B|400:248|400:248,1,70
352,304,39510,2,0,B|288:344|288:344,1,70,8|2
224,304,39885,1,0
272,240,40072,1,0
192,232,40260,2,0,B|48:232|48:232,2,140,8|0|8
112,96,41385,5,0
112,96,41572,1,2
112,96,41760,2,0,B|160:32|248:64|248:64,1,140,8|0
256,136,42322,1,0
256,136,42510,2,0,B|160:104|128:176|128:176,1,140,8|0
152,248,43072,1,0
152,248,43260,2,0,B|200:184|288:216|288:216,2,140,8|0|8
256,136,44385,5,4
256,136,44572,2,0,B|336:136|336:136,1,70,2|8
328,216,44947,1,0
256,248,45135,1,0
256,248,45322,2,0,B|176:192|176:192,1,70,2|8
176,136,45697,1,0
256,136,45885,1,0
336,136,46072,1,2
416,136,46260,1,8
496,136,46447,2,0,B|496:296|496:296|504:296,1,140,0|2
496,276,47010,1,8
320,272,47385,6,0,B|288:320|256:312|256:312,1,70,0|2
192,288,47760,2,0,B|96:264|152:160|152:160,1,140,8|0
176,112,48322,1,2
176,112,48510,1,8
240,72,48697,2,0,B|304:48|320:88|320:88,1,70,2|0
368,112,49072,1,2
368,112,49260,2,0,B|448:168|368:264|368:264,1,140,8|4
256,192,49822,5,2
144,272,50010,2,0,B|64:216|144:120|144:120,1,140,8|4
256,64,50760,5,8
256,64,51135,1,0
320,104,51322,1,2
256,144,51510,1,8
192,192,51697,1,0
192,192,51885,2,0,B|192:336|192:336,1,140,0|8
272,336,52447,1,0
272,336,52635,2,0,B|432:336|432:336,1,140,0|8
168,192,53385,5,0
168,192,53572,1,2
184,120,53760,2,0,B|256:112|256:112,1,70,8|0
264,192,54135,2,0,B|336:184|336:184,1,70,0|2
344,264,54510,2,0,B|424:256|424:256,1,70,8|0
424,336,54885,2,0,B|496:328|496:328,2,70,0|2|8
413,257,55447,1,0
413,257,55635,2,0,B|240:272|240:272,1,140,0|8
99,257,56385,5,4
99,257,56572,1,2
99,257,56760,2,0,B|272:272|272:272,2,140,8|0|8
56,192,57697,1,0
99,127,57885,2,0,B|272:112|272:112,2,140,0|8|0
112,304,59010,5,8
112,304,59197,1,2
184,336,59385,1,0
256,304,59572,1,2
328,336,59760,1,8
400,304,59947,1,0
400,304,60135,1,0
328,336,60322,5,2
328,336,60510,2,0,B|328:264|328:264,1,70,8|0
255,304,60885,2,0,B|255:164,1,140,0|8
224,96,61447,1,2
152,128,61635,1,8
184,200,61822,1,2
255,164,62010,1,8
224,96,62197,1,2
152,128,62385,6,0,B|0:128|0:128,1,140,4|8
360,192,63135,2,0,B|512:192|512:192,1,140,0|8
152,256,63885,2,0,B|0:256|0:256,1,140,0|8
360,320,64635,2,0,B|512:320|512:320,1,140,0|8
152,256,65385,6,0,B|0:256|0:256,2,140,0|8|0
224,224,66322,1,2
280,168,66510,1,8
280,168,66885,1,0
352,192,67072,1,2
384,264,67260,1,8
336,320,67447,1,0
296,256,67635,2,0,B|368:248|384:144|384:144,2,140,0|8|4
312,104,68760,6,0,B|248:64|248:64|184:112|184:112,2,140,2|0|8
368,160,69697,1,0
368,160,69885,1,0
344,248,70072,1,2
256,264,70260,1,8
256,264,70447,1,0
168,248,70635,1,0
144,160,70822,1,2
144,160,71010,1,8
256,264,71385,6,0,B|256:112|256:112,2,140,0|8|0
328,296,72322,1,2
328,296,72510,2,0,B|336:128|336:128,2,140,8|0|8
256,264,73447,1,2
184,296,73635,2,0,B|176:128|176:128,2,140,8|8|4
256,192,84697,12,4,85822
160,192,86385,6,0,B|272:120|272:272|360:184,1,210
350,193,87885,5,4
424,176,88072,1,2
424,176,88260,1,8
368,120,88447,2,0,B|352:88|352:88,2,35,0|0|0
256,192,88822,6,0,B|280:144,2,35,2|0|8
144,264,89197,6,0,B|160:296|160:296,2,35,0|0|0
72,240,89572,1,2
136,192,89760,1,8
208,208,89947,1,8
240,280,90134,2,0,B|256:352|200:352|200:352,1,70,0|2
152,352,90509,1,8
224,343,90697,5,0
296,328,90885,1,0
368,312,91072,2,0,B|400:272|400:272,2,35,2|0|8
256,192,91447,6,0,B|272:256,2,35,0|0|2
128,144,91822,6,0,B|88:168|88:168,2,35,2|0|8
98,73,92197,5,0
98,73,92385,2,0,B|184:72|184:72,1,70,0|2
416,136,92760,2,0,B|336:136|336:136,1,70,8|8
96,200,93135,2,0,B|176:200|176:200,1,70,0|2
416,264,93510,1,8
416,264,93697,2,0,B|336:264|336:264,1,70,0|4
96,328,94072,1,2
96,328,94260,6,0,B|240:328|240:328,2,140,8|0|8
152,264,95197,1,0
152,264,95385,2,0,B|304:264|304:264,2,140,0|8|0
96,200,96322,1,2
96,200,96510,2,0,B|248:200|248:200,2,140,8|0|8
152,136,97447,1,0
152,136,97635,2,0,B|304:136|304:136,2,140,0|8|0
96,72,98572,1,2
96,72,98760,2,0,B|240:72|240:72,1,140,8|0
304,40,99322,5,2
344,104,99510,1,8
272,136,99697,1,2
236,72,99885,2,0,B|160:128|224:200|224:200,1,140,4|8
272,136,100447,1,0
312,208,100635,2,0,B|388:152|324:80|324:80,1,140,0|8
272,136,101197,5,0
232,200,101385,1,0
232,200,101572,1,2
312,208,101760,1,8
312,208,101947,1,8
392,216,102135,1,0
392,216,102322,1,2
472,224,102510,1,8
472,224,102697,1,0
472,224,102885,6,0,B|432:368|432:368,1,140,0|8
296,336,103447,1,0
296,336,103635,2,0,B|160:296|160:296,1,140,0|8
192,160,104197,1,0
192,160,104385,2,0,B|248:24|248:24,1,140,0|8
368,120,104947,5,0
368,120,105135,2,0,B|448:144|448:144,1,70,0|2
184,80,105510,2,0,B|208:0|208:0,1,70,8|0
144,264,105885,2,0,B|64:240|64:240,1,70,4|2
328,304,106260,1,8
328,304,106447,2,0,B|304:384|304:384,1,70
368,120,106822,1,2
368,120,107010,6,0,B|232:56|232:56,1,140,8|0
256,192,107572,1,2
144,264,107760,2,0,B|280:328|280:328,1,140,8|0
256,192,108322,1,2
184,80,108510,6,0,B|120:216|120:216,2,140,8|0|8
328,304,109635,2,0,B|392:168|392:168,2,140,0|8|0
328,304,110760,5,12
144,264,111135,1,4
184,80,111510,1,12
368,120,111885,1,4
368,120,112072,5,2
368,120,112260,2,0,B|360:200|360:200,1,70,8|0
296,232,112635,2,0,B|280:152|280:152,1,70,0|2
224,112,113010,1,8
224,112,113197,2,0,B|192:176|192:176|200:176,1,70
144,232,113572,5,2
128,304,113760,1,8
56,328,113947,1,0
64,248,114135,6,0,B|128:96|128:96,1,140,0|8
256,192,114697,1,0
448,248,114885,2,0,B|384:96|384:96,1,140,0|8
320,136,115447,1,0
320,136,115635,1,0
256,192,115822,1,2
256,192,116010,1,8
192,248,116197,1,0
192,248,116385,1,0
128,296,116572,5,2
128,296,116760,2,0,B|64:248|152:192|48:168|48:168,1,140,8|0
160,72,117322,1,2
160,72,117510,6,0,B|208:96|208:96|192:144|192:144|232:168|232:168,1,140,8|0
280,296,118072,1,2
280,296,118260,2,0,B|368:240|248:208|352:184|352:184,1,140,8|0
424,72,118822,1,2
424,72,119010,6,0,B|424:112|424:112|480:144|480:144|464:192|464:192,1,140,8|0
384,296,119572,1,2
384,296,119760,2,0,B|304:272|408:184|304:184|304:184,1,140,8|0
232,72,120322,1,2
232,72,120510,6,0,B|208:112|208:112|240:144|240:144|184:176|184:176,1,140,8|0
120,288,121072,1,2
120,288,121260,2,0,B|48:240|144:200|48:160|48:160,1,140,8|0
48,96,121822,1,2
120,80,122010,1,8
144,152,122197,1,2
62,168,122385,1,0
48,96,122572,5,2
120,80,122760,1,8
144,152,122947,1,2
62,168,123135,1,0
48,96,123323,1,2
120,80,123510,6,0,B|272:56|272:56,1,140,8|0
272,136,124072,1,0
288,208,124260,2,0,B|440:168|440:168,2,140,0|0|8
272,136,125197,1,0
200,152,125385,1,0
136,192,125572,5,2
200,232,125760,1,8
272,248,125947,1,0
272,248,126135,2,0,B|272:320|272:320,1,70,0|2
200,232,126510,2,0,B|176:312|176:312,1,70,8|0
136,192,126885,2,0,B|64:192|64:192,1,70
200,152,127260,2,0,B|176:72|176:72,1,70,0|0
272,136,127635,2,0,B|272:64|272:64,1,70,0|2
328,192,128010,2,0,B|408:192|408:192,1,70,8|0
432,128,128385,6,0,B|504:200|416:280|416:280,1,140,0|8
392,192,128947,1,0
368,264,129135,1,0
288,264,129322,1,2
240,208,129510,1,8
272,136,129697,1,0
320,192,129885,6,0,B|240:152|184:200|184:200,1,140,4|8
72,120,130447,6,0,B|104:40|192:56|192:56,1,140,0|2
328,56,131010,1,8
328,56,131197,2,0,B|416:48|448:128,1,140,0|2
440,264,131760,2,0,B|408:344|320:328|320:328,1,140,8|0
184,328,132321,1,2
184,328,132509,2,0,B|96:336|64:256,1,140,8|0
232,232,133072,5,2
304,216,133259,1,8
288,144,133446,1,0
216,160,133634,1,0
232,232,133821,5,2
304,216,134009,1,8
288,144,134196,1,0
216,160,134384,1,0
208,264,134572,6,0,B|168:336|168:336,1,70,2|8
328,240,134946,2,0,B|400:280|400:280,1,70
304,120,135321,2,0,B|344:48|344:48,1,70,0|8
184,144,135697,2,0,B|112:104|112:104,1,70,0|4
304,120,136260,5,8
368,264,136635,1,0
368,264,136822,2,0,B|320:320|320:320,1,70,2|8
216,208,137385,5,0
88,296,137760,1,8
88,296,137947,2,0,B|64:224|64:224,1,70
136,208,138322,1,2
136,208,138510,1,8
288,248,138885,5,0
432,200,139260,2,0,B|464:128|464:128,1,70,8|0
460,136,139635,1,0
460,136,139822,1,2
460,136,140010,1,8
320,80,140385,6,0,B|160:48|160:48,1,140,0|8
296,152,141135,2,0,B|256:288|256:288,1,140,0|8
224,136,141885,2,0,B|88:96|88:96,1,140,4|8
120,248,142635,5,0
120,248,142822,1,2
192,288,143010,1,8
312,192,143385,5,0
400,320,143760,2,0,B|480:304|480:304,1,70,8|0
448,232,144135,1,0
448,232,144322,1,2
468,306,144510,1,8
336,224,144885,5,0
232,104,145260,1,8
232,104,145447,1,0
160,72,145635,1,0
160,72,145822,2,0,B|128:144|128:144,1,70,2|8
256,232,146385,6,0,B|392:304|392:304,1,140,0|8
296,168,147135,2,0,B|328:24|328:24,1,140,0|8
224,152,147885,6,0,B|96:216|96:216,1,140
256,232,148635,2,0,B|392:304|392:304,1,140
256,192,149197,12,0,150697
