osu file format v12

[General]
AudioFilename: velaciela.mp3
AudioLeadIn: 500
PreviewTime: 29363
Countdown: 0
SampleSet: Normal
StackLeniency: 0.7
Mode: 0
LetterboxInBreaks: 0

[Editor]
DistanceSpacing: 1.2
BeatDivisor: 6
GridSize: 8

[Metadata]
Title:Velaciela
TitleUnicode:Velaciela
Artist:naotyu-
ArtistUnicode:naotyu-
Creator:Jacob
Version:Heaven
Source:BMS
Tags:Pokie
BeatmapID:230467
BeatmapSetID:80414

[Difficulty]
HPDrainRate:7
CircleSize:5
OverallDifficulty:8
ApproachRate:9
SliderMultiplier:2.2
SliderTickRate:2

[Events]
//Background and Video events
0,0,"clouds.jpg",0,0
//Break Periods
//Storyboard Layer 0 (Background)
//Storyboard Layer 1 (Fail)
//Storyboard Layer 2 (Pass)
//Storyboard Layer 3 (Foreground)
//Storyboard Sound Samples
//Background Colour Transformations
3,100,163,162,255

[TimingPoints]
1885,387.096774193548,4,1,1,70,1,0
26659,-100,4,2,1,80,0,0
28014,-100,4,1,1,20,0,0
29368,-100,4,1,1,50,0,0
29755,-100,4,1,1,70,0,0
79304,-100,4,1,1,70,0,1
79401,-100,4,1,1,70,0,0
94788,-200,4,1,1,60,0,0
95562,-133.333333333333,4,1,1,60,0,0
96336,-100,4,1,1,60,0,0
99626,-80,4,1,1,60,0,0
100981,-100,4,1,1,60,0,0

[Colours]
Combo1 : 213,170,255
Combo2 : 106,106,255
Combo3 : 106,181,255

[HitObjects]
56,80,1885,1,4,0:0:0:0:
88,88,1981,1,0,0:0:0:0:
120,96,2078,1,0,0:0:0:0:
224,120,2272,1,8,0:0:0:0:
256,128,2368,1,0,0:0:0:0:
376,152,2562,1,0,0:0:0:0:
248,328,2755,1,0,0:0:0:0:
248,328,2852,2,0,P|272:312|288:288,1,55
256,224,3046,2,0,P|232:240|216:264,1,55,8|0,0:0|0:0,0:0:0:0:
168,384,3336,1,0,0:0:0:0:
32,192,4110,6,0,P|88:168|120:128,1,110,2|0,0:0|0:0,0:0:0:0:
128,64,4401,1,2,0:0:0:0:
456,280,4981,5,0,0:0:0:0:
456,280,5078,1,0,0:0:0:0:
456,280,5175,1,0,0:0:0:0:
408,160,5368,1,8,0:0:0:0:
408,160,5465,2,0,P|357:134|300:127,1,110
160,272,5852,2,0,L|144:328,2,55
128,216,6143,2,0,L|144:160,1,55,8|0,0:0|0:0,0:0:0:0:
168,32,6433,1,0,0:0:0:0:
416,192,7207,6,0,L|384:304,1,110,2|2,0:0|0:0,0:0:0:0:
24,168,8078,5,0,0:0:0:0:
48,152,8175,1,0,0:0:0:0:
72,136,8272,1,0,0:0:0:0:
184,200,8465,1,8,0:0:0:0:
208,216,8562,1,0,0:0:0:0:
312,136,8755,1,0,0:0:0:0:
344,336,8949,1,0,0:0:0:0:
344,336,9046,2,0,P|347:286|340:220,1,110,0|8,0:0|0:0,0:0:0:0:
282,196,9336,1,0,0:0:0:0:
216,72,9530,1,0,0:0:0:0:
48,272,10304,6,0,B|64:216|64:216|44:173|44:173|56:104,1,165,2|2,0:0|0:0,0:0:0:0:
456,136,11175,6,0,L|464:192,2,55
352,56,11562,1,8,0:0:0:0:
352,56,11659,1,0,0:0:0:0:
240,120,11852,1,0,0:0:0:0:
80,272,12046,1,0,0:0:0:0:
105,250,12143,1,0,0:0:0:0:
131,230,12239,1,0,0:0:0:0:
157,210,12336,1,8,0:0:0:0:
183,188,12433,2,0,P|238:183|287:206,1,110
272,272,12723,6,0,L|272:328,1,55,0|0,0:0|0:0,0:0:0:0:
352,256,12917,2,0,L|352:312,1,55,0|0,0:0|0:0,0:0:0:0:
432,272,13110,2,0,L|432:328,1,55,8|0,0:0|0:0,0:0:0:0:
512,256,13304,2,0,L|512:312,1,55,0|2,0:0|0:0,0:0:0:0:
512,184,13497,1,0,0:0:0:0:
508,151,13594,1,2,0:0:0:0:
495,120,13691,1,0,0:0:0:0:
475,93,13788,1,0,0:0:0:0:
449,72,13884,1,8,0:0:0:0:
418,60,13981,1,0,0:0:0:0:
385,53,14078,1,0,0:0:0:0:
351,53,14175,1,0,0:0:0:0:
318,59,14272,6,0,P|290:78|263:85,1,55,4|0,0:0|0:0,0:0:0:0:
200,88,14465,1,0,0:0:0:0:
72,48,14659,1,8,0:0:0:0:
72,48,14755,2,0,P|49:93|60:153,1,110
136,304,15143,2,0,L|111:243,2,55
200,304,15433,2,0,L|210:239,1,55,8|0,0:0|0:0,0:0:0:0:
256,128,15723,1,0,0:0:0:0:
464,272,16497,6,0,B|448:217|448:217|466:173|466:173|440:113,1,165,2|2,0:0|0:0,0:0:0:0:
72,48,17368,5,0,0:0:0:0:
72,48,17465,1,0,0:0:0:0:
72,48,17562,1,0,0:0:0:0:
40,176,17755,1,8,0:0:0:0:
40,176,17852,1,0,0:0:0:0:
72,304,18046,1,0,0:0:0:0:
312,328,18239,1,0,0:0:0:0:
288,304,18336,1,0,0:0:0:0:
264,280,18433,1,0,0:0:0:0:
240,256,18530,1,8,0:0:0:0:
216,232,18626,1,0,0:0:0:0:
120,136,18820,1,0,0:0:0:0:
408,48,19594,6,0,B|405:94|405:94|388:116|388:116|385:158,1,110,2|2,0:0|0:0,0:0:0:0:
96,304,20465,5,4,0:0:0:0:
128,312,20562,1,0,0:0:0:0:
160,320,20659,1,0,0:0:0:0:
280,272,20852,1,8,0:0:0:0:
248,264,20949,1,0,0:0:0:0:
120,232,21143,1,0,0:0:0:0:
200,128,21336,1,0,0:0:0:0:
232,136,21433,1,0,0:0:0:0:
264,144,21530,1,0,0:0:0:0:
296,152,21626,1,8,0:0:0:0:
328,160,21723,1,0,0:0:0:0:
456,184,21917,1,0,0:0:0:0:
456,184,22014,1,4,0:0:0:0:
194,55,22691,6,0,P|259:36|351:65,1,165,2|2,0:0|0:0,0:0:0:0:
40,320,23562,5,4,0:0:0:0:
72,312,23659,1,0,0:0:0:0:
104,304,23755,1,0,0:0:0:0:
262,266,23949,2,0,L|232:312,1,55,8|0,0:0|0:0,0:0:0:0:
384,311,24239,2,0,L|460:196,1,110,0|0,0:0|0:0,0:0:0:0:
472,160,24530,1,0,0:0:0:0:
472,160,24626,1,0,0:0:0:0:
472,160,24723,1,8,0:0:0:0:
472,160,24820,1,0,0:0:0:0:
408,48,25014,1,0,0:0:0:0:
408,48,25110,5,0,0:0:0:0:
422,77,25207,1,0,0:0:0:0:
427,109,25304,1,0,0:0:0:0:
418,141,25401,1,0,0:0:0:0:
400,168,25497,1,8,0:0:0:0:
373,187,25594,1,0,0:0:0:0:
339,186,25691,1,0,0:0:0:0:
310,169,25788,1,2,0:0:0:0:
297,138,25884,1,0,0:0:0:0:
270,118,25981,1,2,0:0:0:0:
237,108,26078,1,0,0:0:0:0:
203,108,26175,1,0,0:0:0:0:
170,114,26272,6,0,P|135:125|98:150,1,73.3333333333333,8|0,0:0|0:0,0:0:0:0:
94,237,26530,2,0,P|129:226|166:201,1,73.3333333333333,0|4,1:0|0:0,0:0:0:0:
234,349,28014,6,0,L|256:320,3,36.6666666666667
360,200,28401,1,0,0:0:0:0:
153,82,28594,2,0,P|208:60|264:68,1,110
288,79,28884,1,0,0:0:0:0:
320,96,28981,1,0,0:0:0:0:
352,112,29078,1,0,0:0:0:0:
376,128,29175,1,0,0:0:0:0:
424,312,29368,1,0,0:0:0:0:
408,280,29465,1,0,0:0:0:0:
376,280,29562,1,0,0:0:0:0:
352,256,29659,1,0,0:0:0:0:
320,264,29755,6,4,P|278:233|215:226,1,110,4|0,0:0|0:0,0:0:0:0:
193,287,30046,1,0,0:0:0:0:
193,287,30143,2,0,P|138:297|76:337,1,110
72,200,30530,2,0,P|112:144|96:112,1,110,2|0,0:0|0:0,0:0:0:0:
414,113,30917,2,0,P|400:144|440:200,1,110,8|0,0:0|0:0,0:0:0:0:
256,312,31304,5,0,0:0:0:0:
208,192,31497,1,0,0:0:0:0:
208,192,31594,1,0,0:0:0:0:
208,192,31691,1,8,0:0:0:0:
256,72,31884,2,0,P|313:80|360:56,1,110
416,32,32175,1,0,0:0:0:0:
416,32,32272,1,0,0:0:0:0:
440,272,32465,2,0,P|464:216|448:160,1,110,8|0,0:0|0:0,0:0:0:0:
392,320,32852,6,0,P|280:280|201:340,1,220,2|8,0:0|0:0,0:0:0:0:
64,360,33433,1,2,0:0:0:0:
96,232,33626,1,0,0:0:0:0:
48,112,33820,1,0,0:0:0:0:
168,56,34014,1,10,0:0:0:0:
220,177,34207,1,0,0:0:0:0:
488,112,34401,6,0,P|444:129|384:119,1,110,2|0,0:0|0:0,0:0:0:0:
328,88,34691,1,0,0:0:0:0:
328,88,34788,1,8,0:0:0:0:
288,359,34981,2,0,P|264:263|304:151,1,220,2|0,0:0|0:0,0:0:0:0:
420,56,35562,1,10,0:0:0:0:
272,40,35755,1,0,0:0:0:0:
272,40,35949,6,0,P|214:38|184:75,1,110,2|0,0:0|0:0,0:0:0:0:
128,200,36336,2,0,P|189:202|217:161,1,110,8|2,0:0|0:0,0:0:0:0:
216,167,36723,1,0,0:0:0:0:
346,140,36917,1,0,0:0:0:0:
386,268,37110,1,8,0:0:0:0:
258,300,37304,1,0,0:0:0:0:
56,344,37497,6,0,L|160:304,1,110
56,40,37884,2,0,L|160:80,1,110,8|0,0:0|0:0,0:0:0:0:
280,128,38272,1,0,0:0:0:0:
310,139,38368,1,0,0:0:0:0:
341,150,38465,1,0,0:0:0:0:
464,200,38659,2,0,P|425:239|424:296,1,110,0|2,0:0|0:0,0:0:0:0:
376,336,38949,1,0,0:0:0:0:
320,304,39046,6,0,P|267:296|216:260,1,110,2|0,0:0|0:0,0:0:0:0:
88,256,39433,1,8,0:0:0:0:
40,136,39626,2,0,P|104:56|216:64,1,220,2|0,0:0|0:0,0:0:0:0:
320,144,40207,1,10,0:0:0:0:
448,312,40401,5,0,0:0:0:0:
456,280,40497,1,0,0:0:0:0:
464,248,40594,2,0,L|440:136,1,110,2|0,0:0|0:0,0:0:0:0:
384,72,40884,2,0,L|335:187,1,110,2|0,0:0|0:0,0:0:0:0:
312,242,41175,1,2,0:0:0:0:
176,256,41368,2,0,P|112:240|96:200,1,110,2|0,0:0|0:0,0:0:0:0:
64,120,41659,2,0,P|27:135|11:199,1,110,2|0,0:0|0:0,0:0:0:0:
40,272,41949,1,2,0:0:0:0:
152,344,42143,5,4,0:0:0:0:
280,336,42336,1,0,0:0:0:0:
344,224,42530,1,8,0:0:0:0:
312,96,42723,1,0,0:0:0:0:
312,96,42820,1,0,0:0:0:0:
312,96,42917,1,2,0:0:0:0:
192,40,43110,1,0,0:0:0:0:
200,256,43304,2,0,L|195:146,1,110,8|0,0:0|0:0,0:0:0:0:
296,56,43691,6,0,P|371:58|408:138,1,165,0|0,0:0|0:0,0:0:0:0:
384,192,44078,1,8,0:0:0:0:
328,312,44272,2,0,P|248:248|129:279,1,220
24,176,44852,1,8,0:0:0:0:
14,144,44949,1,0,0:0:0:0:
12,110,45046,1,0,0:0:0:0:
17,77,45143,1,0,0:0:0:0:
27,46,45239,6,0,P|81:47|138:28,1,110,2|0,0:0|0:0,0:0:0:0:
206,140,45626,1,8,0:0:0:0:
512,240,45820,2,0,P|424:216|296:240,1,220,2|0,0:0|0:0,0:0:0:0:
192,320,46401,2,0,P|177:266|128:224,1,110,10|0,0:0|0:0,0:0:0:0:
81,105,46788,6,0,P|161:33|265:65,1,220,2|8,0:0|0:0,0:0:0:0:
216,184,47368,2,0,P|296:256|400:224,1,220,2|0,0:0|0:0,0:0:0:0:
496,48,47949,2,0,P|456:80|440:144,1,110,10|0,0:0|0:0,0:0:0:0:
488,256,48336,5,0,0:0:0:0:
448,384,48530,1,0,0:0:0:0:
320,344,48723,1,8,0:0:0:0:
352,216,48917,1,2,0:0:0:0:
32,152,49110,1,0,0:0:0:0:
72,280,49304,1,0,0:0:0:0:
200,240,49497,1,8,0:0:0:0:
168,112,49691,1,0,0:0:0:0:
296,144,49884,5,2,0:0:0:0:
304,136,49981,1,0,0:0:0:0:
312,128,50078,1,0,0:0:0:0:
408,216,50272,1,8,0:0:0:0:
272,328,50465,1,0,0:0:0:0:
280,320,50562,1,0,0:0:0:0:
288,312,50659,1,2,0:0:0:0:
296,304,50755,1,0,0:0:0:0:
304,296,50852,1,2,0:0:0:0:
312,288,50949,1,0,0:0:0:0:
320,280,51046,1,10,0:0:0:0:
328,272,51143,1,0,0:0:0:0:
336,264,51239,1,2,0:0:0:0:
344,256,51336,1,0,0:0:0:0:
352,248,51433,6,0,P|407:214|411:163,1,110,2|0,0:0|0:0,0:0:0:0:
240,56,51820,2,0,P|254:100|323:123,1,110,8|0,0:0|0:0,0:0:0:0:
112,48,52207,2,0,P|59:71|45:130,1,110
200,280,52594,2,0,P|185:222|121:211,1,110,8|0,0:0|0:0,0:0:0:0:
184,88,52981,5,2,0:0:0:0:
208,110,53078,1,0,0:0:0:0:
227,136,53175,1,0,0:0:0:0:
239,166,53272,1,0,0:0:0:0:
243,198,53368,1,8,0:0:0:0:
240,230,53465,1,0,0:0:0:0:
242,263,53562,1,0,0:0:0:0:
255,292,53659,1,0,0:0:0:0:
281,311,53755,1,0,0:0:0:0:
313,319,53852,1,0,0:0:0:0:
345,323,53949,1,0,0:0:0:0:
377,318,54046,1,0,0:0:0:0:
408,309,54143,1,8,0:0:0:0:
436,292,54239,1,0,0:0:0:0:
453,263,54336,1,0,0:0:0:0:
458,230,54433,1,0,0:0:0:0:
453,197,54530,5,4,0:0:0:0:
453,197,54626,1,0,0:0:0:0:
453,197,54723,1,0,0:0:0:0:
368,96,54917,1,8,0:0:0:0:
360,112,55014,1,0,0:0:0:0:
288,224,55207,1,0,0:0:0:0:
48,240,55401,1,0,0:0:0:0:
64,248,55497,1,0,0:0:0:0:
80,256,55594,1,0,0:0:0:0:
96,264,55691,1,8,0:0:0:0:
112,272,55788,1,0,0:0:0:0:
232,320,55981,1,0,0:0:0:0:
232,320,56078,1,0,0:0:0:0:
496,280,56465,1,8,0:0:0:0:
344,96,56755,6,0,P|327:174|388:224,1,165,2|2,0:0|0:0,0:0:0:0:
240,248,57239,2,0,P|246:195|205:147,1,110,8|0,0:0|0:0,0:0:0:0:
112,40,57626,6,0,P|100:67|96:96,1,55
96,288,58014,2,0,P|109:264|111:235,1,55,8|0,0:0|0:0,0:0:0:0:
248,80,58304,2,0,P|251:132|215:189,1,110
200,248,58594,2,0,P|221:272|232:304,1,55
232,365,58788,2,0,P|259:349|288:349,1,55,8|0,0:0|0:0,0:0:0:0:
416,320,59078,1,0,0:0:0:0:
424,304,59175,1,0,0:0:0:0:
496,48,59562,1,8,0:0:0:0:
220,167,59852,6,0,L|328:144,1,110,2|2,0:0|0:0,0:0:0:0:
480,272,60336,1,8,0:0:0:0:
216,296,60723,5,4,0:0:0:0:
185,282,60820,1,0,0:0:0:0:
154,269,60917,1,0,0:0:0:0:
85,156,61110,1,0,0:0:0:0:
69,151,61207,1,0,0:0:0:0:
17,29,61401,1,0,0:0:0:0:
148,21,61594,1,0,0:0:0:0:
176,40,61691,1,0,0:0:0:0:
208,24,61788,1,0,0:0:0:0:
240,40,61884,1,8,0:0:0:0:
272,24,61981,1,0,0:0:0:0:
408,24,62175,1,0,0:0:0:0:
408,24,62272,1,4,0:0:0:0:
376,304,62949,6,0,B|400:256|400:256|375:207|406:146,1,165,2|2,0:0|0:0,0:0:0:0:
48,336,63820,5,4,0:0:0:0:
192,280,64014,1,0,0:0:0:0:
80,168,64207,1,8,0:0:0:0:
224,112,64401,1,0,0:0:0:0:
360,48,64594,1,0,0:0:0:0:
512,80,64788,1,0,0:0:0:0:
488,232,64981,1,8,0:0:0:0:
336,200,65175,1,0,0:0:0:0:
400,336,65368,6,0,L|400:376,2,27.5
264,264,65659,2,0,L|264:304,2,27.5,0|0|0,0:0|0:0|0:0,0:0:0:0:
128,192,65949,1,0,0:0:0:0:
8,96,66143,1,8,0:0:0:0:
18,95,66239,1,0,0:0:0:0:
29,94,66336,1,0,0:0:0:0:
40,93,66433,1,0,0:0:0:0:
51,92,66530,1,0,0:0:0:0:
61,91,66626,1,0,0:0:0:0:
72,90,66723,1,0,0:0:0:0:
83,90,66820,1,0,0:0:0:0:
94,89,66917,5,4,0:0:0:0:
360,72,67304,1,8,0:0:0:0:
392,336,67691,1,0,0:0:0:0:
128,352,68078,1,8,0:0:0:0:
216,256,68272,1,0,0:0:0:0:
216,256,68368,1,0,0:0:0:0:
216,256,68465,1,0,0:0:0:0:
304,160,68659,1,0,0:0:0:0:
304,160,68852,1,8,0:0:0:0:
56,64,69239,1,2,0:0:0:0:
24,328,69626,1,8,0:0:0:0:
248,192,70014,6,0,P|304:120|400:136,1,165,2|0,0:0|0:0,0:0:0:0:
424,160,70401,1,8,0:0:0:0:
440,288,70594,1,0,0:0:0:0:
440,288,70691,1,0,0:0:0:0:
440,288,70788,1,0,0:0:0:0:
320,336,70981,1,0,0:0:0:0:
112,256,71175,1,8,0:0:0:0:
108,272,71272,1,0,0:0:0:0:
107,288,71368,1,0,0:0:0:0:
112,303,71465,1,0,0:0:0:0:
120,316,71562,5,0,0:0:0:0:
288,256,71755,1,0,0:0:0:0:
312,128,71949,1,8,0:0:0:0:
303,95,72046,1,0,0:0:0:0:
281,69,72143,1,0,0:0:0:0:
248,62,72239,1,0,0:0:0:0:
219,78,72336,1,2,0:0:0:0:
206,108,72433,1,0,0:0:0:0:
201,140,72530,1,0,0:0:0:0:
190,171,72626,1,0,0:0:0:0:
172,198,72723,1,8,0:0:0:0:
140,207,72820,1,0,0:0:0:0:
114,185,72917,1,0,0:0:0:0:
98,155,73014,1,0,0:0:0:0:
98,155,73110,5,0,0:0:0:0:
16,256,73304,1,0,0:0:0:0:
113,344,73497,1,8,0:0:0:0:
240,304,73691,1,0,0:0:0:0:
240,304,73788,1,0,0:0:0:0:
240,304,73885,1,0,0:0:0:0:
240,304,73981,1,0,0:0:0:0:
240,304,74078,1,0,0:0:0:0:
456,152,74272,2,0,P|410:186|414:247,1,110,8|0,0:0|0:0,0:0:0:0:
168,96,74659,6,0,P|197:149|249:164,1,110,0|0,0:0|0:0,0:0:0:0:
303,198,74949,1,0,0:0:0:0:
303,199,75046,2,0,P|255:231|199:231,1,110,8|0,0:0|0:0,0:0:0:0:
40,64,75433,2,0,L|8:184,1,110
136,328,75820,2,0,L|164:221,1,110,8|0,0:0|0:0,0:0:0:0:
192,96,76207,5,2,0:0:0:0:
192,96,76304,1,0,0:0:0:0:
192,96,76401,1,0,0:0:0:0:
344,64,76594,1,8,0:0:0:0:
384,216,76788,1,0,0:0:0:0:
392,240,76885,1,0,0:0:0:0:
400,264,76981,1,0,0:0:0:0:
408,288,77078,1,0,0:0:0:0:
416,312,77175,1,0,0:0:0:0:
264,352,77368,1,8,0:0:0:0:
264,352,77562,1,0,0:0:0:0:
64,192,77755,5,2,0:0:0:0:
112,336,77949,1,0,0:0:0:0:
264,288,78143,1,8,0:0:0:0:
208,144,78336,1,2,0:0:0:0:
438,178,78530,1,2,0:0:0:0:
438,178,78626,1,0,0:0:0:0:
454,194,78723,1,0,0:0:0:0:
470,218,78820,1,0,0:0:0:0:
482,242,78917,1,8,0:0:0:0:
489,268,79014,1,0,0:0:0:0:
489,295,79110,1,2,0:0:0:0:
485,322,79207,1,0,0:0:0:0:
474,343,79304,6,0,L|419:334,3,55,2|0|0|0,0:0|0:0|0:0|0:0,0:0:0:0:
303,233,79691,2,0,L|358:242,3,55,8|0|0|0,0:0|0:0|0:0|0:0,0:0:0:0:
239,143,80078,2,0,L|184:134,3,55
44,55,80465,2,0,L|99:64,3,55,8|0|0|0,0:0|0:0|0:0|0:0,0:0:0:0:
24,184,80852,6,0,L|40:240,1,55
136,256,81046,2,0,L|120:203,1,55
208,184,81239,2,0,L|224:240,1,55,8|0,0:0|0:0,0:0:0:0:
320,256,81433,2,0,L|304:203,1,55,2|0,0:0|0:0,0:0:0:0:
281,127,81626,1,0,0:0:0:0:
277,116,81723,1,0,0:0:0:0:
274,105,81820,1,0,0:0:0:0:
270,94,81917,1,0,0:0:0:0:
267,83,82014,1,10,0:0:0:0:
264,72,82110,1,0,0:0:0:0:
261,61,82207,1,0,0:0:0:0:
257,50,82304,1,0,0:0:0:0:
253,39,82401,5,2,0:0:0:0:
228,27,82497,1,0,0:0:0:0:
200,26,82594,1,0,0:0:0:0:
172,30,82691,1,0,0:0:0:0:
147,43,82788,1,8,0:0:0:0:
127,62,82885,1,0,0:0:0:0:
118,88,82981,1,0,0:0:0:0:
125,114,83078,1,0,0:0:0:0:
141,135,83175,1,0,0:0:0:0:
156,157,83272,1,0,0:0:0:0:
161,184,83368,1,2,0:0:0:0:
153,210,83465,1,0,0:0:0:0:
138,233,83562,1,8,0:0:0:0:
116,249,83659,1,0,0:0:0:0:
96,268,83755,1,0,0:0:0:0:
84,293,83852,1,0,0:0:0:0:
75,319,83949,5,2,0:0:0:0:
80,346,84046,1,0,0:0:0:0:
95,368,84143,2,0,P|125:373|152:366,1,55
207,336,84336,1,10,0:0:0:0:
224,314,84433,1,0,0:0:0:0:
241,292,84530,2,0,P|255:268|277:254,1,55
327,206,84723,1,2,0:0:0:0:
330,178,84820,1,0,0:0:0:0:
331,150,84917,2,0,L|359:91,1,55
423,93,85110,2,0,P|422:154|460:203,1,110,10|0,0:0|0:0,0:0:0:0:
464,328,85497,6,0,P|368:272|272:320,1,220,2|8,0:0|0:0,0:0:0:0:
32,144,86078,5,0,0:0:0:0:
64,128,86175,1,0,0:0:0:0:
96,112,86272,2,0,P|207:117|261:209,1,220,2|8,0:0|0:0,0:0:0:0:
104,320,86852,5,0,0:0:0:0:
131,338,86949,1,0,0:0:0:0:
164,338,87046,2,0,P|208:295|256:290,1,110,2|0,0:0|0:0,0:0:0:0:
312,256,87336,1,0,0:0:0:0:
352,312,87433,2,0,P|398:306|442:263,1,110,10|0,0:0|0:0,0:0:0:0:
469,202,87723,1,0,0:0:0:0:
433,150,87820,2,0,P|407:94|364:72,1,110,2|0,0:0|0:0,0:0:0:0:
236,99,88207,1,8,0:0:0:0:
104,89,88401,1,0,0:0:0:0:
34,293,88594,5,2,0:0:0:0:
157,341,88788,1,0,0:0:0:0:
200,216,88981,1,8,0:0:0:0:
72,168,89175,1,0,0:0:0:0:
478,293,89368,1,0,0:0:0:0:
352,344,89562,1,0,0:0:0:0:
312,216,89755,1,8,0:0:0:0:
440,168,89949,1,0,0:0:0:0:
440,168,90143,6,0,P|381:56|302:70,1,220,2|8,0:0|0:0,0:0:0:0:
264,192,90723,1,0,0:0:0:0:
203,309,90917,2,0,P|130:283|131:157,1,220,2|8,0:0|0:0,0:0:0:0:
209,51,91497,1,0,0:0:0:0:
234,61,91594,1,0,0:0:0:0:
256,72,91691,5,4,0:0:0:0:
256,248,92078,1,8,0:0:0:0:
136,304,92368,1,0,0:0:0:0:
136,304,92465,1,0,0:0:0:0:
56,264,92659,1,0,0:0:0:0:
128,216,92852,1,8,0:0:0:0:
256,72,93239,5,4,0:0:0:0:
256,248,93626,1,8,0:0:0:0:
376,304,93917,1,0,0:0:0:0:
376,304,94014,1,0,0:0:0:0:
456,264,94207,1,0,0:0:0:0:
384,216,94401,1,8,0:0:0:0:
328,344,94788,6,0,P|284:295|240:280,1,110,4|8,0:0|0:0,0:0:0:0:
128,248,95368,5,0,0:0:0:0:
141,238,95465,1,0,0:0:0:0:
157,227,95562,2,0,P|231:202|318:201,1,165.000006294251,4|8,0:0|0:0,0:0:0:0:
455,276,96143,5,0,0:0:0:0:
469,251,96239,1,0,0:0:0:0:
474,222,96336,2,0,P|429:132|300:69,1,220,4|8,0:0|0:0,0:0:0:0:
200,88,96917,5,0,0:0:0:0:
200,88,97014,1,0,0:0:0:0:
200,88,97110,1,4,0:0:0:0:
80,144,97304,1,0,0:0:0:0:
136,264,97497,1,8,0:0:0:0:
256,208,97691,1,0,0:0:0:0:
256,208,97885,1,4,0:0:0:0:
496,192,99691,6,0,P|430:153|376:170,1,137.5,0|0,0:0|2:0,0:0:0:0:
320,120,99949,6,0,P|288:192|314:257,1,137.5,0|0,0:0|2:0,0:0:0:0:
262,306,100207,6,0,P|190:274|129:305,1,137.5,0|0,0:0|2:0,0:0:0:0:
76,255,100465,6,0,P|121:187|111:124,1,137.5,0|0,0:0|2:0,0:0:0:0:
131,62,100723,6,0,P|209:85|260:60,1,137.5,0|0,0:0|2:0,0:0:0:0:
313,27,100981,5,0,0:0:0:0:
337,49,101078,1,0,0:0:0:0:
360,72,101175,1,0,0:0:0:0:
383,95,101272,1,0,0:0:0:0:
406,118,101368,1,8,0:0:0:0:
506,262,101562,1,4,0:0:0:0:
256,320,101949,1,4,0:0:0:0:
48,160,102336,1,4,0:0:0:0:
272,16,102723,5,0,0:0:0:0:
272,16,102917,2,0,P|208:120|272:184,1,220,2|2,0:0|0:0,0:0:0:0:
416,88,103562,1,2,0:0:0:0:
456,256,103820,1,2,0:0:0:0:
288,312,104078,5,4,0:0:0:0:
240,240,104336,1,0,0:0:0:0:
176,296,104594,1,0,0:0:0:0:
224,72,104852,1,8,0:0:0:0:
272,144,105110,1,8,0:0:0:0:
336,88,105368,1,8,0:0:0:0:
360,272,105626,5,4,0:0:0:0:
304,208,105884,1,0,0:0:0:0:
376,160,106143,1,0,0:0:0:0:
136,224,106401,1,8,0:0:0:0:
208,176,106659,1,8,0:0:0:0:
152,112,106917,1,8,0:0:0:0:
72,160,107175,6,0,P|19:189|8:264,1,110,4|0,0:0|0:0,0:0:0:0:
216,336,107562,2,0,P|182:289|129:291,1,110,8|0,0:0|0:0,0:0:0:0:
400,216,107949,2,0,P|395:263|341:303,1,110,0|0,0:0|0:0,0:0:0:0:
224,64,108336,2,0,P|241:113|328:128,1,110,8|0,0:0|0:0,0:0:0:0:
240,256,108723,5,0,0:0:0:0:
210,241,108820,1,0,0:0:0:0:
179,228,108917,1,0,0:0:0:0:
149,212,109014,1,0,0:0:0:0:
120,196,109110,1,8,0:0:0:0:
30,98,109304,1,0,0:0:0:0:
30,98,109401,1,0,0:0:0:0:
30,98,109497,1,0,0:0:0:0:
39,66,109594,1,0,0:0:0:0:
65,45,109691,1,0,0:0:0:0:
97,38,109788,1,0,0:0:0:0:
129,42,109885,1,8,0:0:0:0:
156,59,109981,1,0,0:0:0:0:
161,91,110078,1,0,0:0:0:0:
167,123,110175,1,0,0:0:0:0:
185,150,110272,5,4,0:0:0:0:
328,88,110465,1,0,0:0:0:0:
400,224,110659,1,8,0:0:0:0:
264,296,110852,1,0,0:0:0:0:
112,264,111046,2,0,P|88:216|10:189,1,110,2|0,0:0|0:0,0:0:0:0:
13,130,111304,2,0,P|45:82|93:66,1,110,2|0,0:0|0:0,0:0:0:0:
152,48,111562,2,0,P|193:87|244:92,1,110,2|0,0:0|0:0,0:0:0:0:
302,65,111820,5,0,0:0:0:0:
432,32,112014,1,0,0:0:0:0:
472,160,112207,1,8,0:0:0:0:
352,216,112401,1,0,0:0:0:0:
344,344,112594,1,0,0:0:0:0:
344,344,112691,1,0,0:0:0:0:
344,344,112788,1,0,0:0:0:0:
104,296,112981,2,0,P|163:299|216:328,1,110,8|0,0:0|0:0,0:0:0:0:
344,344,113368,5,2,0:0:0:0:
456,272,113562,1,0,0:0:0:0:
392,160,113755,1,8,0:0:0:0:
272,224,113949,2,0,P|200:296|72:280,1,220,2|0,0:0|0:0,0:0:0:0:
16,200,114530,1,8,0:0:0:0:
16,200,114917,6,0,L|53:95,1,110,4|0,0:0|0:0,0:0:0:0:
201,28,115304,2,0,L|164:131,1,110,0|0,0:0|0:0,0:0:0:0:
177,286,115691,1,2,0:0:0:0:
336,320,115885,1,0,0:0:0:0:
336,320,116078,1,10,0:0:0:0:
320,296,116175,1,0,0:0:0:0:
304,272,116272,1,0,0:0:0:0:
288,248,116368,1,0,0:0:0:0:
272,224,116465,5,4,0:0:0:0:
200,112,116659,1,0,0:0:0:0:
200,112,116755,1,0,0:0:0:0:
200,112,116852,1,8,0:0:0:0:
96,192,117046,1,0,0:0:0:0:
96,192,117143,1,0,0:0:0:0:
96,192,117239,1,0,0:0:0:0:
176,296,117433,1,0,0:0:0:0:
176,296,117530,1,0,0:0:0:0:
176,296,117626,1,8,0:0:0:0:
280,208,117820,1,0,0:0:0:0:
280,208,117917,1,0,0:0:0:0:
280,208,118014,1,0,0:0:0:0:
392,136,118207,5,0,0:0:0:0:
400,128,118304,1,0,0:0:0:0:
408,120,118401,1,8,0:0:0:0:
392,248,118594,1,0,0:0:0:0:
400,256,118691,1,0,0:0:0:0:
408,264,118788,1,0,0:0:0:0:
304,344,118981,1,0,0:0:0:0:
176,320,119175,1,8,0:0:0:0:
176,320,119368,1,0,0:0:0:0:
184,104,119562,6,0,L|176:232,1,110
232,256,119852,1,0,0:0:0:0:
232,256,119949,2,0,P|280:208|288:160,1,110,8|0,0:0|0:0,0:0:0:0:
272,104,120239,1,0,0:0:0:0:
272,104,120336,2,0,L|384:56,1,110
432,32,120626,1,0,0:0:0:0:
432,32,120723,2,0,P|480:56|496:128,1,110,8|0,0:0|0:0,0:0:0:0:
488,176,121014,1,0,0:0:0:0:
488,176,121110,1,0,0:0:0:0:
416,288,121304,1,0,0:0:0:0:
288,272,121497,1,8,0:0:0:0:
256,192,121594,12,4,122659,0:0:0:0:
