osu file format v12

[General]
AudioFilename: velaciela.mp3
AudioLeadIn: 500
PreviewTime: 29363
Countdown: 0
SampleSet: Normal
StackLeniency: 0.7
Mode: 0
LetterboxInBreaks: 0

[Editor]
DistanceSpacing: 1
BeatDivisor: 4
GridSize: 8

[Metadata]
Title:Velaciela
TitleUnicode:Velaciela
Artist:naotyu-
ArtistUnicode:naotyu-
Creator:Jacob
Version:Easy
Source:BMS
Tags:Pokie
BeatmapID:225412
BeatmapSetID:80414

[Difficulty]
HPDrainRate:3
CircleSize:3
OverallDifficulty:2
ApproachRate:3
SliderMultiplier:0.959999999999999
SliderTickRate:2

[Events]
//Background and Video events
0,0,"clouds.jpg",0,0
//Break Periods
2,98084,99541
//Storyboard Layer 0 (Background)
//Storyboard Layer 1 (Fail)
//Storyboard Layer 2 (Pass)
//Storyboard Layer 3 (Foreground)
//Storyboard Sound Samples
//Background Colour Transformations
3,100,163,162,255

[TimingPoints]
1885,387.096774193548,4,1,1,70,1,0
26659,-100,4,2,1,80,0,0
28014,-100,4,1,1,20,0,0
29368,-100,4,1,1,50,0,0
29755,-100,4,1,1,70,0,0
79304,-100,4,1,1,70,0,1
79401,-100,4,1,1,70,0,0
100981,-100,4,1,1,60,0,0

[Colours]
Combo1 : 213,170,255
Combo2 : 106,106,255
Combo3 : 106,181,255

[HitObjects]
448,304,1885,2,0,L|424:208,1,95.9999999999999,4|8,0:0|0:0,0:0:0:0:
344,256,2659,2,0,L|320:144,1,95.9999999999999,0|8,0:0|0:0,0:0:0:0:
304,72,3433,1,0,0:0:0:0:
120,32,4207,5,2,0:0:0:0:
72,216,4981,6,0,L|48:320,1,95.9999999999999,0|8,0:0|0:0,0:0:0:0:
136,360,5755,2,0,P|240:376|320:328,1,192
408,168,7304,5,2,0:0:0:0:
264,40,8078,6,0,L|160:64,1,95.9999999999999,0|8,0:0|0:0,0:0:0:0:
152,160,8852,2,0,L|245:138,1,95.9999999999999,0|8,0:0|0:0,0:0:0:0:
336,112,9626,1,0,0:0:0:0:
424,288,10401,5,2,0:0:0:0:
240,336,11175,6,0,L|224:240,1,95.9999999999999,0|8,0:0|0:0,0:0:0:0:
144,296,11949,2,0,L|128:200,1,95.9999999999999,0|8,0:0|0:0,0:0:0:0:
256,192,12723,12,4,14272,0:0:0:0:
408,104,15046,5,0,0:0:0:0:
392,200,15433,1,8,0:0:0:0:
368,296,15820,1,0,0:0:0:0:
184,344,16594,5,2,0:0:0:0:
16,248,17368,6,0,L|32:144,1,95.9999999999999,0|8,0:0|0:0,0:0:0:0:
88,80,18143,2,0,P|176:40|272:56,1,192
408,184,19691,5,2,0:0:0:0:
320,352,20465,6,0,L|216:320,1,95.9999999999999,4|8,0:0|0:0,0:0:0:0:
256,232,21239,2,0,L|144:200,1,95.9999999999999
72,176,22014,2,0,P|72:88|152:32,1,192,4|2,0:0|0:0,0:0:0:0:
320,160,23562,6,0,L|416:152,1,95.9999999999999,4|8,0:0|0:0,0:0:0:0:
440,56,24336,2,0,L|344:64,1,95.9999999999999,0|8,0:0|0:0,0:0:0:0:
248,72,25110,2,0,P|56:96|40:256,1,384,0|4,0:0|0:0,0:0:0:0:
80,248,28207,6,0,L|144:168,1,95.9999999999999
200,96,28981,1,0,0:0:0:0:
256,16,29368,1,0,0:0:0:0:
352,48,29755,6,0,P|368:208|264:256,1,288,4|0,0:0|0:0,0:0:0:0:
224,176,31304,2,0,P|240:336|216:360,1,192,0|0,0:0|0:0,0:0:0:0:
136,384,32465,1,8,0:0:0:0:
64,320,32852,6,0,L|40:224,1,95.9999999999999,2|8,0:0|0:0,0:0:0:0:
136,232,33626,2,0,L|112:136,1,95.9999999999999,0|8,0:0|0:0,0:0:0:0:
136,48,34401,2,0,P|232:24|328:64,1,192
352,144,35562,1,8,0:0:0:0:
376,240,35949,6,0,P|376:288|368:344,1,95.9999999999999,2|8,0:0|0:0,0:0:0:0:
272,328,36723,2,0,P|272:280|280:232,1,95.9999999999999,0|8,0:0|0:0,0:0:0:0:
288,136,37497,2,0,B|228:116|160:136|160:136|104:88,1,192
40,32,38659,1,8,0:0:0:0:
24,128,39046,6,0,L|16:272,2,144,0|0|8,0:0|0:0|0:0,0:0:0:0:
112,88,40594,2,0,L|208:64,1,95.9999999999999,2|8,0:0|0:0,0:0:0:0:
304,56,41368,2,0,P|344:128|296:224,1,192,2|4,0:0|0:0,0:0:0:0:
216,264,42530,5,8,0:0:0:0:
120,272,42917,2,0,L|96:176,1,95.9999999999999,2|8,0:0|0:0,0:0:0:0:
192,168,43691,2,0,L|168:72,1,95.9999999999999,0|8,0:0|0:0,0:0:0:0:
256,32,44465,2,0,P|352:16|440:48,1,192,0|2,0:0|0:0,0:0:0:0:
480,136,45626,5,8,0:0:0:0:
464,224,46014,2,0,B|424:248|424:248|416:272|424:304,1,95.9999999999999,0|8,0:0|0:0,0:0:0:0:
328,296,46788,2,0,B|334:271|326:247|326:247|286:223,1,95.9999999999999,0|8,0:0|0:0,0:0:0:0:
192,192,47562,1,0,0:0:0:0:
104,160,47949,1,8,0:0:0:0:
8,120,48336,6,0,P|72:40|168:56,1,192,0|2,0:0|0:0,0:0:0:0:
240,104,49497,1,8,0:0:0:0:
328,152,49884,2,0,B|336:104|336:104|368:64,1,95.9999999999999,0|8,0:0|0:0,0:0:0:0:
456,104,50659,2,0,B|448:152|448:152|416:192,1,95.9999999999999,0|8,0:0|0:0,0:0:0:0:
376,272,51433,6,0,P|280:264|192:320,1,192,2|0,0:0|0:0,0:0:0:0:
136,376,52594,1,8,0:0:0:0:
64,312,52981,2,0,L|40:216,1,95.9999999999999,2|8,0:0|0:0,0:0:0:0:
136,216,53755,2,0,L|112:120,1,95.9999999999999,0|8,0:0|0:0,0:0:0:0:
88,32,54530,5,4,0:0:0:0:
184,48,54917,1,8,0:0:0:0:
280,64,55304,2,0,P|352:128|328:216,1,192,0|0,0:0|0:0,0:0:0:0:
160,296,56852,5,2,0:0:0:0:
32,152,57626,6,0,L|56:56,1,95.9999999999999,0|8,0:0|0:0,0:0:0:0:
152,32,58401,2,0,L|128:125,1,95.9999999999999,0|8,0:0|0:0,0:0:0:0:
104,216,59175,1,0,0:0:0:0:
272,304,59949,5,2,0:0:0:0:
440,208,60723,6,0,P|424:80|272:48,1,288,4|8,0:0|0:0,0:0:0:0:
192,96,62272,1,4,0:0:0:0:
16,208,63046,5,2,0:0:0:0:
168,320,63820,6,0,L|264:280,1,95.9999999999999,4|8,0:0|0:0,0:0:0:0:
192,208,64594,2,0,L|288:168,1,95.9999999999999,0|8,0:0|0:0,0:0:0:0:
368,128,65368,2,0,B|336:72|336:72|272:80|200:56,1,192,0|8,0:0|0:0,0:0:0:0:
120,32,66530,1,0,0:0:0:0:
56,104,66917,6,0,P|8:176|40:280,1,192,4|0,0:0|0:0,0:0:0:0:
120,304,68078,1,8,0:0:0:0:
216,296,68465,2,0,L|304:256,1,95.9999999999999,0|8,0:0|0:0,0:0:0:0:
240,184,69239,2,0,L|328:144,1,95.9999999999999,2|8,0:0|0:0,0:0:0:0:
416,112,70014,6,0,P|480:176|456:272,1,192,2|0,0:0|0:0,0:0:0:0:
368,296,71175,1,8,0:0:0:0:
272,312,71562,2,0,P|208:248|232:152,1,192,0|2,0:0|0:0,0:0:0:0:
288,80,72723,1,8,0:0:0:0:
208,32,73110,6,0,P|160:24|104:40,1,95.9999999999999,0|8,0:0|0:0,0:0:0:0:
72,120,73884,2,0,P|120:128|176:112,1,95.9999999999999,0|8,0:0|0:0,0:0:0:0:
264,104,74659,2,0,P|368:96|424:176,1,192
440,248,75820,1,8,0:0:0:0:
376,320,76207,6,0,L|272:344,1,95.9999999999999,0|8,0:0|0:0,0:0:0:0:
288,248,76981,2,0,L|184:272,1,95.9999999999999,0|8,0:0|0:0,0:0:0:0:
96,280,77755,2,0,L|72:176,1,95.9999999999999,0|8,0:0|0:0,0:0:0:0:
168,184,78530,2,0,L|144:80,1,95.9999999999999,0|8,0:0|0:0,0:0:0:0:
216,32,79304,6,0,P|392:136|384:168,1,288,2|8,0:0|0:0,0:0:0:0:
368,264,80852,2,0,L|272:296,1,95.9999999999999,0|8,0:0|0:0,0:0:0:0:
248,200,81626,2,0,L|152:232,1,95.9999999999999,2|8,0:0|0:0,0:0:0:0:
64,248,82401,5,2,0:0:0:0:
40,152,82788,1,8,0:0:0:0:
24,56,83175,2,0,L|120:40,1,95.9999999999999,0|8,0:0|0:0,0:0:0:0:
152,128,83949,2,0,L|248:108,1,95.9999999999999,2|8,0:0|0:0,0:0:0:0:
341,98,84723,2,0,P|441:146|442:229,1,192,2|2,0:0|0:0,0:0:0:0:
394,297,85884,5,8,0:0:0:0:
299,316,86272,2,0,L|202:336,1,95.9999999999999,2|8,0:0|0:0,0:0:0:0:
210,239,87046,1,2,0:0:0:0:
210,239,87433,2,0,L|114:260,1,95.9999999999999,10|2,0:0|0:0,0:0:0:0:
21,276,88207,1,8,0:0:0:0:
56,184,88594,6,0,P|27:96|102:22,1,192,2|0,0:0|0:0,0:0:0:0:
176,64,89755,1,8,0:0:0:0:
256,192,90143,12,4,91691,0:0:0:0:
424,192,92465,5,0,0:0:0:0:
424,192,93239,2,0,P|328:208|296:288,1,192,4|0,0:0|0:0,0:0:0:0:
104,320,94788,6,0,P|48:240|88:160,1,192,4|4,0:0|0:0,0:0:0:0:
224,32,96336,2,0,L|328:0,1,95.9999999999999,4|8,0:0|0:0,0:0:0:0:
384,72,97110,2,4,L|292:100,1,95.9999999999999,4|8,0:0|0:0,0:0:0:0:
256,192,97884,5,4,0:0:0:0:
256,192,100981,6,0,P|240:264|176:280,2,144,2|4|8,0:0|0:0|0:0,0:0:0:0:
184,128,102530,1,0,0:0:0:0:
96,168,102917,1,2,0:0:0:0:
109,72,103304,2,0,P|145:39|193:22,1,95.9999999999999,2|2,0:0|0:0,0:0:0:0:
296,24,104078,5,4,0:0:0:0:
392,192,104852,1,8,0:0:0:0:
200,192,105626,1,4,0:0:0:0:
112,24,106401,1,8,0:0:0:0:
16,192,107175,6,0,L|64:288,1,95.9999999999999,4|8,0:0|0:0,0:0:0:0:
128,208,107949,2,0,L|176:304,1,95.9999999999999,0|8,0:0|0:0,0:0:0:0:
240,360,108723,2,0,B|296:320|352:328|352:328|400:272,1,192
448,192,109884,1,8,0:0:0:0:
424,96,110272,6,0,P|376:88|328:96,1,95.9999999999999,4|8,0:0|0:0,0:0:0:0:
328,192,111046,2,0,P|280:200|232:192,1,95.9999999999999,2|10,0:0|0:0,0:0:0:0:
160,136,111820,1,0,0:0:0:0:
128,48,112207,1,8,0:0:0:0:
64,120,112594,2,0,P|24:216|72:288,1,192,0|2,0:0|0:0,0:0:0:0:
160,280,113755,5,8,0:0:0:0:
256,256,114143,2,0,L|352:216,1,95.9999999999999,0|8,0:0|0:0,0:0:0:0:
432,176,114917,1,4,0:0:0:0:
296,40,115691,1,2,0:0:0:0:
120,120,116465,6,0,L|88:328,1,192,4|0,0:0|0:0,0:0:0:0:
184,344,117626,1,8,0:0:0:0:
274,310,118014,2,0,L|244:120,1,192,0|0,0:0|0:0,0:0:0:0:
224,24,119175,1,8,0:0:0:0:
320,40,119562,6,0,L|416:24,1,95.9999999999999,0|8,0:0|0:0,0:0:0:0:
408,120,120336,2,0,L|504:104,1,95.9999999999999,0|8,0:0|0:0,0:0:0:0:
256,192,121110,12,4,122659,0:0:0:0:
