osu file format v14

[General]
AudioFilename: naotyu+-+Her_Majesty.mp3
AudioLeadIn: 500
PreviewTime: 18378
Countdown: 0
SampleSet: Normal
StackLeniency: 0.7
Mode: 1
LetterboxInBreaks: 0
WidescreenStoryboard: 1

[Editor]
DistanceSpacing: 1.2
BeatDivisor: 4
GridSize: 4
TimelineZoom: 3.199999

[Metadata]
Title:Her Majesty
TitleUnicode:Her Majesty
Artist:naotyu-
ArtistUnicode:naotyu-
Creator:pmriva
Version:Rrawr
Source:BMS
Tags:BMS
BeatmapID:610269
BeatmapSetID:267975

[Difficulty]
HPDrainRate:6.6
CircleSize:5
OverallDifficulty:5.5
ApproachRate:8.4
SliderMultiplier:1.5
SliderTickRate:2

[Events]
//Background and Video events
0,0,"queen_stagefile.jpg",0,0
//Break Periods
2,79118,86877
//Storyboard Layer 0 (Background)
//Storyboard Layer 1 (Fail)
//Storyboard Layer 2 (Pass)
//Storyboard Layer 3 (Foreground)
//Storyboard Sound Samples

[TimingPoints]
1081,270.27027027027,4,1,0,75,1,0
18377,60.0600600600601,4,1,0,75,1,0
18379,270.27027027027,4,1,0,75,1,0
36824,-66.6666666666667,4,1,0,75,0,0
37770,-100,4,1,0,75,0,0
38851,-66.6666666666667,4,1,0,75,0,0
39797,-100,4,1,0,75,0,0
40878,-66.6666666666667,4,1,0,75,0,0
41829,-100,4,1,0,75,0,0
61621,-100,4,1,0,75,0,1
78648,120,4,1,0,75,1,1
78920,270.27027027027,4,1,0,75,1,0
87515,-400,4,1,0,75,0,0
93933,-100,4,1,0,75,0,0
98378,-95.2380952380952,4,1,0,75,0,1
100540,-90.9090909090909,4,1,0,75,0,1
102702,-83.3333333333333,4,1,0,75,0,1
104864,-83.3333333333333,4,1,0,75,0,1
107042,-80,4,1,0,75,0,1
109204,-74.0740740740741,4,1,0,75,0,1
111298,-50,4,1,0,75,0,1
113582,4000,4,1,0,75,1,1
115315,60.0600600600601,4,1,0,75,1,1
115676,-100,4,1,0,75,0,0

[Colours]
Combo1 : 255,255,0
Combo2 : 87,244,34
Combo3 : 138,21,255
Combo4 : 247,199,72
Combo5 : 115,150,242

[HitObjects]
256,192,1081,5,0,0:0:0:0:
380,80,1351,1,2,0:0:0:0:
144,172,1756,1,2,0:0:0:0:
144,172,2162,1,0,0:0:0:0:
144,172,2567,1,2,0:0:0:0:
156,116,2972,1,0,0:0:0:0:
144,172,3243,1,2,0:0:0:0:
144,172,3513,1,2,0:0:0:0:
144,172,3918,1,2,0:0:0:0:
144,172,4324,1,0,0:0:0:0:
144,172,4729,1,2,0:0:0:0:
144,172,5135,1,0,0:0:0:0:
144,172,5405,5,2,0:0:0:0:
144,172,5675,1,2,0:0:0:0:
144,172,6080,1,2,0:0:0:0:
144,172,6486,1,0,0:0:0:0:
144,172,6891,1,2,0:0:0:0:
144,172,7297,5,0,0:0:0:0:
256,192,7567,12,0,8513,0:0:0:0:
256,192,8648,5,0,0:0:0:0:
256,192,8783,1,0,0:0:0:0:
256,192,8918,1,2,0:0:0:0:
256,192,9053,1,2,0:0:0:0:
256,192,9189,1,0,0:0:0:0:
256,192,9324,1,2,0:0:0:0:
256,192,9459,5,0,0:0:0:0:
256,192,9594,1,2,0:0:0:0:
256,192,9729,1,2,0:0:0:0:
256,192,10135,1,2,0:0:0:0:
256,192,10540,1,0,0:0:0:0:
256,192,10810,5,2,0:0:0:0:
256,192,10945,1,0,0:0:0:0:
256,192,11080,1,0,0:0:0:0:
256,192,11216,1,2,0:0:0:0:
256,192,11351,1,2,0:0:0:0:
256,192,11486,1,0,0:0:0:0:
256,192,11621,1,0,0:0:0:0:
256,192,11756,1,0,0:0:0:0:
256,192,11891,1,2,0:0:0:0:
256,192,12297,1,2,0:0:0:0:
256,192,12702,1,0,0:0:0:0:
256,192,12972,1,2,0:0:0:0:
256,192,13108,1,0,0:0:0:0:
256,192,13175,1,0,0:0:0:0:
256,192,13243,1,0,0:0:0:0:
256,192,13378,1,2,0:0:0:0:
256,192,13513,1,2,0:0:0:0:
256,192,13648,1,0,0:0:0:0:
256,192,13783,1,2,0:0:0:0:
256,192,13918,1,0,0:0:0:0:
256,192,14053,1,2,0:0:0:0:
256,192,14459,1,2,0:0:0:0:
256,192,14864,1,0,0:0:0:0:
256,192,15135,1,2,0:0:0:0:
256,192,15270,1,0,0:0:0:0:
256,192,15337,1,0,0:0:0:0:
256,192,15405,1,2,0:0:0:0:
256,192,15540,1,2,0:0:0:0:
256,192,15675,1,2,0:0:0:0:
256,192,15810,1,0,0:0:0:0:
256,192,15878,1,0,0:0:0:0:
256,192,15945,1,0,0:0:0:0:
256,192,16080,1,2,0:0:0:0:
256,192,16148,1,2,0:0:0:0:
256,192,16216,1,0,0:0:0:0:
256,192,16351,1,2,0:0:0:0:
256,192,16418,1,0,0:0:0:0:
256,192,16486,1,0,0:0:0:0:
256,192,16553,1,0,0:0:0:0:
256,192,16621,1,0,0:0:0:0:
256,192,16689,1,0,0:0:0:0:
256,192,16756,1,2,0:0:0:0:
256,192,16824,1,0,0:0:0:0:
256,192,16891,1,0,0:0:0:0:
256,192,16959,1,0,0:0:0:0:
256,192,17026,1,2,0:0:0:0:
256,192,17094,1,2,0:0:0:0:
256,192,17162,1,0,0:0:0:0:
256,192,17297,1,0,0:0:0:0:
256,192,17342,1,0,0:0:0:0:
256,192,17387,1,0,0:0:0:0:
256,192,17432,1,2,0:0:0:0:
256,192,17567,1,2,0:0:0:0:
256,192,17702,5,0,0:0:0:0:
256,192,17972,1,2,0:0:0:0:
256,192,18108,1,2,0:0:0:0:
256,192,18175,1,0,0:0:0:0:
256,192,18243,1,2,0:0:0:0:
256,192,18378,1,4,0:0:0:0:
256,192,18513,1,2,0:0:0:0:
256,192,18580,1,2,0:0:0:0:
256,192,18648,1,0,0:0:0:0:
256,192,18783,1,2,0:0:0:0:
256,192,18918,1,0,0:0:0:0:
256,192,19053,1,2,0:0:0:0:
256,192,19121,1,0,0:0:0:0:
256,192,19189,1,0,0:0:0:0:
256,192,19256,1,0,0:0:0:0:
256,192,19324,1,0,0:0:0:0:
256,192,19391,1,0,0:0:0:0:
256,192,19459,1,2,0:0:0:0:
256,192,19594,1,0,0:0:0:0:
256,192,19729,1,2,0:0:0:0:
256,192,19797,1,2,0:0:0:0:
256,192,19864,1,0,0:0:0:0:
256,192,19999,1,2,0:0:0:0:
256,192,20067,1,0,0:0:0:0:
256,192,20135,1,0,0:0:0:0:
256,192,20202,1,0,0:0:0:0:
256,192,20270,1,2,0:0:0:0:
256,192,20337,1,0,0:0:0:0:
256,192,20405,1,2,0:0:0:0:
256,192,20472,1,2,0:0:0:0:
256,192,20540,1,0,0:0:0:0:
256,192,20675,1,0,0:0:0:0:
256,192,20743,1,0,0:0:0:0:
256,192,20810,1,0,0:0:0:0:
256,192,20878,1,0,0:0:0:0:
256,192,20945,1,2,0:0:0:0:
256,192,21080,5,0,0:0:0:0:
256,192,21148,1,0,0:0:0:0:
256,192,21216,1,0,0:0:0:0:
256,192,21261,1,0,0:0:0:0:
256,192,21306,1,0,0:0:0:0:
256,192,21351,1,2,0:0:0:0:
256,192,21486,1,0,0:0:0:0:
256,192,21621,1,2,0:0:0:0:
256,192,21689,1,2,0:0:0:0:
256,192,21756,1,0,0:0:0:0:
256,192,21891,1,0,0:0:0:0:
256,192,22026,1,2,0:0:0:0:
256,192,22094,1,2,0:0:0:0:
256,192,22162,1,0,0:0:0:0:
256,192,22297,1,0,0:0:0:0:
256,192,22364,1,0,0:0:0:0:
256,192,22432,1,0,0:0:0:0:
256,192,22499,1,0,0:0:0:0:
256,192,22567,1,2,0:0:0:0:
256,192,22635,1,2,0:0:0:0:
256,192,22702,1,0,0:0:0:0:
256,192,22837,1,2,0:0:0:0:
256,192,22906,1,2,0:0:0:0:
256,192,22972,1,0,0:0:0:0:
256,192,23108,1,2,0:0:0:0:
256,192,23175,1,0,0:0:0:0:
256,192,23243,1,0,0:0:0:0:
256,192,23378,1,2,0:0:0:0:
256,192,23513,1,0,0:0:0:0:
256,192,23648,1,2,0:0:0:0:
256,192,23716,1,2,0:0:0:0:
256,192,23783,1,0,0:0:0:0:
256,192,23851,1,2,0:0:0:0:
256,192,23918,1,0,0:0:0:0:
256,192,24053,1,2,0:0:0:0:
256,192,24121,1,2,0:0:0:0:
256,192,24189,1,0,0:0:0:0:
256,192,24256,1,2,0:0:0:0:
256,192,24324,1,0,0:0:0:0:
256,192,24459,1,2,0:0:0:0:
256,192,24594,1,0,0:0:0:0:
256,192,24729,1,0,0:0:0:0:
256,192,24774,1,0,0:0:0:0:
256,192,24819,1,0,0:0:0:0:
256,192,24864,1,2,0:0:0:0:
256,192,24999,1,0,0:0:0:0:
256,192,25135,1,2,0:0:0:0:
256,192,25270,1,0,0:0:0:0:
256,192,25405,1,2,0:0:0:0:
256,192,25472,1,2,0:0:0:0:
256,192,25540,1,0,0:0:0:0:
256,192,25675,1,0,0:0:0:0:
256,192,25743,1,0,0:0:0:0:
256,192,25810,1,2,0:0:0:0:
256,192,25878,1,0,0:0:0:0:
256,192,25945,1,2,0:0:0:0:
256,192,26013,1,0,0:0:0:0:
256,192,26080,1,0,0:0:0:0:
256,192,26148,1,0,0:0:0:0:
256,192,26216,1,0,0:0:0:0:
256,192,26283,1,0,0:0:0:0:
256,192,26351,1,2,0:0:0:0:
256,192,26418,1,0,0:0:0:0:
256,192,26486,1,0,0:0:0:0:
256,192,26553,1,0,0:0:0:0:
256,192,26621,1,0,0:0:0:0:
256,192,26689,1,0,0:0:0:0:
256,192,26756,1,2,0:0:0:0:
256,192,26891,1,0,0:0:0:0:
256,192,26936,1,0,0:0:0:0:
256,192,26981,1,0,0:0:0:0:
256,192,27026,1,0,0:0:0:0:
256,192,27162,1,0,0:0:0:0:
256,192,27229,1,0,0:0:0:0:
256,192,27297,1,2,0:0:0:0:
256,192,27432,1,0,0:0:0:0:
256,192,27567,1,0,0:0:0:0:
256,192,27635,1,0,0:0:0:0:
256,192,27702,1,0,0:0:0:0:
256,192,27770,1,2,0:0:0:0:
256,192,27837,1,2,0:0:0:0:
256,192,27972,1,0,0:0:0:0:
256,192,28040,1,0,0:0:0:0:
256,192,28108,1,0,0:0:0:0:
256,192,28243,1,0,0:0:0:0:
256,192,28378,1,2,0:0:0:0:
256,192,28513,1,0,0:0:0:0:
256,192,28580,1,2,0:0:0:0:
256,192,28648,1,0,0:0:0:0:
256,192,28783,1,0,0:0:0:0:
256,192,28918,1,2,0:0:0:0:
256,192,29053,5,2,0:0:0:0:
256,192,29121,1,2,0:0:0:0:
256,192,29189,1,0,0:0:0:0:
256,192,29324,1,0,0:0:0:0:
256,192,29459,1,2,0:0:0:0:
256,192,29594,1,2,0:0:0:0:
256,192,29729,1,2,0:0:0:0:
256,192,29864,1,0,0:0:0:0:
256,192,29909,1,0,0:0:0:0:
256,192,29954,1,0,0:0:0:0:
256,192,29999,1,2,0:0:0:0:
256,192,30135,5,0,0:0:0:0:
256,192,30270,1,2,0:0:0:0:
256,192,30337,1,2,0:0:0:0:
256,192,30405,1,0,0:0:0:0:
256,192,30472,1,2,0:0:0:0:
256,192,30540,1,2,0:0:0:0:
256,192,30608,1,2,0:0:0:0:
256,192,30675,1,0,0:0:0:0:
256,192,30743,1,2,0:0:0:0:
256,192,30810,1,2,0:0:0:0:
256,192,30878,1,2,0:0:0:0:
256,192,30945,1,0,0:0:0:0:
256,192,31013,1,2,0:0:0:0:
256,192,31080,1,2,0:0:0:0:
256,192,31148,1,2,0:0:0:0:
256,192,31216,1,2,0:0:0:0:
256,192,31283,1,2,0:0:0:0:
256,192,31351,1,0,0:0:0:0:
256,192,31486,1,0,0:0:0:0:
256,192,31621,1,2,0:0:0:0:
256,192,31756,1,0,0:0:0:0:
256,192,31891,1,0,0:0:0:0:
256,192,32026,1,0,0:0:0:0:
256,192,32094,1,0,0:0:0:0:
256,192,32162,1,2,0:0:0:0:
256,192,32297,1,0,0:0:0:0:
256,192,32432,1,0,0:0:0:0:
256,192,32499,1,0,0:0:0:0:
256,192,32567,1,0,0:0:0:0:
256,192,32702,1,2,0:0:0:0:
256,192,32837,1,0,0:0:0:0:
256,192,32882,1,0,0:0:0:0:
256,192,32927,1,0,0:0:0:0:
256,192,32972,1,0,0:0:0:0:
256,192,33108,1,0,0:0:0:0:
256,192,33242,1,0,0:0:0:0:
256,192,33310,1,0,0:0:0:0:
256,192,33377,1,0,0:0:0:0:
256,192,33445,1,0,0:0:0:0:
256,192,33512,1,0,0:0:0:0:
256,192,33580,1,0,0:0:0:0:
256,192,33648,1,2,0:0:0:0:
336,288,33783,1,2,0:0:0:0:
256,192,33918,1,0,0:0:0:0:
256,192,33986,1,0,0:0:0:0:
256,192,34054,1,0,0:0:0:0:
256,192,34189,1,0,0:0:0:0:
256,192,34324,1,2,0:0:0:0:
256,192,34458,1,2,0:0:0:0:
256,192,34526,1,2,0:0:0:0:
256,192,34594,1,0,0:0:0:0:
256,192,34729,1,2,0:0:0:0:
256,192,34796,1,2,0:0:0:0:
256,192,34864,1,0,0:0:0:0:
256,192,34999,5,2,0:0:0:0:
256,192,35067,1,2,0:0:0:0:
256,192,35135,1,0,0:0:0:0:
256,192,35202,1,0,0:0:0:0:
256,192,35270,1,2,0:0:0:0:
256,192,35337,1,2,0:0:0:0:
256,192,35405,1,2,0:0:0:0:
256,192,35472,1,2,0:0:0:0:
256,192,35540,1,0,0:0:0:0:
256,192,35608,1,2,0:0:0:0:
256,192,35675,1,0,0:0:0:0:
256,192,35810,1,0,0:0:0:0:
256,192,35878,1,0,0:0:0:0:
256,192,35945,1,0,0:0:0:0:
256,192,36013,1,0,0:0:0:0:
256,192,36080,1,0,0:0:0:0:
256,192,36148,1,0,0:0:0:0:
256,192,36216,1,0,0:0:0:0:
256,192,36261,1,0,0:0:0:0:
256,192,36306,1,0,0:0:0:0:
256,192,36351,1,2,0:0:0:0:
256,192,36486,1,2,0:0:0:0:
256,192,36621,1,2,0:0:0:0:
256,192,36689,1,2,0:0:0:0:
256,192,36756,1,0,0:0:0:0:
256,192,36891,1,4,0:0:0:0:
256,192,37026,1,0,0:0:0:0:
256,192,37162,1,0,0:0:0:0:
256,192,37297,1,4,0:0:0:0:
256,192,37432,1,0,0:0:0:0:
256,192,37567,1,0,0:0:0:0:
256,192,37702,1,4,0:0:0:0:
256,192,37837,1,2,0:0:0:0:
256,192,37905,1,0,0:0:0:0:
256,192,37972,1,0,0:0:0:0:
256,192,38040,1,0,0:0:0:0:
256,192,38108,1,2,0:0:0:0:
256,192,38175,1,0,0:0:0:0:
256,192,38243,5,0,0:0:0:0:
256,192,38310,1,0,0:0:0:0:
256,192,38378,1,2,0:0:0:0:
256,192,38513,1,2,0:0:0:0:
256,192,38580,1,2,0:0:0:0:
256,192,38648,1,2,0:0:0:0:
256,192,38693,1,2,0:0:0:0:
256,192,38738,1,2,0:0:0:0:
256,192,38783,1,0,0:0:0:0:
256,192,38918,1,6,0:0:0:0:
256,192,39053,1,0,0:0:0:0:
256,192,39189,1,0,0:0:0:0:
256,192,39324,1,6,0:0:0:0:
256,192,39459,1,0,0:0:0:0:
256,192,39594,1,0,0:0:0:0:
256,192,39729,1,6,0:0:0:0:
256,192,39864,1,0,0:0:0:0:
256,192,39932,1,2,0:0:0:0:
256,192,39999,1,2,0:0:0:0:
256,192,40067,1,2,0:0:0:0:
256,192,40134,1,0,0:0:0:0:
256,192,40202,1,0,0:0:0:0:
256,192,40270,1,2,0:0:0:0:
256,192,40337,1,2,0:0:0:0:
256,192,40405,1,0,0:0:0:0:
256,192,40540,1,2,0:0:0:0:
256,192,40675,1,2,0:0:0:0:
256,192,40720,1,2,0:0:0:0:
256,192,40765,1,2,0:0:0:0:
256,192,40810,1,0,0:0:0:0:
256,192,40945,1,0,0:0:0:0:
256,192,41080,1,4,0:0:0:0:
256,192,41216,1,0,0:0:0:0:
256,192,41351,1,6,0:0:0:0:
256,192,41486,1,0,0:0:0:0:
256,192,41621,1,0,0:0:0:0:
256,192,41756,1,6,0:0:0:0:
256,192,41891,1,0,0:0:0:0:
256,192,41959,1,0,0:0:0:0:
256,192,42026,1,0,0:0:0:0:
256,192,42094,1,0,0:0:0:0:
256,192,42161,1,0,0:0:0:0:
256,192,42229,1,0,0:0:0:0:
256,192,42297,1,0,0:0:0:0:
256,192,42364,1,0,0:0:0:0:
256,192,42432,1,2,0:0:0:0:
256,192,42567,1,2,0:0:0:0:
256,192,42702,1,2,0:0:0:0:
256,192,42747,1,2,0:0:0:0:
256,192,42792,1,2,0:0:0:0:
256,192,42837,1,0,0:0:0:0:
256,192,42972,1,0,0:0:0:0:
256,192,43107,1,0,0:0:0:0:
256,192,43243,1,0,0:0:0:0:
256,192,43310,1,0,0:0:0:0:
256,192,43378,1,2,0:0:0:0:
256,192,43513,1,0,0:0:0:0:
256,192,43648,1,0,0:0:0:0:
256,192,43783,1,0,0:0:0:0:
256,192,43918,1,2,0:0:0:0:
256,192,43986,1,0,0:0:0:0:
256,192,44053,1,0,0:0:0:0:
256,192,44121,1,0,0:0:0:0:
256,192,44189,1,2,0:0:0:0:
256,192,44256,1,0,0:0:0:0:
256,192,44324,1,0,0:0:0:0:
256,192,44391,1,0,0:0:0:0:
256,192,44459,1,2,0:0:0:0:
256,192,44594,1,2,0:0:0:0:
256,192,44729,1,2,0:0:0:0:
256,192,44774,1,2,0:0:0:0:
252,164,44819,1,2,0:0:0:0:
256,192,44864,1,0,0:0:0:0:
256,192,44999,1,0,0:0:0:0:
256,192,45067,1,0,0:0:0:0:
256,192,45134,1,0,0:0:0:0:
256,192,45270,1,0,0:0:0:0:
256,192,45337,1,0,0:0:0:0:
256,192,45405,1,0,0:0:0:0:
256,192,45540,1,0,0:0:0:0:
256,192,45608,1,0,0:0:0:0:
256,192,45675,1,0,0:0:0:0:
256,192,45810,1,0,0:0:0:0:
256,192,45945,1,2,0:0:0:0:
256,192,46013,1,0,0:0:0:0:
256,192,46080,1,0,0:0:0:0:
256,192,46148,1,2,0:0:0:0:
256,192,46215,1,0,0:0:0:0:
256,192,46283,1,0,0:0:0:0:
256,192,46351,1,2,0:0:0:0:
256,192,46418,1,0,0:0:0:0:
256,192,46486,1,2,0:0:0:0:
256,192,46621,1,2,0:0:0:0:
256,192,46756,1,2,0:0:0:0:
256,192,46824,1,2,0:0:0:0:
256,192,46891,1,0,0:0:0:0:
256,192,47026,1,0,0:0:0:0:
256,192,47071,1,0,0:0:0:0:
256,192,47117,1,0,0:0:0:0:
256,192,47161,1,0,0:0:0:0:
256,192,47297,1,2,0:0:0:0:
256,192,47342,1,0,0:0:0:0:
256,192,47387,1,0,0:0:0:0:
256,192,47432,1,2,0:0:0:0:
256,192,47567,1,2,0:0:0:0:
256,192,47612,1,2,0:0:0:0:
256,192,47657,1,2,0:0:0:0:
256,192,47702,1,0,0:0:0:0:
256,192,47837,1,0,0:0:0:0:
256,192,47972,1,2,0:0:0:0:
256,192,48040,1,2,0:0:0:0:
256,192,48107,1,0,0:0:0:0:
256,192,48175,1,0,0:0:0:0:
256,192,48242,1,0,0:0:0:0:
256,192,48310,1,0,0:0:0:0:
256,192,48378,1,2,0:0:0:0:
256,192,48445,1,0,0:0:0:0:
256,192,48513,1,2,0:0:0:0:
256,192,48648,1,2,0:0:0:0:
256,192,48783,1,2,0:0:0:0:
256,192,48851,1,2,0:0:0:0:
256,192,48918,1,0,0:0:0:0:
256,192,49053,1,2,0:0:0:0:
256,192,49121,1,0,0:0:0:0:
256,192,49189,1,2,0:0:0:0:
256,192,49324,1,2,0:0:0:0:
256,192,49391,1,0,0:0:0:0:
256,192,49459,1,2,0:0:0:0:
256,192,49594,1,2,0:0:0:0:
256,192,49662,1,0,0:0:0:0:
256,192,49729,1,2,0:0:0:0:
256,192,49864,1,0,0:0:0:0:
256,192,49999,1,0,0:0:0:0:
256,192,50067,1,0,0:0:0:0:
256,192,50135,1,2,0:0:0:0:
256,192,50202,1,0,0:0:0:0:
256,192,50269,1,0,0:0:0:0:
256,192,50337,1,2,0:0:0:0:
256,192,50405,1,0,0:0:0:0:
256,192,50472,1,0,0:0:0:0:
256,192,50540,1,2,0:0:0:0:
256,192,50675,1,2,0:0:0:0:
256,192,50810,1,2,0:0:0:0:
256,192,50878,1,2,0:0:0:0:
256,192,50945,1,0,0:0:0:0:
256,192,51080,1,0,0:0:0:0:
256,192,51148,1,0,0:0:0:0:
256,192,51216,1,0,0:0:0:0:
256,192,51283,1,0,0:0:0:0:
256,192,51351,1,2,0:0:0:0:
256,192,51418,1,0,0:0:0:0:
256,192,51486,1,0,0:0:0:0:
256,192,51553,1,0,0:0:0:0:
256,192,51621,1,0,0:0:0:0:
256,192,51689,1,0,0:0:0:0:
256,192,51756,1,2,0:0:0:0:
256,192,51824,1,0,0:0:0:0:
256,192,51891,1,0,0:0:0:0:
256,192,51959,1,0,0:0:0:0:
256,192,52026,1,0,0:0:0:0:
256,192,52094,1,0,0:0:0:0:
256,192,52162,1,2,0:0:0:0:
256,192,52229,1,2,0:0:0:0:
256,192,52297,1,2,0:0:0:0:
256,192,52364,1,2,0:0:0:0:
256,192,52432,1,0,0:0:0:0:
256,192,52499,1,0,0:0:0:0:
256,192,52567,1,0,0:0:0:0:
256,192,52635,1,0,0:0:0:0:
256,192,52702,1,2,0:0:0:0:
256,192,52770,1,2,0:0:0:0:
256,192,52837,1,2,0:0:0:0:
256,192,52905,1,2,0:0:0:0:
256,192,52972,1,0,0:0:0:0:
256,192,53108,5,6,0:0:0:0:
256,192,53243,5,4,0:0:0:0:
256,192,53378,1,4,0:0:0:0:
256,192,53513,1,6,0:0:0:0:
256,192,53648,1,4,0:0:0:0:
256,192,53783,1,4,0:0:0:0:
256,192,53918,1,6,0:0:0:0:
256,192,54189,1,2,0:0:0:0:
256,192,54324,1,0,0:0:0:0:
256,192,54369,1,0,0:0:0:0:
256,192,54414,1,0,0:0:0:0:
256,192,54459,1,2,0:0:0:0:
256,192,54594,1,0,0:0:0:0:
256,192,54639,1,0,0:0:0:0:
256,192,54684,1,0,0:0:0:0:
256,192,54729,1,2,0:0:0:0:
256,192,54864,1,0,0:0:0:0:
256,192,54909,1,0,0:0:0:0:
256,192,54954,1,0,0:0:0:0:
256,192,54999,1,2,0:0:0:0:
256,192,55135,5,6,0:0:0:0:
256,192,55270,5,4,0:0:0:0:
256,192,55405,1,4,0:0:0:0:
256,192,55540,1,6,0:0:0:0:
256,192,55675,1,4,0:0:0:0:
256,192,55810,1,4,0:0:0:0:
256,192,55945,1,6,0:0:0:0:
256,192,56080,1,4,0:0:0:0:
256,192,56351,1,2,0:0:0:0:
256,192,56486,1,2,0:0:0:0:
256,192,56531,1,0,0:0:0:0:
256,192,56576,1,0,0:0:0:0:
256,192,56621,1,2,0:0:0:0:
256,192,56757,1,8,0:0:0:0:
256,192,56802,1,0,0:0:0:0:
256,192,56847,1,0,0:0:0:0:
256,192,56892,1,8,0:0:0:0:
256,192,57026,1,2,0:0:0:0:
256,192,57071,1,0,0:0:0:0:
256,192,57117,1,0,0:0:0:0:
256,192,57162,1,2,0:0:0:0:
256,192,57297,5,6,0:0:0:0:
256,192,57432,5,4,0:0:0:0:
256,192,57567,1,4,0:0:0:0:
256,192,57702,1,6,0:0:0:0:
256,192,57837,1,4,0:0:0:0:
256,192,57972,1,4,0:0:0:0:
256,192,58107,1,6,0:0:0:0:
256,192,58242,1,4,0:0:0:0:
256,192,58513,1,2,0:0:0:0:
256,192,58648,1,0,0:0:0:0:
256,192,58716,1,0,0:0:0:0:
256,192,58783,1,2,0:0:0:0:
256,192,58851,1,0,0:0:0:0:
256,192,58918,1,0,0:0:0:0:
256,192,59053,1,2,0:0:0:0:
256,192,59121,1,2,0:0:0:0:
256,192,59189,1,0,0:0:0:0:
256,192,59256,1,2,0:0:0:0:
256,192,59324,1,0,0:0:0:0:
256,192,59459,1,4,0:0:0:0:
256,192,59594,1,6,0:0:0:0:
256,192,59729,1,6,0:0:0:0:
256,192,59999,1,4,0:0:0:0:
256,192,60135,1,6,0:0:0:0:
256,192,60270,1,6,0:0:0:0:
256,192,60540,1,4,0:0:0:0:
256,192,60675,1,6,0:0:0:0:
256,192,60810,1,4,0:0:0:0:
256,192,60945,1,4,0:0:0:0:
256,192,61080,1,6,0:0:0:0:
256,192,61351,1,0,0:0:0:0:
256,192,61418,1,0,0:0:0:0:
256,192,61486,1,2,0:0:0:0:
256,192,61621,1,0,0:0:0:0:
256,192,61756,1,0,0:0:0:0:
256,192,61824,1,0,0:0:0:0:
256,192,61891,1,2,0:0:0:0:
256,192,62026,1,0,0:0:0:0:
256,192,62162,1,0,0:0:0:0:
256,192,62229,1,0,0:0:0:0:
256,192,62297,1,2,0:0:0:0:
256,192,62432,1,2,0:0:0:0:
256,192,62567,1,0,0:0:0:0:
256,192,62635,1,0,0:0:0:0:
256,192,62702,1,0,0:0:0:0:
256,192,62837,1,0,0:0:0:0:
256,192,62906,1,0,0:0:0:0:
256,192,62972,1,2,0:0:0:0:
256,192,63041,1,0,0:0:0:0:
256,192,63108,1,0,0:0:0:0:
256,192,63243,1,0,0:0:0:0:
256,192,63378,1,0,0:0:0:0:
256,192,63445,1,0,0:0:0:0:
256,192,63513,1,2,0:0:0:0:
256,192,63648,1,0,0:0:0:0:
256,192,63716,1,0,0:0:0:0:
256,192,63783,1,2,0:0:0:0:
256,192,63851,1,2,0:0:0:0:
256,192,63918,1,0,0:0:0:0:
256,192,64053,1,2,0:0:0:0:
256,192,64122,1,0,0:0:0:0:
256,192,64189,1,0,0:0:0:0:
256,192,64256,1,0,0:0:0:0:
256,192,64324,1,0,0:0:0:0:
256,192,64459,1,2,0:0:0:0:
256,192,64594,1,2,0:0:0:0:
256,192,64662,1,0,0:0:0:0:
256,192,64729,1,0,0:0:0:0:
256,192,64797,1,0,0:0:0:0:
256,192,64864,1,2,0:0:0:0:
256,192,65000,1,0,0:0:0:0:
256,192,65068,1,2,0:0:0:0:
256,192,65135,1,2,0:0:0:0:
256,192,65203,1,2,0:0:0:0:
256,192,65270,1,0,0:0:0:0:
256,192,65405,1,2,0:0:0:0:
256,192,65472,1,0,0:0:0:0:
256,192,65540,1,0,0:0:0:0:
256,192,65608,1,0,0:0:0:0:
256,192,65675,1,2,0:0:0:0:
256,192,65810,1,2,0:0:0:0:
256,192,65878,1,2,0:0:0:0:
256,192,65945,1,0,0:0:0:0:
256,192,66080,1,0,0:0:0:0:
256,192,66149,1,0,0:0:0:0:
256,192,66216,1,2,0:0:0:0:
256,192,66351,1,2,0:0:0:0:
256,192,66418,1,2,0:0:0:0:
256,192,66486,1,0,0:0:0:0:
256,192,66621,1,0,0:0:0:0:
256,192,66756,1,2,0:0:0:0:
256,192,66891,1,2,0:0:0:0:
256,192,66959,1,2,0:0:0:0:
256,192,67026,1,0,0:0:0:0:
256,192,67094,1,2,0:0:0:0:
256,192,67162,1,0,0:0:0:0:
256,192,67297,1,2,0:0:0:0:
256,192,67432,1,0,0:0:0:0:
256,192,67499,1,0,0:0:0:0:
256,192,67567,1,0,0:0:0:0:
256,192,67635,1,0,0:0:0:0:
256,192,67702,1,2,0:0:0:0:
256,192,67770,1,0,0:0:0:0:
256,192,67837,1,0,0:0:0:0:
256,192,67972,1,2,0:0:0:0:
256,192,68108,1,0,0:0:0:0:
256,192,68175,1,0,0:0:0:0:
256,192,68243,1,0,0:0:0:0:
256,192,68378,1,2,0:0:0:0:
256,192,68513,1,0,0:0:0:0:
256,192,68580,1,0,0:0:0:0:
256,192,68648,1,0,0:0:0:0:
256,192,68716,1,0,0:0:0:0:
256,192,68783,1,2,0:0:0:0:
256,192,68851,1,2,0:0:0:0:
256,192,68918,1,0,0:0:0:0:
256,192,68986,1,2,0:0:0:0:
256,192,69053,1,2,0:0:0:0:
256,192,69121,1,2,0:0:0:0:
256,192,69189,1,0,0:0:0:0:
256,192,69256,1,0,0:0:0:0:
256,192,69324,1,2,0:0:0:0:
256,192,69391,1,2,0:0:0:0:
256,192,69459,1,0,0:0:0:0:
256,192,69526,1,0,0:0:0:0:
256,192,69594,1,2,0:0:0:0:
256,192,69662,1,0,0:0:0:0:
256,192,69729,1,2,0:0:0:0:
256,192,69797,1,2,0:0:0:0:
256,192,69864,5,0,0:0:0:0:
256,192,69932,1,2,0:0:0:0:
256,192,69999,1,2,0:0:0:0:
256,192,70067,1,2,0:0:0:0:
256,192,70135,1,0,0:0:0:0:
256,192,70202,1,0,0:0:0:0:
256,192,70270,1,8,0:0:0:0:
256,192,70405,1,0,0:0:0:0:
256,192,70540,1,2,0:0:0:0:
256,192,70675,1,0,0:0:0:0:
256,192,70810,1,0,0:0:0:0:
256,192,70945,1,0,0:0:0:0:
256,192,71080,1,2,0:0:0:0:
256,192,71216,1,0,0:0:0:0:
256,192,71351,1,0,0:0:0:0:
256,192,71486,1,0,0:0:0:0:
256,192,71621,1,2,0:0:0:0:
256,192,71756,1,0,0:0:0:0:
256,192,71891,1,0,0:0:0:0:
256,192,72026,1,0,0:0:0:0:
256,192,72162,1,2,0:0:0:0:
256,192,72229,1,0,0:0:0:0:
256,192,72297,1,0,0:0:0:0:
256,192,72364,1,0,0:0:0:0:
256,192,72432,1,0,0:0:0:0:
256,192,72499,1,0,0:0:0:0:
256,192,72567,1,0,0:0:0:0:
256,192,72635,1,0,0:0:0:0:
256,192,72702,1,2,0:0:0:0:
256,192,72770,1,0,0:0:0:0:
256,192,72837,1,2,0:0:0:0:
256,192,72905,1,0,0:0:0:0:
256,192,72972,1,0,0:0:0:0:
256,192,73040,1,0,0:0:0:0:
256,192,73108,1,0,0:0:0:0:
256,192,73175,1,2,0:0:0:0:
256,192,73243,1,2,0:0:0:0:
256,192,73310,1,2,0:0:0:0:
256,192,73378,1,2,0:0:0:0:
256,192,73445,1,0,0:0:0:0:
256,192,73513,1,0,0:0:0:0:
256,192,73580,1,2,0:0:0:0:
256,192,73648,1,0,0:0:0:0:
256,192,73716,1,0,0:0:0:0:
256,192,73783,1,2,0:0:0:0:
256,192,73828,1,0,0:0:0:0:
256,192,73873,1,0,0:0:0:0:
256,192,73918,1,2,0:0:0:0:
256,192,73986,1,2,0:0:0:0:
256,192,74053,1,0,0:0:0:0:
256,192,74121,1,0,0:0:0:0:
256,192,74189,1,2,0:0:0:0:
256,192,74256,1,2,0:0:0:0:
256,192,74324,1,0,0:0:0:0:
256,192,74459,1,0,0:0:0:0:
256,192,74594,1,0,0:0:0:0:
256,192,74662,1,0,0:0:0:0:
256,192,74729,1,2,0:0:0:0:
256,192,74797,1,2,0:0:0:0:
256,192,74864,1,2,0:0:0:0:
256,192,74933,1,2,0:0:0:0:
256,192,74999,1,2,0:0:0:0:
256,192,75067,1,2,0:0:0:0:
256,192,75135,1,0,0:0:0:0:
256,192,75203,1,0,0:0:0:0:
256,192,75270,1,2,0:0:0:0:
256,192,75337,1,2,0:0:0:0:
256,192,75405,1,2,0:0:0:0:
256,192,75472,1,0,0:0:0:0:
256,192,75540,1,0,0:0:0:0:
256,192,75608,1,8,0:0:0:0:
256,192,75676,1,8,0:0:0:0:
256,192,75743,1,0,0:0:0:0:
256,192,75811,1,8,0:0:0:0:
256,192,75878,1,2,0:0:0:0:
256,192,75945,1,0,0:0:0:0:
256,192,76013,1,0,0:0:0:0:
256,192,76082,1,2,0:0:0:0:
256,192,76150,1,0,0:0:0:0:
256,192,76218,1,2,0:0:0:0:
256,192,76285,1,0,0:0:0:0:
256,192,76353,1,2,0:0:0:0:
256,192,76420,1,2,0:0:0:0:
256,192,76488,1,2,0:0:0:0:
256,192,76554,1,0,0:0:0:0:
256,192,76624,1,2,0:0:0:0:
256,192,76692,1,2,0:0:0:0:
256,192,76759,1,0,0:0:0:0:
256,192,76827,1,0,0:0:0:0:
256,192,76894,1,2,0:0:0:0:
256,192,76962,1,2,0:0:0:0:
256,192,77030,1,0,0:0:0:0:
256,192,77097,1,0,0:0:0:0:
256,192,77165,1,2,0:0:0:0:
256,192,77232,1,2,0:0:0:0:
256,192,77300,1,0,0:0:0:0:
256,192,77367,1,2,0:0:0:0:
256,192,77435,1,0,0:0:0:0:
256,192,77503,1,2,0:0:0:0:
256,192,77570,1,0,0:0:0:0:
256,192,77638,1,2,0:0:0:0:
256,192,77704,1,0,0:0:0:0:
256,192,77771,1,8,0:0:0:0:
256,192,77838,1,0,0:0:0:0:
256,192,77906,1,8,0:0:0:0:
256,192,77973,1,8,0:0:0:0:
256,192,78041,1,0,0:0:0:0:
256,192,78108,1,0,0:0:0:0:
256,192,78176,1,0,0:0:0:0:
256,192,78243,1,0,0:0:0:0:
256,192,78311,1,0,0:0:0:0:
256,192,78378,1,0,0:0:0:0:
256,192,78648,1,6,0:0:0:0:
336,32,78918,5,4,0:0:0:0:
256,192,87567,5,4,0:0:0:0:
256,192,87703,1,2,0:0:0:0:
256,192,87770,1,2,0:0:0:0:
256,192,87838,1,2,0:0:0:0:
256,192,87973,1,0,0:0:0:0:
256,192,88041,1,0,0:0:0:0:
256,192,88108,1,2,0:0:0:0:
256,192,88176,1,2,0:0:0:0:
256,192,88243,1,2,0:0:0:0:
256,192,88378,1,0,0:0:0:0:
256,192,88514,1,0,0:0:0:0:
256,192,88784,1,0,0:0:0:0:
256,192,89189,1,0,0:0:0:0:
256,192,89729,1,2,0:0:0:0:
256,192,89864,1,0,0:0:0:0:
256,192,89932,1,0,0:0:0:0:
256,192,89999,1,2,0:0:0:0:
256,192,90135,1,2,0:0:0:0:
256,192,90270,1,0,0:0:0:0:
256,192,90337,1,0,0:0:0:0:
256,192,90405,1,2,0:0:0:0:
256,192,90472,1,2,0:0:0:0:
256,192,90540,1,0,0:0:0:0:
256,192,90675,1,0,0:0:0:0:
256,192,90945,1,0,0:0:0:0:
256,192,91080,1,0,0:0:0:0:
256,192,91351,1,0,0:0:0:0:
256,192,91892,1,0,0:0:0:0:
256,192,91959,1,0,0:0:0:0:
256,192,92026,1,0,0:0:0:0:
256,192,92094,1,0,0:0:0:0:
256,192,92162,1,2,0:0:0:0:
256,192,92297,1,0,0:0:0:0:
256,192,92364,1,0,0:0:0:0:
256,192,92432,1,0,0:0:0:0:
256,192,92499,1,0,0:0:0:0:
256,192,92567,1,2,0:0:0:0:
256,192,92702,1,2,0:0:0:0:
256,192,92837,1,0,0:0:0:0:
256,192,93108,1,0,0:0:0:0:
256,192,93513,1,0,0:0:0:0:
256,192,94053,12,0,94864,0:0:0:0:
256,192,95135,5,2,0:0:0:0:
256,192,95270,1,2,0:0:0:0:
256,192,95405,1,2,0:0:0:0:
256,192,95450,1,2,0:0:0:0:
256,192,95495,1,2,0:0:0:0:
256,192,95540,1,0,0:0:0:0:
256,192,95810,1,0,0:0:0:0:
256,192,96080,1,0,0:0:0:0:
256,192,96216,1,2,0:0:0:0:
256,192,96351,1,2,0:0:0:0:
256,192,96486,1,2,0:0:0:0:
256,192,96621,1,0,0:0:0:0:
256,192,96756,1,0,0:0:0:0:
256,192,96891,1,2,0:0:0:0:
256,192,97026,1,2,0:0:0:0:
256,192,97071,1,2,0:0:0:0:
256,192,97117,1,2,0:0:0:0:
256,192,97162,1,0,0:0:0:0:
256,192,97432,1,2,0:0:0:0:
256,192,97477,1,0,0:0:0:0:
256,192,97522,1,0,0:0:0:0:
256,192,97567,1,0,0:0:0:0:
256,192,97702,1,0,0:0:0:0:
256,192,97837,1,0,0:0:0:0:
256,192,97972,1,2,0:0:0:0:
256,192,98108,1,0,0:0:0:0:
256,192,98378,5,4,0:0:0:0:
256,192,98648,1,2,0:0:0:0:
256,192,98716,1,0,0:0:0:0:
256,192,98783,1,0,0:0:0:0:
256,192,98918,1,0,0:0:0:0:
256,192,99053,1,0,0:0:0:0:
256,192,99121,1,0,0:0:0:0:
256,192,99189,1,2,0:0:0:0:
256,192,99324,1,0,0:0:0:0:
256,192,99391,1,0,0:0:0:0:
256,192,99459,1,2,0:0:0:0:
256,192,99594,1,0,0:0:0:0:
256,192,99662,1,0,0:0:0:0:
256,192,99729,1,2,0:0:0:0:
256,192,99797,1,2,0:0:0:0:
256,192,99864,1,0,0:0:0:0:
256,192,99999,1,2,0:0:0:0:
256,192,100135,1,0,0:0:0:0:
256,192,100180,1,0,0:0:0:0:
256,192,100225,1,0,0:0:0:0:
256,192,100270,1,2,0:0:0:0:
256,192,100405,1,0,0:0:0:0:
256,192,100540,1,6,0:0:0:0:
256,192,100810,1,2,0:0:0:0:
256,192,100855,1,2,0:0:0:0:
256,192,100900,1,2,0:0:0:0:
256,192,100945,1,0,0:0:0:0:
256,192,101013,1,0,0:0:0:0:
256,192,101080,1,2,0:0:0:0:
256,192,101216,1,2,0:0:0:0:
256,192,101351,1,2,0:0:0:0:
256,192,101418,1,2,0:0:0:0:
256,192,101486,1,2,0:0:0:0:
256,192,101621,1,2,0:0:0:0:
256,192,101756,1,0,0:0:0:0:
256,192,101824,1,0,0:0:0:0:
256,192,101891,1,2,0:0:0:0:
256,192,101959,1,2,0:0:0:0:
256,192,102026,1,2,0:0:0:0:
256,192,102162,1,2,0:0:0:0:
256,192,102297,1,0,0:0:0:0:
256,192,102364,1,0,0:0:0:0:
256,192,102432,1,2,0:0:0:0:
256,192,102567,1,4,0:0:0:0:
256,192,102702,1,6,0:0:0:0:
256,192,102972,1,2,0:0:0:0:
256,192,103040,1,0,0:0:0:0:
256,192,103108,1,0,0:0:0:0:
256,192,103243,1,0,0:0:0:0:
256,192,103378,1,0,0:0:0:0:
256,192,103445,1,2,0:0:0:0:
256,192,103513,1,0,0:0:0:0:
256,192,103648,1,0,0:0:0:0:
256,192,103716,1,0,0:0:0:0:
256,192,103783,1,2,0:0:0:0:
256,192,103851,1,0,0:0:0:0:
256,192,103918,1,2,0:0:0:0:
256,192,104053,1,0,0:0:0:0:
256,192,104121,1,0,0:0:0:0:
256,192,104189,1,0,0:0:0:0:
256,192,104256,1,0,0:0:0:0:
256,192,104324,1,2,0:0:0:0:
256,192,104391,1,2,0:0:0:0:
256,192,104459,1,2,0:0:0:0:
256,192,104526,1,2,0:0:0:0:
256,192,104594,1,0,0:0:0:0:
256,192,104662,1,2,0:0:0:0:
256,192,104729,1,2,0:0:0:0:
256,192,104797,1,0,0:0:0:0:
256,192,104865,1,8,0:0:0:0:
256,192,105150,1,2,0:0:0:0:
256,192,105285,1,0,0:0:0:0:
256,192,105406,1,0,0:0:0:0:
256,192,105555,5,0,0:0:0:0:
256,192,105623,1,0,0:0:0:0:
256,192,105690,1,2,0:0:0:0:
256,192,105735,1,2,0:0:0:0:
256,192,105780,1,2,0:0:0:0:
256,192,105825,1,0,0:0:0:0:
256,192,105961,1,0,0:0:0:0:
256,192,106096,1,0,0:0:0:0:
256,192,106163,1,0,0:0:0:0:
256,192,106231,1,2,0:0:0:0:
256,192,106366,1,0,0:0:0:0:
256,192,106433,1,0,0:0:0:0:
256,192,106501,1,2,0:0:0:0:
256,192,106569,1,2,0:0:0:0:
256,192,106636,1,2,0:0:0:0:
256,192,106771,1,0,0:0:0:0:
256,192,107042,1,4,0:0:0:0:
256,192,107177,1,0,0:0:0:0:
256,192,107312,5,2,0:0:0:0:
256,192,107447,1,0,0:0:0:0:
256,192,107515,1,0,0:0:0:0:
256,192,107582,1,2,0:0:0:0:
256,192,107650,1,2,0:0:0:0:
256,192,107717,1,0,0:0:0:0:
256,192,107852,1,2,0:0:0:0:
256,192,107920,1,0,0:0:0:0:
256,192,107988,1,0,0:0:0:0:
256,192,108055,1,2,0:0:0:0:
256,192,108123,1,0,0:0:0:0:
256,192,108190,1,0,0:0:0:0:
256,192,108258,1,2,0:0:0:0:
256,192,108325,1,0,0:0:0:0:
256,192,108393,1,0,0:0:0:0:
256,192,108461,1,0,0:0:0:0:
256,192,108528,1,2,0:0:0:0:
256,192,108596,1,0,0:0:0:0:
256,192,108663,1,0,0:0:0:0:
256,192,108731,1,0,0:0:0:0:
256,192,108798,1,2,0:0:0:0:
256,192,108933,1,6,0:0:0:0:
256,192,109204,1,4,0:0:0:0:
256,192,109271,1,0,0:0:0:0:
256,192,109339,1,0,0:0:0:0:
256,192,109406,1,0,0:0:0:0:
256,192,109474,1,2,0:0:0:0:
256,192,109542,1,0,0:0:0:0:
256,192,109609,1,0,0:0:0:0:
256,192,109677,1,2,0:0:0:0:
256,192,109744,1,2,0:0:0:0:
256,192,109812,1,0,0:0:0:0:
256,192,109879,1,2,0:0:0:0:
256,192,109947,1,2,0:0:0:0:
256,192,110015,1,2,0:0:0:0:
256,192,110082,1,0,0:0:0:0:
256,192,110150,1,0,0:0:0:0:
256,192,110217,1,2,0:0:0:0:
256,192,110285,1,0,0:0:0:0:
256,192,110352,1,2,0:0:0:0:
256,192,110420,1,2,0:0:0:0:
256,192,110488,1,0,0:0:0:0:
256,192,110555,1,2,0:0:0:0:
256,192,110623,1,2,0:0:0:0:
256,192,110690,1,2,0:0:0:0:
256,192,110758,1,0,0:0:0:0:
256,192,110825,1,0,0:0:0:0:
256,192,110893,1,2,0:0:0:0:
256,192,110961,1,2,0:0:0:0:
256,192,111028,1,0,0:0:0:0:
256,192,111096,1,2,0:0:0:0:
256,192,111163,1,0,0:0:0:0:
256,192,111381,5,6,0:0:0:0:
256,192,111516,1,4,0:0:0:0:
256,192,111651,1,4,0:0:0:0:
256,192,111786,1,6,0:0:0:0:
256,192,111921,1,4,0:0:0:0:
256,192,112057,1,4,0:0:0:0:
256,192,112192,1,4,0:0:0:0:
256,192,112327,1,6,0:0:0:0:
256,192,112447,1,4,0:0:0:0:
256,192,112597,1,4,0:0:0:0:
256,192,112732,1,4,0:0:0:0:
256,192,112867,1,6,0:0:0:0:
256,192,113003,1,4,0:0:0:0:
256,192,113138,1,4,0:0:0:0:
256,192,113273,1,6,0:0:0:0:
256,192,113408,1,6,0:0:0:0:
256,192,113528,1,4,0:0:0:0:
256,192,113663,12,2,115210,0:0:0:0:
256,192,115405,5,6,0:0:0:0:
256,192,115675,1,4,0:0:0:0:
