osu file format v9

[General]
AudioFilename: naotyu+-+Her_Majesty.mp3
AudioLeadIn: 500
PreviewTime: 18378
Countdown: 0
SampleSet: Soft
StackLeniency: 0.7
Mode: 0
LetterboxInBreaks: 0

[Editor]
DistanceSpacing: 1
BeatDivisor: 4
GridSize: 4

[Metadata]
Title:Her Majesty
Artist:naotyu-
Creator:Reisen Udongein
Version:Standard
Source:BMS
Tags:of Fighters BOF2009 BOF 2009 Black Jacks Progressive Breaks KRZY MMzz queen

[Difficulty]
HPDrainRate:4
CircleSize:4
OverallDifficulty:4
ApproachRate:5
SliderMultiplier:1
SliderTickRate:1

[Events]
//Background and Video events
0,0,"queen_stagefile.jpg"
//Break Periods
2,18578,25826
2,79118,86367
//Storyboard Layer 0 (Background)
//Storyboard Layer 1 (Fail)
//Storyboard Layer 2 (Pass)
//Storyboard Layer 3 (Foreground)
//Storyboard Sound Samples
//Background Colour Transformations
3,100,163,162,255

[TimingPoints]
1081,270.27027027027,4,2,0,60,1,0
9729,-100,4,2,1,60,0,0
16216,-100,4,2,1,30,0,0
27026,-100,4,2,1,80,0,0
27229,-100,4,2,2,80,0,0
27364,-100,4,2,1,80,0,0
29391,-100,4,2,2,80,0,0
29526,-100,4,2,1,80,0,0
31553,-100,4,2,2,80,0,0
31689,-100,4,2,1,80,0,0
61824,-100,4,2,2,80,0,0
61959,-100,4,2,1,80,0,0
62905,-100,4,2,2,80,0,0
63040,-100,4,2,1,80,0,0
63986,-100,4,2,2,80,0,0
64121,-100,4,2,1,80,0,0
65067,-100,4,2,2,80,0,0
65202,-100,4,2,1,80,0,0
66148,-100,4,2,2,80,0,0
66283,-100,4,2,1,80,0,0
67229,-100,4,2,2,80,0,0
67364,-100,4,2,1,80,0,0
68310,-100,4,2,2,80,0,0
68445,-100,4,2,1,80,0,0
88310,-100,4,2,2,80,0,0
88445,-100,4,2,1,80,0,0
90472,-100,4,2,2,80,0,0
90608,-100,4,2,1,80,0,0
92635,-100,4,2,2,80,0,0
92770,-100,4,2,1,80,0,0
98378,-100,4,2,1,80,0,1
100743,-100,4,2,2,80,0,1
100878,-100,4,2,1,80,0,1
101283,-100,4,2,2,80,0,1
101418,-100,4,2,1,80,0,1
105067,-100,4,2,2,80,0,1
105202,-100,4,2,1,80,0,1
105608,-100,4,2,2,80,0,1
105743,-100,4,2,1,80,0,1
106959,-100,4,2,1,80,0,0
107026,-100,4,2,1,80,0,1
109391,-100,4,2,2,80,0,1
109526,-100,4,2,1,80,0,1
109932,-100,4,2,2,80,0,1
110067,-100,4,2,1,80,0,1
111553,-100,4,2,2,80,0,1
111689,-100,4,2,1,80,0,1
115270,-100,4,2,1,70,0,1
115405,-100,4,2,1,60,0,1
115540,-100,4,2,1,50,0,1
115675,-100,4,2,1,40,0,0

[Colours]
Combo1 : 255,255,0
Combo2 : 87,244,34
Combo3 : 138,21,255
Combo4 : 247,199,72
Combo5 : 115,150,242

[HitObjects]
40,48,1081,2,0,B|136:180|308:136,1,300,4|0
400,168,2162,2,0,B|388:88|436:24,2,150,2|2|0
484,224,3243,6,0,B|428:288|348:252|348:252|268:216|212:280,1,300
116,256,4324,2,0,B|97:330|21:366,2,150,2|2|0
120,156,5405,6,0,B|172:104|256:80|340:104|392:156,1,300
456,232,6486,2,0,B|516:168|468:92,2,150,2|2|0
392,308,7567,6,0,B|340:372|256:332|256:332|172:372|120:308,1,300
199,248,8648,2,0,B|220:192|292:192|312:248,2,150,2|2|0
120,184,9729,6,2,B|52:136|64:52,2,150,4|0|0
124,284,10810,2,0,B|179:284|208:239,1,99.9999999999999,8|0
308,239,11351,2,0,B|336:283|392:283,1,99.9999999999999
392,184,11891,6,4,B|460:136|448:52,2,150,4|0|0
356,92,12972,1,8
304,176,13243,2,0,B|280:172|256:160|256:160|232:172|208:176,1,100
156,88,13783,1,0
120,184,14053,6,4,B|52:136|64:52,2,150,4|0|0
168,272,15135,2,0,B|204:232|256:228,1,99.9999999999999,8|0
344,276,15675,2,0,B|308:316|256:320,1,99.9999999999999
256,192,16216,12,0,17972
256,192,18378,21,4
120,144,27026,6,0,B|184:88|256:72|328:88|392:144,1,300,6|8
332,224,28108,2,0,B|303:262|307:318,1,99.9999999999999,2|8
207,318,28648,2,0,B|211:262|182:223,1,99.9999999999999,0|8
112,296,29189,6,0,B|55:204|95:104,1,200,6|0
160,28,29999,1,8
200,120,30270,2,0,B|256:132|296:96,1,99.9999999999999,2|8
364,168,30810,2,0,B|401:134|457:146,1,99.9999999999999,0|8
432,244,31351,6,0,B|407:357|289:358,1,200,4|0
196,324,32162,1,8
104,280,32432,2,0,B|4:260,1,100,2|8
8,160,32972,2,0,B|108:180,1,100,0|8
172,104,33513,6,0,B|252:108|320:60,1,150,6|2
464,52,34324,1,8
488,148,34594,2,0,B|436:132|388:156,1,100,2|8
332,236,35135,2,0,B|284:260|232:244,1,100,0|8
148,200,35675,6,0,B|120:288|192:336,2,150,6|2|8
236,248,36756,1,2
348,348,37162,1,2
376,200,37567,1,8
452,132,37837,6,0,B|488:164|488:236|452:268,2,150,6|2|8
396,48,38918,1,2
256,104,39324,1,2
116,48,39729,1,8
52,124,39999,6,0,B|-4:192|52:260,2,150,6|2|8
124,192,41080,1,2
176,332,41486,1,2
272,216,41891,1,8
368,248,42162,6,0,B|436:208|436:208|456:140,1,150,6|2
324,72,42972,2,0,B|276:104|228:72|228:72|180:40|132:72,1,200,8|0
40,96,43783,1,0
60,192,44053,1,12
160,172,44324,6,0,B|192:248|144:316,2,150,6|2|8
252,132,45405,1,2
396,96,45810,1,2
356,240,46216,1,8
436,300,46486,6,0,B|484:288|492:248|492:248|460:180,2,150,6|2|8
344,336,47567,1,2
204,280,47972,1,2
64,336,48378,1,8
108,248,48648,6,0,B|136:168|104:100,2,150,6|2|8
204,280,49729,1,2
288,156,50135,1,2
436,132,50540,1,8
256,192,50810,12,2,52972
500,188,53648,6,0,B|452:196|452:196|400:188,1,100,2|6
348,328,54324,1,8
256,364,54594,1,2
164,328,54864,1,8
112,244,55135,6,0,B|112:192|112:192|92:144,1,99.9999999999999,2|0
172,84,55675,1,0
172,84,55810,2,0,B|224:100|272:84,1,100,2|12
416,52,56486,5,8
456,144,56756,1,2
448,244,57026,1,8
376,316,57297,6,0,B|272:320,1,99.9999999999999,2|0
188,272,57837,1,0
188,272,57972,2,0,B|84:276,1,99.9999999999999,2|12
128,132,58648,5,8
204,64,58918,1,2
308,64,59189,1,8
384,132,59459,6,0,B|404:184|384:232,1,99.9999999999999,2|0
288,216,59999,2,0,B|268:268|288:316,1,99.9999999999999,2|0
188,324,60540,5,2
96,288,60810,1,2
64,192,61080,1,2
100,96,61351,1,2
188,60,61621,6,0,B|336:136|472:44,1,300,6|8
456,144,62702,2,0,B|408:244|492:328,1,200,2|0
392,344,63513,1,8
392,344,63783,6,0,B|325:299|253:347|253:347|181:395|109:347,1,300,2|8
12,340,64864,2,0,B|-4:268|85:207|148:260,1,200,2|0
172,156,65675,1,8
172,156,65945,6,0,B|264:16|432:48,1,300,2|8
380,136,67026,2,0,B|352:256|484:288,1,200,2|0
392,344,67837,1,8
392,344,68108,6,0,B|320:324|248:360|248:360|188:312|104:324,1,300,2|8
44,248,69189,2,0,B|20:200|36:152,1,99.9999999999999,0|8
120,96,69729,2,0,B|144:144|127:192,1,99.9999999999999,0|8
224,212,70270,6,0,B|328:244|420:184,1,200,2|2
472,104,71080,1,2
384,56,71351,2,0,B|336:24|288:56|288:56|240:88|192:56,2,200,2|2|2
480,232,72972,5,2
416,308,73243,1,2
320,280,73513,2,0,B|216:224|136:308,1,200,2|2
28,140,74594,6,0,B|104:56|212:100,1,200,2|2
256,188,75405,1,2
304,276,75675,2,0,B|410:319|486:235,2,200,2|2|2
108,312,77297,6,2,B|88:216,1,100,2|2
68,116,77837,1,2
264,80,78378,1,2
304,276,78918,5,4
64,192,87567,6,0,B|160:128|256:192|256:192|352:256|448:192,1,400,2|2
336,28,89189,1,2
448,192,89729,6,0,B|352:128|256:192|256:192|160:256|72:196,1,400,2|2
176,356,91351,1,2
64,192,91891,6,0,B|160:128|256:192|256:192|352:256|440:196,1,400,2|2
336,28,93513,1,2
388,220,94053,6,0,B|340:280|256:304|172:280|124:220,1,300,2|8
256,192,95135,12,6,98378
176,192,99459,6,0,B|144:152|156:92,1,99.9999999999999,2|8
228,32,99999,2,0,B|260:72|248:132,1,99.9999999999999,0|8
272,224,100540,6,0,B|372:188|472:244,2,200,6|0|2
212,304,101891,2,0,B|144:336|144:336|104:326|64:336,2,150,8|2|6
48,188,103243,5,0
180,40,103783,2,0,B|232:32|276:64,1,99.9999999999999,2|8
264,164,104324,2,0,B|308:196|360:188,1,99.9999999999999,0|8
436,252,104864,6,0,B|380:344|256:352,2,200,6|0|4
408,156,106216,2,0,B|408:128|420:104,1,50,0|6
324,80,106621,2,0,B|310:55|308:28,1,50,0|6
212,60,107026,6,0,B|160:48|112:80,1,99.9999999999999,6|8
84,172,107567,2,0,B|136:184|184:152,1,99.9999999999999,0|8
240,236,108108,2,0,B|283:206|335:218,1,99.9999999999999,2|8
400,292,108648,2,0,B|356:321|304:309,1,99.9999999999999,0|8
208,340,109189,6,0,B|144:248|32:284,2,200,6|0|2
224,240,110540,1,8
276,156,110810,1,0
368,116,111080,1,8
468,120,111351,6,0,B|482:201|418:253,1,150,4|6
256,132,112297,1,6
108,268,112837,2,0,B|53:274|25:318,1,100,6|2
256,192,113378,12,4,115675
