osu file format v6

[General]
AudioFilename: Zero One.mp3
AudioLeadIn: 1522
PreviewTime: 65527
Countdown: 1
SampleSet: Soft
StackLeniency: 0.4
Mode: 0
LetterboxInBreaks: 1

[Editor]
DistanceSpacing: 0.800000011920929
BeatDivisor: 4
GridSize: 16

[Metadata]
Title:Zero-One
Artist:nao.paradigm
Creator:Kytoxid
Version:Hard
Source:O2Jam
Tags:Techno

[Difficulty]
HPDrainRate:6
CircleSize:4
OverallDifficulty:6
SliderMultiplier:1.5
SliderTickRate:1

[Events]
//Background and Video events
0,0,"209_Zero-One.jpg"
//Break Periods
//Storyboard Layer 0 (Background)
//Storyboard Layer 1 (Fail)
//Storyboard Layer 2 (Pass)
//Storyboard Layer 3 (Foreground)
//Storyboard Sound Samples
//Background Colour Transformations
3,100,0,0,0

[TimingPoints]
887,408.163265306122,4,2,0,100,1,0
59282,-100,4,1,0,100,0,0
64806,-100,4,2,0,100,0,0
66215,-100,4,2,0,100,0,1
79072,-100,4,2,0,100,0,0
105194,-100,4,2,0,50,0,0

[Colours]
Combo1 : 198,4,4
Combo2 : 33,131,211
Combo3 : 217,141,38

[HitObjects]
256,192,887,1,2
320,192,1091,1,0
384,192,1295,1,0
255,192,1703,1,0
192,192,1907,1,0
16,32,2519,6,0,B|144:32,1,75,2|0
160,32,2927,2,0,B|272:32,1,75
304,32,3335,2,0,B|384:32,1,75
384,176,4152,5,4
384,320,4560,6,0,B|336:320,4,37.5
160,176,5989,5,2
96,176,6193,1,0
176,304,6601,1,0
240,304,6805,1,0
368,256,7213,6,0,B|368:176,1,75
368,112,7621,1,2
368,48,7825,1,0
224,48,8233,1,0
160,48,8438,1,0
80,272,9254,5,2
144,272,9458,1,0
256,272,9866,1,0
320,272,10070,1,0
432,64,10886,5,0
368,64,11091,2,0,B|304:64,4,37.5
256,192,12009,12,4,13948
256,192,14152,5,0
256,128,14356,1,0
256,128,14458,1,0
160,128,14764,1,2
96,128,14968,1,0
96,240,15376,5,2
96,304,15580,1,0
160,304,15784,1,0
250,304,16091,1,0
339,304,16397,1,2
400,304,16601,1,0
400,184,17009,5,2
280,184,17417,1,0
220,184,17621,1,0
190,184,17723,1,0
160,184,17825,1,0
130,184,17927,1,0
100,184,18029,1,2
40,184,18233,1,0
40,63,18642,5,2
160,63,19050,1,0
224,64,19254,2,0,B|293:65,1,37.5
347,63,19662,1,2
400,64,19866,1,0
464,160,20274,5,0
464,190,20376,1,0
451,217,20478,1,4
421,262,20682,1,0
395,277,20784,1,0
336,304,20989,1,0
240,320,21295,1,2
176,320,21499,1,0
80,256,21907,5,2
176,192,22315,1,0
176,192,22621,1,0
176,192,22927,1,2
240,192,23131,1,0
336,112,23540,5,2
224,64,23948,1,0
190,113,24152,1,0
173,138,24254,1,0
156,162,24356,1,0
139,187,24458,1,0
122,212,24560,1,2
88,261,24764,1,0
256,192,24968,12,2,27009
341,64,27213,6,0,B|416:64,2,75
288,64,27825,1,0
176,64,28233,2,0,B|112:144,1,75,2|0
176,240,28846,1,0
256,336,29254,1,0
336,240,29662,1,0
336,128,30070,2,0,B|336:176,2,37.5,0|0|2
304,80,30478,5,0
240,64,30682,1,0
176,80,30886,1,0
128,112,31091,1,2
96,160,31295,1,0
80,224,31499,1,0
96,288,31703,1,0
128,336,31907,5,2
192,352,32111,1,0
256,336,32315,1,0
304,304,32520,1,0
336,253,32724,1,2
352,192,32928,1,0
352,128,33132,5,2
304,80,33335,1,2
240,64,33540,2,0,B|160:48,4,75
240,128,34560,5,0
240,192,34764,1,2
240,256,34968,1,2
240,320,35172,2,0,B|320:304,5,75,0|2|0|2|0|2
448,192,36805,5,2
272,192,37417,1,2
160,192,37825,1,2
272,48,38438,1,2
400,256,39254,5,2
352,288,39458,1,0
288,304,39662,1,2
224,288,39866,1,0
176,256,40070,5,4
288,112,40682,1,4
112,288,42519,5,4
272,112,43335,1,4
272,112,43948,1,4
480,320,44968,5,2
416,320,45172,1,0
352,320,45376,1,2
288,320,45580,1,0
224,320,45784,5,4
224,80,46601,1,4
224,80,47213,1,4
448,192,48233,6,0,B|448:240,6,37.5,2|0|0|0|2|0|2
448,192,49050,5,4
208,192,49866,1,4
208,192,50478,1,4
368,128,51091,5,2
416,160,51295,1,0
464,192,51500,1,2
416,224,51703,1,0
368,256,51908,1,2
272,192,52315,5,4
16,192,53131,1,4
144,48,53744,1,4
256,192,53846,12,4,55580
256,192,56397,5,4
256,192,57009,1,4
256,192,57111,12,4,58846
384,192,59662,6,0,L|384:256,4,37.5,4|0|0|0|0
324,192,60274,2,0,L|324:128,4,37.5,4|0|0|0|0
264,192,60886,2,0,L|264:256,4,37.5,4|0|0|0|0
203,192,61499,2,0,L|203:128,4,37.5,4|0|0|0|0
143,192,62111,5,4
349,100,62927,1,4
349,280,63540,1,4
256,192,63642,12,4,66193
256,192,66397,5,0
320,192,66601,1,0
384,192,66805,1,0
448,192,67009,1,2
384,192,67213,1,0
448,192,67417,1,0
384,192,67621,1,0
128,192,68642,6,0,L|304:192,2,150,4|0|4
160,240,69662,1,0
208,272,69866,1,0
256,240,70070,1,4
64,256,70682,5,0
64,192,70886,1,0
64,128,71091,1,0
64,192,71295,1,0
128,192,71499,1,0
192,192,71703,1,0
256,192,71907,6,4,L|432:192,2,150,4|0|4
80,192,73335,1,4
80,192,73540,6,0,L|80:256,2,37.5,2|0|2
144,192,73948,2,0,L|144:128,2,37.5,2|0|2
208,192,74356,2,0,L|208:240,2,37.5,2|0|2
272,192,74764,2,0,L|272:144,2,37.5,2|0|2
336,192,75172,6,0,L|336:32,3,150,4|0|4|0
336,42,76601,1,4
272,48,76805,6,0,L|272:112,2,37.5,2|0|2
208,48,77213,2,0,L|208:-16,2,37.5,2|0|2
144,48,77621,2,0,L|144:96,2,37.5,2|0|2
80,48,78029,2,0,L|80:0,2,37.5,2|0|2
16,48,78438,6,0,L|16:224,1,150,4|0
16,256,79050,5,0
48,256,79152,1,0
80,256,79254,1,4
144,256,79458,1,0
208,256,79662,1,0
272,256,79866,1,4
336,256,80070,6,0,L|448:144,1,150,2|0
336,256,80886,2,0,L|464:384,1,150,2|0
336,256,81703,2,0,L|208:384,1,150,4|0
336,256,82519,6,4,L|160:80,1,225
112,96,83335,2,0,L|112:176,1,75,2|0
172,171,83744,1,0
292,171,84152,2,0,B|292:251,1,75,2|0
232,246,84560,1,0
112,246,84968,6,0,B|15:246,3,75,4|0|0|0
37,246,85784,1,4
217,246,86397,1,4
256,192,86499,12,4,88233
144,192,89050,6,4,B|384:192,1,225
256,192,89764,12,4,91499
256,272,91907,5,0
304,224,92111,1,0
320,208,92213,1,0
337,185,92315,5,0
320,128,92519,1,0
256,48,92825,1,0
192,128,93131,1,2
174,185,93335,1,0
256,304,93744,5,2
256,192,94152,1,0
256,192,94458,1,0
256,192,94764,1,2
256,128,94968,1,0
368,192,95376,5,2
256,192,95784,1,0
192,192,95989,1,0
192,192,96091,1,0
192,192,96193,1,0
192,192,96295,1,0
192,192,96397,1,2
128,192,96601,1,0
160,304,97009,5,2
272,304,97417,1,0
272,304,97723,1,0
272,304,98029,1,2
336,304,98233,1,0
384,192,98642,5,0
384,160,98744,1,0
384,128,98846,1,4
384,64,99050,1,0
304,16,99356,1,0
224,64,99662,1,2
224,128,99866,1,0
112,192,100274,5,2
112,304,100682,1,0
112,304,100989,1,0
112,304,101295,2,0,B|224:304,1,75,2|0
304,304,101907,5,2
416,304,102315,1,0
425,244,102519,1,0
393,228,102621,1,0
361,244,102723,1,0
329,228,102825,1,0
297,244,102927,1,2
304,304,103131,1,0
176,304,103540,5,2
96,224,103948,1,0
96,160,104152,1,2
122,146,104254,1,0
149,133,104356,1,2
176,120,104458,1,2
203,106,104560,1,2
256,80,104764,1,0
432,80,105376,5,12
