osu file format v6

[General]
AudioFilename: Zero One.mp3
AudioLeadIn: 1500
PreviewTime: 65527
Countdown: 1
SampleSet: Soft
StackLeniency: 0.4
Mode: 0
LetterboxInBreaks: 1

[Editor]
DistanceSpacing: 1
BeatDivisor: 2
GridSize: 16

[Metadata]
Title:Zero-One
Artist:nao.paradigm
Creator:Kytoxid
Version:Easy
Source:O2Jam
Tags:Techno

[Difficulty]
HPDrainRate:3
CircleSize:3
OverallDifficulty:3
SliderMultiplier:0.799999999999999
SliderTickRate:0.5

[Events]
//Background and Video events
0,0,"209_Zero-One.jpg"
//Break Periods
2,27209,38630
//Storyboard Layer 0 (Background)
//Storyboard Layer 1 (Fail)
//Storyboard Layer 2 (Pass)
//Storyboard Layer 3 (Foreground)
//Storyboard Sound Samples
//Background Colour Transformations
3,100,0,0,0

[TimingPoints]
887,408.163265306122,4,2,0,100,1,0
59282,-100,4,1,0,100,0,0
64806,-100,4,2,0,100,0,0
66215,-100,4,2,0,100,0,1
79270,-100,4,2,0,100,0,0
104576,-100,4,2,0,21,0,0

[Colours]
Combo1 : 198,4,4
Combo2 : 33,131,211
Combo3 : 217,141,38

[HitObjects]
256,192,887,1,4
96,192,1703,1,0
256,192,2519,1,2
416,192,3335,1,0
256,368,4560,6,0,B|256:272,1,79.9999999999999,0|4
256,32,7213,6,0,B|256:80,1,40
256,144,7825,1,2
112,192,8642,1,0
256,240,9458,1,2
400,192,10274,1,0
256,144,11091,6,0,B|256:256,1,79.9999999999999,0|4
256,192,11907,12,4,13948
256,192,14356,5,0
368,80,15172,1,0
256,192,15989,1,0
144,80,16805,1,0
256,192,17621,6,0,B|256:288,1,79.9999999999999
256,272,18438,1,0
336,128,19254,1,0
176,128,20070,1,0
256,128,20478,6,0,B|320:192,1,79.9999999999999,0|2
256,240,21295,2,0,B|192:176,1,79.9999999999999,0|2
119,183,22111,2,0,B|183:119,1,79.9999999999999,0|2
256,126,22927,2,0,B|332:204,1,79.9999999999999,0|2
256,64,24152,6,0,B|256:160,1,79.9999999999999
256,192,24968,12,4,27009
256,192,40070,5,4
256,192,40682,2,4,B|416:192,2,120,4|0|0
256,192,42519,5,4
256,192,43335,1,4
256,192,43948,2,4,B|128:192,2,120,4|0|0
256,192,45784,5,4
256,192,46601,1,4
256,192,47213,2,4,B|256:48,2,120,4|0|0
256,192,49050,5,4
256,192,49866,1,4
256,192,50478,2,4,B|256:320,2,120,4|0|0
256,192,52315,5,4
256,192,53131,1,4
256,192,53744,2,4,B|352:192|416:128|320:32|139:31,1,360
128,192,56397,5,4
128,304,57009,2,4,B|400:304|480:224|444:188,1,360
320,80,59662,5,4
240,96,60070,1,0
160,80,60478,1,0
176,160,60886,1,0
160,240,61295,1,4
240,224,61703,1,0
320,240,62111,1,0
304,160,62519,1,0
320,80,62927,6,0,B|212:191,1,120,4|4
320,80,65376,5,4
192,80,65989,2,0,B|128:80,1,40,0|4
80,80,66601,5,0
80,240,67417,1,0
224,304,68233,1,0
304,272,68642,1,6
384,240,69050,1,0
384,160,69458,1,6
288,80,70070,1,4
192,160,70682,5,0
135,216,71091,1,0
191,273,71499,1,0
271,273,71907,1,6
351,273,72315,1,0
408,216,72723,1,6
342,115,73335,1,6
238,46,73948,5,0
182,103,74356,1,0
125,160,74764,1,0
68,216,75172,1,6
68,296,75580,1,0
148,296,75989,1,6
269,296,76601,1,6
256,192,76805,12,4,79254
256,192,79662,5,8
112,112,80478,1,8
112,272,81295,1,8
256,192,82111,1,8
336,192,82519,6,0,B|464:192,1,120,4|4
400,96,83744,1,8
240,96,84560,1,8
80,96,85376,1,8
80,176,85784,6,4,B|80:320,1,120
192,240,87009,1,8
256,192,87417,2,0,B|256:288,1,79.9999999999999,0|8
336,272,88233,2,0,B|336:176,1,79.9999999999999,4|8
336,112,89050,6,4,B|192:112,1,120
256,224,90274,1,8
96,192,91091,1,8
256,160,91907,1,8
336,192,92315,5,4
416,192,92723,1,0
256,192,93540,1,8
96,192,94356,6,0,B|32:192,2,40,8|0|0
176,192,95172,1,8
256,192,95580,1,0
336,192,95989,6,0,B|400:192,2,40,8|0|4
256,192,96805,1,8
112,112,97621,1,8
112,272,98438,1,8
112,192,98846,6,0,B|368:192,1,240,4|8
432,192,100478,2,0,B|432:304,3,79.9999999999999,0|8|0|8
432,352,102111,6,0,B|160:352,1,240,0|8
112,352,103744,1,0
112,272,104152,6,0,B|144:272,12,20,2|2|2|2|0|0|0|0|0|0|0|0|12
