osu file format v5

[General]
AudioFilename: nao.paradigm - White Day.mp3
AudioLeadIn: 0
PreviewTime: -1
Countdown: 1
SampleSet: Soft
StackLeniency: 0.7
Mode: 0
EditorBookmarks: 12014,23866,36088,47569,62384,74605,86087,92012,104234,109789,124048,136825,148677

[Metadata]
Title:White Day
Artist:nao.paradigm
Creator:Sousei
Version:Normal
Source:
Tags:nao.paradigm o2jam White Day Sousei

[Difficulty]
HPDrainRate:4
CircleSize:5
OverallDifficulty:5
SliderMultiplier:1.7
SliderTickRate:2

[Events]
//Background and Video events
0,0,"WhiteDay.png"
//Break Periods
//Storyboard Layer 0 (Background)
//Storyboard Layer 1 (Failing)
//Storyboard Layer 2 (Passing)
//Storyboard Layer 3 (Foreground)
//Storyboard Sound Samples
//Background Colour Transformations
3,100,163,162,255

[TimingPoints]
12200,370.37037037037,4,1,0,100
24051,370.37037037037,4,2,0,100
62939,370.37037037037,4,1,0,100
86272,370.37037037037,4,2,0,100
92197,370.37037037037,4,1,0,100
109974,370.37037037037,4,2,0,100
125159,370.37037037037,4,1,0,100
148307,370.37037037037,4,2,0,100

[Colours]
Combo1 : 156,23,236
Combo2 : 221,2,2
Combo3 : 193,91,255
Combo4 : 243,126,10

[HitObjects]
256,192,12199,1,0
192,192,12385,1,0
128,192,12570,1,0
64,192,12755,1,0
64,320,13125,1,0
64,320,13311,1,0
192,320,13681,5,0
240,272,13866,1,0
192,224,14051,1,0
240,176,14237,1,0
368,176,14607,1,2
368,176,14792,1,2
368,48,15162,5,0
368,48,15348,1,0
304,48,15533,1,0
304,48,15718,1,0
160,48,16088,1,0
160,112,16274,1,0
160,176,16459,1,0
304,176,16829,1,0
368,176,17014,1,0
368,240,17199,1,0
304,336,17570,1,0
240,336,17755,1,0
176,336,17940,1,0
64,336,18311,1,0
64,336,18496,1,0
64,208,18866,5,0
192,208,19237,1,0
320,208,19607,1,0
448,208,19977,1,0
448,80,20348,1,0
320,80,20718,5,0
192,80,21088,1,0
144,128,21274,1,0
192,176,21459,1,0
240,128,21644,1,0
368,128,22014,2,0,B|368:304,1,170
256,192,24051,5,0
336,272,24421,2,2,B|144:272,1,170
176,112,25162,1,2
240,112,25347,2,2,B|432:112,1,170
416,224,26088,1,0
256,304,26643,5,0
256,240,26828,1,0
256,176,27013,1,0
144,176,27384,1,0
80,256,27754,2,0,B|272:256,1,170
304,256,28310,2,0,B|480:256,1,170
464,144,29050,1,0
464,144,29421,1,0
320,144,29976,5,4
192,144,30347,2,0,B|192:320,1,170
320,304,31088,1,0
320,304,31273,1,0
448,304,31643,1,0
448,192,32013,2,0,B|256:192,1,170
224,192,32569,5,2
224,192,32754,1,2
160,192,32939,2,2,B|160:16,1,170
224,32,33495,2,0,B|496:32,1,255
480,96,34236,1,0
352,96,34606,1,0
256,192,35532,5,2
256,192,35717,1,2
256,192,35902,1,6
352,144,36273,2,0,B|352:336,1,170
224,304,37013,1,0
224,304,37199,2,0,B|48:304,2,170
224,192,38495,5,0
224,128,38680,1,0
288,128,38865,1,2
416,128,39236,2,0,B|416:336,1,170
304,304,39976,1,0
304,240,40162,1,0
304,128,40532,1,0
176,128,40902,1,0
176,240,41273,1,0
176,240,41458,1,4
48,240,41828,5,0
256,80,42569,1,0
256,192,42939,1,0
256,304,43310,1,0
256,192,43680,1,2
256,192,43865,1,2
256,192,44421,12,4,47384
352,288,47754,2,0,B|176:288,3,170
176,176,49236,2,0,B|368:176,3,170
256,80,50717,1,0
256,192,51088,1,0
256,304,51458,1,0
128,304,51828,1,0
128,192,52199,2,0,B|128:80,1,85
192,112,52569,1,0
256,112,52754,2,0,B|256:208,1,85
192,176,53125,1,0
192,288,53495,6,0,B|384:288,1,170
362,288,54050,1,0
464,208,54421,1,0
368,128,54791,1,0
240,128,55162,1,0
96,128,55532,6,0,B|96:336,1,170
240,288,56273,1,2
304,288,56458,2,2,B|496:288,1,170
464,176,57199,1,2
464,176,57384,1,2
256,192,58125,12,2,62199
256,192,62569,1,4
352,272,62939,2,0,B|352:80,1,170
128,112,63864,2,0,B|128:288,1,170
192,288,64420,1,0
256,288,64605,2,0,B|432:288,1,170
426,288,65161,1,0
336,192,65531,6,0,B|144:192,2,170
176,64,66827,2,0,B|352:64,1,170
480,64,67568,2,0,B|480:272,1,170
480,304,68124,1,2
416,304,68309,1,2
256,304,68864,5,0
256,240,69050,1,0
256,176,69235,1,0
256,176,69420,1,0
128,160,69790,2,0,B|128:352,1,170
64,336,70346,1,0
64,160,70716,2,0,B|64:256,1,85
256,192,71457,5,4
304,80,71827,6,0,B|176:80,1,85
160,80,72198,1,0
160,144,72383,2,0,B|352:144,1,170
448,192,73124,1,0
448,192,73309,1,0
448,320,73679,1,0
384,320,73864,1,0
320,320,74050,2,4,B|320:272,4,42.5
192,320,74790,6,0,B|192:128,1,170
368,64,75716,2,0,B|160:64,1,170
128,64,76272,1,2
64,64,76457,2,0,B|64:256,1,170
64,288,77013,1,2
176,192,77383,6,0,B|352:192,2,170
336,320,78679,6,0,B|128:320,1,170
32,320,79420,2,0,B|32:128,1,170
32,150,79976,1,0
160,192,80346,1,0
288,192,80716,1,0
352,192,80901,1,0
448,288,81827,6,0,B|448:80,1,170
448,64,82383,2,0,B|272:64,1,170
256,192,83309,12,0,85901
256,192,86272,1,0
256,192,89234,1,4
256,192,90716,1,4
256,192,91457,1,4
256,192,92197,5,0
256,320,92567,1,0
384,320,92937,2,0,B|480:320,3,85
464,192,93863,1,0
464,192,94048,1,0
400,192,94234,1,0
336,192,94419,1,0
208,192,94789,1,4
64,192,95159,5,0
64,64,95530,1,0
208,64,95900,2,0,B|304:64,3,85
304,192,96826,1,0
304,192,97011,1,0
368,192,97197,1,0
432,192,97382,1,0
432,64,97752,1,4
320,64,98122,5,0
256,64,98308,2,2,B|144:64,2,85
256,128,98863,2,2,B|352:128,2,85
256,192,99419,2,2,B|160:192,2,85
256,256,99974,2,2,B|352:256,2,85
256,320,100530,2,2,B|160:320,2,85
320,320,101085,5,0
384,320,101271,1,0
448,320,101456,1,0
448,192,101826,1,0
384,192,102011,2,0,B|192:192,1,170
48,192,102752,1,0
48,192,102937,1,0
112,192,103122,1,0
176,192,103308,2,0,B|272:192,3,85
400,192,104419,5,0
256,192,104789,2,0,B|256:304,3,85
128,192,105715,5,0
128,192,105900,1,0
128,128,106085,1,0
128,64,106271,1,0
256,64,106641,1,4
256,192,107011,2,0,B|368:192,3,85
336,320,107937,2,0,B|208:320,2,85
256,192,109604,1,4
256,192,109974,5,0
304,240,110159,1,0
304,304,110344,1,2
256,352,110529,2,2,B|80:352,1,170
64,192,111455,2,0,B|240:192,1,170
288,192,112011,2,0,B|480:192,1,170
458,192,112566,1,0
464,64,112936,5,2
336,64,113307,1,0
208,64,113677,1,2
80,64,114048,1,0
80,192,114418,1,2
208,192,114788,1,2
208,192,114974,1,2
336,192,115344,1,0
464,192,115714,2,0,B|464:368,1,170
400,352,116270,1,0
96,320,117751,5,0
96,192,118122,1,0
224,192,118492,1,0
224,256,118677,2,2,B|32:256,1,170
48,112,119418,1,0
48,112,119603,1,0
256,192,120344,12,2,123307
256,192,124233,1,0
256,192,124418,1,2
256,192,124788,1,4
160,272,125159,6,0,B|160:80,1,170
368,96,126084,2,0,B|368:288,1,170
368,266,126640,1,2
432,272,126825,2,0,B|432:96,1,170
432,102,127381,1,2
304,96,127751,5,0
176,96,128121,1,0
48,96,128492,1,0
256,112,129047,6,0,B|256:304,3,170
256,282,130344,1,0
256,282,130529,1,0
432,192,131084,5,0
368,192,131270,1,0
304,192,131455,1,0
304,192,131640,2,0,B|96:192,1,170
134,192,132381,1,0
134,192,132566,1,0
256,192,132936,1,0
256,192,133121,1,0
432,64,134047,5,0
368,64,134233,1,0
304,64,134418,2,0,B|192:64,1,85
128,128,134973,2,0,B|320:128,1,170
352,128,135529,1,0
352,240,135899,1,0
416,240,136084,1,0
416,176,136270,2,4,B|464:176,4,42.5
272,176,137010,6,0,B|96:176,1,170
160,288,137936,2,0,B|160:96,1,170
224,112,138492,1,0
288,112,138677,2,0,B|464:112,1,170
464,176,139233,1,0
256,288,139603,6,0,B|256:80,2,170
64,304,140899,5,0
64,176,141269,1,0
64,48,141640,2,0,B|240:48,1,170
234,48,142196,1,0
240,176,142566,2,0,B|416:176,1,170
464,176,143121,1,0
176,160,144047,6,0,B|368:160,1,170
352,224,144603,2,0,B|160:224,1,170
256,128,145529,5,0
320,192,145714,1,0
256,256,145899,1,0
192,192,146084,1,0
256,192,146455,5,0
256,192,146640,1,0
256,192,146825,12,0,147751
256,192,148121,1,4
256,192,148492,5,4
