osu file format v5

[General]
AudioFilename: nao.paradigm - White Day.mp3
AudioLeadIn: 0
PreviewTime: -1
Countdown: 1
SampleSet: Normal
StackLeniency: 0.7
Mode: 0
EditorBookmarks: 10718,23866,36088,47569,62199,74420,86087,92012,98122,104604,109789,124048,136640,148677

[Metadata]
Title:White Day
Artist:nao.paradigm
Creator:Sousei
Version:Hard
Source:
Tags:

[Difficulty]
HPDrainRate:6
CircleSize:5
OverallDifficulty:7
SliderMultiplier:1.7
SliderTickRate:2

[Events]
//Background and Video events
0,0,"WhiteDay.png"
//Break Periods
//Storyboard Layer 0 (Background)
//Storyboard Layer 1 (Failing)
//Storyboard Layer 2 (Passing)
//Storyboard Layer 3 (Foreground)
//Storyboard Sound Samples
//Background Colour Transformations
3,100,163,162,255

[TimingPoints]
12200,370.37037037037,4,1,0,100
24051,370.37037037037,4,2,0,100
62939,370.37037037037,4,1,0,100
86272,370.37037037037,4,2,0,100
92197,370.37037037037,4,1,0,100
109974,370.37037037037,4,2,0,100
125159,370.37037037037,4,1,0,100
148307,370.37037037037,4,2,0,100

[Colours]
Combo1 : 156,23,236
Combo2 : 221,2,2
Combo3 : 193,91,255
Combo4 : 243,126,10

[HitObjects]
256,192,10903,1,0
256,192,10996,1,0
256,192,11088,1,0
256,192,11459,1,0
256,192,11829,12,0,12199
224,240,12385,1,0
272,288,12570,1,0
336,288,12755,1,0
448,208,13125,2,0,B|448:80,1,85
400,96,13496,2,0,B|336:64|288:96,1,85
304,144,13866,5,0
256,192,14051,1,0
192,160,14237,1,0
144,112,14422,1,0
144,48,14607,2,2,B|208:32|240:64,1,85
288,64,14977,5,2
352,64,15162,1,0
416,64,15348,1,0
384,128,15533,2,0,B|272:128,1,85
176,128,16088,1,0
128,176,16274,1,0
160,240,16459,2,0,B|256:272|352:240,1,170
384,240,17014,1,0
432,288,17199,1,0
288,320,17570,1,0
224,320,17755,2,0,B|160:304|176:240,1,85
176,160,18311,1,0
240,160,18496,5,0
384,160,18866,1,0
368,96,19051,1,0
320,48,19237,1,0
272,96,19422,5,0
160,48,19792,1,0
112,96,19977,1,0
112,160,20162,5,0
144,224,20348,1,0
144,224,20533,1,0
208,224,20718,6,0,B|288:192|384:224,1,170
448,320,21459,1,0
448,256,21644,1,0
352,160,22014,1,0
208,160,22385,1,0
96,240,22755,5,0
48,192,22940,1,0
80,64,23311,1,0
144,64,23496,1,0
208,64,23681,1,0
256,112,23866,1,0
304,160,24051,6,2,B|256:192|208:160,1,85
176,128,24421,2,2,B|144:176|176:224,1,85
224,240,24791,2,2,B|336:256|384:176,1,170
368,128,25347,1,2
432,144,25532,1,0
448,208,25717,2,2,B|400:288|304:304,1,170
128,288,26643,5,0
192,288,26828,1,0
256,288,27013,2,0,B|304:256|256:192,1,85
208,224,27384,2,0,B|192:176|256:144,1,85
304,144,27754,2,0,B|480:144,1,170
464,80,28310,2,0,B|272:80,1,170
160,80,29050,1,0
16,80,29421,1,2
16,144,29606,5,2
16,208,29791,1,2
80,176,29976,1,4
160,288,30347,6,0,B|256:288,1,85
304,288,30717,1,0
368,288,30902,1,0
432,288,31088,2,0,B|432:240|368:208,1,85
256,224,31643,1,0
144,144,32013,1,0
320,48,32569,5,0
320,112,32754,2,0,B|224:112,1,85
192,160,33125,1,0
256,176,33310,2,0,B|240:224|192:224,1,85
137,198,33680,1,0
144,263,33865,1,0
208,288,34050,1,2
272,288,34236,2,0,B|448:288,1,170
416,112,35347,5,2
368,160,35532,1,2
320,112,35717,1,2
256,144,35902,2,0,B|256:48,1,85
192,64,36273,6,0,B|96:64,1,85
48,64,36643,2,0,B|48:160|128:224,1,170
160,256,37199,2,0,B|208:288|256:288,1,85
304,288,37569,1,2
368,272,37754,2,0,B|432:256|448:224,1,85
288,112,38495,5,0
288,176,38680,1,0
288,240,38865,2,0,B|240:272|192:224,1,85
224,176,39236,2,0,B|128:128|32:192,1,170
64,320,39976,1,0
128,320,40162,2,0,B|224:320,1,85
208,256,40532,2,0,B|304:256,1,85
288,192,40902,2,0,B|480:192,1,170
458,192,41458,5,4
304,64,41828,6,0,B|416:64|464:160,1,170
464,272,42569,1,0
336,272,42939,1,0
208,272,43310,2,0,B|208:160|304:112,1,170
336,128,43865,1,2
288,224,44421,5,0
224,224,44606,2,0,B|144:160|48:224,1,170
144,304,45347,1,0
256,304,45717,1,0
315,272,45902,1,0
256,192,46088,12,2,47013
256,192,47384,1,4
240,64,47754,5,0
192,112,47939,1,0
256,128,48125,1,2
208,176,48310,2,2,B|288:208|400:160,1,170
336,112,48865,1,0
368,64,49050,1,0
400,112,49236,5,2
448,160,49421,1,2
384,176,49606,1,0
432,224,49791,1,2
400,272,49976,1,0
336,272,50162,1,2
304,208,50347,1,0
320,144,50532,1,2
384,128,50717,6,0,B|368:80|304:80,1,85
256,112,51088,2,0,B|240:160|272:192,1,85
320,224,51458,2,0,B|352:256|320:304,1,85
256,304,51828,1,2
112,304,52199,1,0
48,160,52569,5,0
48,224,52754,2,0,B|224:224,1,170
304,128,53495,1,0
416,208,53865,1,0
416,272,54050,1,0
288,304,54421,5,0
192,240,54791,1,2
144,288,54976,1,2
64,208,55347,1,0
112,160,55532,6,0,B|288:160,1,170
112,96,56273,1,0
176,96,56458,2,0,B|176:272,1,170
304,288,57199,1,2
368,288,57384,1,2
416,80,58125,5,0
320,176,58495,1,2
176,176,58865,1,0
112,176,59050,1,0
176,288,59421,1,0
320,288,59791,1,0
432,240,59976,1,0
400,192,60162,5,2
368,192,60254,1,2
336,192,60347,1,2
272,192,60532,1,0
208,192,60717,1,0
144,192,60902,1,2
144,64,61273,1,0
272,64,61643,1,2
368,144,62013,1,4
368,144,62199,1,4
256,192,62384,12,4,62569
288,272,62939,2,0,B|112:272,1,170
80,224,63494,1,4
128,176,63679,1,4
192,176,63864,2,0,B|288:224|384:160,1,170
400,224,64420,1,0
432,288,64605,2,0,B|256:288,1,170
208,288,65161,1,0
64,144,65531,5,0
112,192,65716,1,0
48,208,65901,2,2,B|112:288,1,85
154,245,66272,1,0
176,112,66827,6,0,B|384:112,1,170
352,288,67568,2,0,B|160:288,1,170
144,192,68124,1,0
368,192,68309,1,0
256,320,68864,5,4
256,256,69050,2,4,B|256:160,1,85
256,112,69420,1,4
384,32,69790,2,0,B|384:240,1,170
384,256,70346,1,0
256,304,70716,1,0
192,304,70901,1,0
128,304,71087,5,0
128,272,71179,1,0
128,240,71272,1,0
128,208,71364,1,0
128,176,71457,1,4
288,80,71827,5,0
352,80,72013,2,0,B|352:128|288:144,1,85
240,144,72383,1,0
128,48,72753,2,0,B|128:240,1,170
192,208,73309,1,0
256,320,73679,1,0
320,320,73864,1,0
384,320,74050,5,0
384,288,74142,1,0
384,256,74235,1,0
384,224,74327,1,0
384,192,74420,6,4,B|288:160|208:192,1,170
112,256,75161,1,0
112,192,75346,1,4
112,128,75531,1,4
176,128,75716,2,0,B|368:128,1,170
256,192,76272,1,0
176,256,76457,2,0,B|368:256,1,170
346,256,77013,1,0
416,128,77383,6,0,B|448:192|400:224,1,85
368,176,77753,1,0
304,176,77938,1,0
240,176,78124,2,0,B|48:176,1,170
64,240,78679,6,0,B|144:272|240:240,1,170
288,272,79235,1,0
336,224,79420,2,0,B|368:144|336:48,1,170
272,64,79976,2,0,B|80:64,1,170
96,176,80716,1,0
160,176,80901,1,0
224,176,81087,5,0
224,288,81457,1,0
160,288,81642,1,0
96,288,81827,6,2,B|96:80,1,170
160,112,82383,2,2,B|160:320,1,170
400,144,83309,5,0
368,208,83494,1,0
320,256,83679,1,0
256,288,83864,2,0,B|64:288,1,170
86,288,84420,1,0
256,192,84605,12,0,85531
256,192,85716,1,0
256,192,85901,1,2
256,192,85994,1,2
256,192,86087,1,2
256,192,86272,5,4
256,192,86642,1,0
256,192,87012,1,0
448,304,87568,6,0,B|272:304,1,170
208,304,88123,1,2
144,304,88309,2,0,B|48:304,1,85
64,240,88679,1,2
64,176,88864,1,2
256,192,89234,5,4
256,192,89605,1,0
256,192,89975,1,0
32,48,90531,6,0,B|208:48,1,170
320,48,91272,2,0,B|512:48,1,170
496,112,91827,1,2
496,176,92012,1,2
496,240,92197,5,0
352,240,92567,1,0
224,240,92937,1,0
224,176,93122,1,0
224,112,93308,1,0
288,112,93493,1,0
128,112,93863,1,0
64,112,94048,1,0
64,176,94234,5,0
64,240,94419,1,0
112,288,94604,1,2
176,288,94789,1,2
336,288,95159,5,0
336,160,95530,1,0
336,32,95900,1,0
400,32,96085,1,0
464,32,96271,1,0
464,32,96456,1,0
464,192,96826,5,0
416,144,97011,1,0
368,192,97197,1,0
320,144,97382,1,0
272,192,97567,1,0
224,144,97752,1,4
224,144,97937,1,4
160,144,98122,6,0,B|160:208|224:208,1,85
256,256,98493,1,0
320,256,98678,1,2
384,256,98863,2,0,B|480:256,1,85
464,192,99234,1,2
400,192,99419,2,0,B|400:96,1,85
336,112,99789,5,2
288,64,99974,2,0,B|256:112|288:160,1,85
336,176,100345,1,2
384,224,100530,2,0,B|336:256|288:224,1,85
247,204,100900,1,2
247,138,101085,6,0,B|151:138,1,85
128,192,101456,2,0,B|128:288,1,85
192,304,101826,2,0,B|288:304,1,85
336,304,102196,1,0
368,240,102382,2,0,B|176:240,1,170
144,208,102937,1,0
80,208,103122,2,0,B|80:144|144:144,1,85
192,144,103493,1,0
142,88,103678,1,0
192,48,103863,2,0,B|480:48,1,255
448,192,104789,5,0
304,192,105159,1,0
304,256,105345,1,0
160,256,105715,1,0
160,320,105900,1,0
224,320,106085,1,0
288,320,106271,1,0
432,320,106641,1,0
432,192,107011,5,0
384,144,107196,1,0
432,96,107382,1,0
384,48,107567,2,0,B|192:48,1,170
176,96,108122,1,0
176,160,108308,2,0,B|176:352,1,170
240,336,108863,5,0
240,272,109048,1,0
240,208,109234,1,0
240,208,109604,5,4
64,64,109974,5,2
112,112,110159,1,2
64,160,110344,1,2
112,208,110529,2,0,B|208:208,1,85
192,272,110899,1,2
256,272,111085,2,2,B|256:176,1,85
320,192,111455,1,0
384,192,111640,1,0
384,128,111825,6,2,B|384:32,1,85
448,48,112196,1,2
448,112,112381,2,0,B|448:208,1,85
448,256,112751,1,2
400,304,112936,6,0,B|320:336|224:304,1,170
224,160,113677,2,0,B|304:128|400:160,1,170
224,240,114418,6,0,B|400:240,1,170
394,240,114974,1,2
394,240,115344,1,2
256,240,115714,2,0,B|80:240,1,170
80,304,116270,2,0,B|176:304,1,85
224,304,116640,5,0
288,272,116825,1,0
352,240,117011,1,0
416,208,117196,1,0
368,160,117381,1,0
304,192,117566,1,0
240,224,117751,6,0,B|64:224,1,170
48,64,118492,1,2
96,112,118677,2,2,B|288:112,1,170
400,112,119418,1,2
400,176,119603,1,2
336,304,120344,6,0,B|128:304,1,170
256,192,121085,1,2
256,192,121270,1,2
176,64,121640,2,0,B|368:64,1,170
256,192,122196,12,4,123307
256,192,124233,5,0
256,192,124418,1,2
256,192,124603,12,4,124788
176,96,125159,2,0,B|352:96,1,170
416,96,125714,1,4
416,96,125899,1,4
416,160,126084,2,0,B|416:336,1,170
352,336,126640,1,0
288,336,126825,2,0,B|288:144,1,170
352,160,127381,1,0
256,64,127751,5,0
192,64,127936,1,0
128,64,128121,2,2,B|16:64,1,85
43,64,128492,1,0
192,160,129047,6,0,B|144:240|192:336,1,170
320,160,129788,2,0,B|368:240|320:336,1,170
256,320,130344,1,0
256,256,130529,1,0
256,192,130714,5,0
256,48,131084,5,0
256,112,131270,1,0
256,112,131455,1,0
256,176,131640,2,0,B|256:352,1,170
128,336,132381,1,4
128,272,132566,2,4,B|128:176,1,85
128,128,132936,1,4
192,128,133121,1,0
256,128,133307,5,0
256,128,133399,1,0
256,128,133492,1,0
256,128,133584,1,0
256,128,133677,1,4
256,272,134047,5,0
320,272,134233,1,0
384,272,134418,2,0,B|496:272,1,85
464,128,134973,2,0,B|272:128,1,170
224,128,135529,1,0
96,128,135899,1,0
96,192,136084,1,0
96,256,136270,5,0
96,256,136362,1,0
96,256,136455,1,0
96,256,136547,1,0
96,256,136640,6,4,B|304:256,1,170
352,336,137381,1,0
288,336,137566,5,4
224,336,137751,1,4
160,336,137936,2,0,B|160:160,1,170
224,176,138492,1,0
224,112,138677,2,0,B|416:112,1,170
448,112,139233,1,0
448,272,139603,6,0,B|400:304|336:256,1,85
400,224,139973,1,0
400,160,140158,1,0
336,160,140344,2,0,B|144:160,1,170
96,160,140899,6,0,B|96:336,1,170
160,208,141640,2,0,B|336:208,1,170
330,208,142196,1,0
400,320,142566,1,0
272,320,142936,1,0
208,320,143121,1,0
144,320,143307,5,0
144,208,143677,1,0
144,144,143862,1,0
208,144,144047,6,2,B|400:144,1,170
384,208,144603,2,2,B|176:208,1,170
256,96,145529,5,0
256,160,145714,1,0
256,224,145899,1,0
256,288,146084,1,0
256,192,146455,5,0
256,192,146640,1,0
256,192,146825,12,0,147751
256,192,148121,5,0
256,192,148307,12,0,148492
