osu file format v5

[General]
AudioFilename: nao.paradigm - White Day.mp3
AudioLeadIn: 0
PreviewTime: -1
Countdown: 1
SampleSet: Normal
StackLeniency: 0.7
Mode: 0
EditorBookmarks: 12014,23866,36088,47569,62384,74605,86087,92012,104234,109789,124048,136825,148677

[Metadata]
Title:White Day
Artist:nao.paradigm
Creator:Sousei
Version:Easy
Source:
Tags:

[Difficulty]
HPDrainRate:2
CircleSize:5
OverallDifficulty:3
SliderMultiplier:1.5
SliderTickRate:2

[Events]
//Background and Video events
0,0,"WhiteDay.png"
//Break Periods
//Storyboard Layer 0 (Background)
//Storyboard Layer 1 (Failing)
//Storyboard Layer 2 (Passing)
//Storyboard Layer 3 (Foreground)
//Storyboard Sound Samples
//Background Colour Transformations
3,100,163,162,255

[TimingPoints]
12200,740.740740740741,4,1,0,100

[Colours]
Combo1 : 156,23,236
Combo2 : 221,2,2
Combo3 : 193,91,255
Combo4 : 243,126,10

[HitObjects]
256,192,12199,2,0,B|416:192,1,150
416,64,13681,2,0,B|240:64,1,150
128,64,15162,2,0,B|128:160,4,75
128,240,17385,1,0
256,240,18125,1,0
400,240,18866,2,0,B|400:160,2,75
400,96,20348,1,0
256,160,21088,2,0,B|256:256,4,75
256,192,23681,1,0
256,256,24051,6,0,B|96:256,1,150
112,128,25533,2,0,B|272:128,1,150
416,144,27014,1,0
416,208,27385,1,0
416,272,27755,1,0
272,272,28496,2,0,B|272:96,1,150
208,128,29607,1,0
144,128,29977,6,0,B|144:304,1,150
256,272,31459,1,0
256,272,31829,1,0
256,272,32199,1,0
400,272,32940,2,0,B|400:112,1,150
256,96,34422,2,0,B|80:96,1,150
96,160,35533,1,0
96,160,35718,1,0
80,272,36274,6,0,B|272:336|272:208|464:320,1,375
448,240,38496,1,0
448,176,38866,1,0
384,176,39237,2,0,B|288:176,5,75
240,176,41459,1,0
176,176,41829,6,0,B|176:16,1,150
240,32,42940,1,0
304,32,43311,2,0,B|400:32,1,75
379,32,43866,1,0
256,192,44422,12,0,47385
336,256,47755,2,0,B|160:256,1,150
176,112,49237,2,0,B|352:112,1,150
128,192,50718,1,0
192,192,51088,1,0
256,192,51459,1,0
320,192,51829,1,0
384,192,52200,1,0
384,320,52940,5,0
256,320,53681,1,0
256,192,54422,1,0
256,48,55162,1,0
112,48,55903,1,0
112,192,56644,2,0,B|112:288,1,75
112,336,57385,1,0
256,192,58125,12,0,62200
176,192,62570,2,0,B|256:224|352:176,1,150
400,288,63866,6,0,B|304:288,1,75
288,288,64422,1,0
256,288,64607,2,0,B|144:288,1,75
144,288,65162,1,0
256,192,65533,5,0
256,192,65903,1,0
256,192,66274,1,0
416,192,66829,2,0,B|416:96,1,75
336,64,67570,2,0,B|256:64,1,75
224,64,68125,1,0
192,64,68311,1,0
128,192,68866,6,0,B|192:192,3,37.5
128,256,69792,2,0,B|240:256,1,75
240,256,70348,1,0
400,256,70718,1,0
400,256,70903,1,0
400,112,71829,5,0
368,112,72014,1,0
336,112,72200,1,0
304,112,72385,1,0
176,112,72755,2,0,B|176:208,1,75
176,224,73311,1,0
176,288,73681,1,0
176,288,73866,1,0
256,192,74422,5,0
256,192,74792,1,0
256,192,75162,1,0
368,192,75718,6,0,B|368:288,1,75
352,288,76274,1,0
320,288,76459,2,0,B|224:288,1,75
208,288,77014,1,0
176,192,77385,6,0,B|352:192,1,150
320,64,78681,5,0
256,64,79051,1,0
192,64,79422,1,0
128,64,79792,1,0
128,64,79977,1,0
128,128,80348,2,0,B|128:240,1,75
128,203,80903,1,0
208,320,81829,6,0,B|320:320,3,75
256,192,83311,12,0,86274
256,192,89237,5,0
256,192,90718,1,0
256,192,91459,1,0
448,304,92200,6,0,B|64:304,1,375
64,240,94422,1,0
64,176,94792,1,0
64,112,95162,2,0,B|448:112,1,375
448,176,97385,1,0
448,240,97755,1,0
448,304,98125,5,0
448,304,98311,2,0,B|384:304,13,37.5
304,304,101088,6,0,B|192:304,1,75
224,240,101829,2,0,B|304:240,1,75
304,176,102570,2,0,B|208:176,1,75
224,112,103311,2,0,B|320:112,1,75
304,48,104051,2,0,B|224:48,1,75
160,48,104792,5,0
160,192,105533,1,0
160,336,106274,1,0
336,336,107014,1,0
336,272,107385,1,0
336,208,107755,1,0
336,48,108496,1,0
464,144,109237,1,0
448,288,109977,6,0,B|192:288,1,225
224,224,111459,2,0,B|464:224,1,225
432,160,112940,1,0
368,160,113311,1,0
304,160,113681,1,0
240,160,114051,1,0
176,160,114422,2,0,B|176:272,3,75
176,304,115903,1,0
48,304,116644,5,0
48,160,117385,1,0
192,160,118125,1,0
336,160,118866,1,0
464,160,119607,1,0
256,192,120348,12,0,123311
256,192,124237,1,0
256,192,124423,1,0
256,128,124792,6,0,B|144:128,2,75
384,128,126088,6,0,B|384:224,1,75
384,240,126644,1,0
352,256,126829,2,0,B|240:256,1,75
272,224,127385,1,0
240,96,127755,6,0,B|128:96,1,75
96,96,128496,1,0
96,224,129051,6,0,B|352:224,1,225
321,224,130348,1,0
321,224,130533,1,0
320,336,131088,6,0,B|384:336,3,37.5
448,336,132014,2,0,B|448:208,1,112.5
448,160,132940,1,0
448,160,133125,1,0
288,160,133681,1,0
160,160,134051,2,0,B|160:208,3,37.5
48,208,134977,2,0,B|48:96,1,75
48,96,135533,1,0
176,80,135903,1,0
176,80,136088,1,0
304,80,136644,6,0,B|304:192,1,75
304,224,137385,1,0
304,336,137940,6,0,B|416:336,1,75
416,336,138496,1,0
432,304,138681,2,0,B|432:208,1,75
432,192,139237,1,0
368,192,139607,6,0,B|368:288,2,75
384,80,140903,2,0,B|208:80,1,150
128,80,142014,1,0
128,80,142200,1,0
128,144,142570,1,0
192,144,142940,1,0
192,144,143125,1,0
160,272,144051,6,0,B|400:272,1,225
256,192,145533,12,0,148125
256,192,148496,5,0
