osu file format v13

[General]
AudioFilename: nao.paradigm - Jinglebell Mega Mix.mp3
AudioLeadIn: 0
PreviewTime: 53238
Countdown: 0
SampleSet: Normal
StackLeniency: 0.7
Mode: 3
LetterboxInBreaks: 0
SpecialStyle: 0
WidescreenStoryboard: 0

[Editor]
DistanceSpacing: 1
BeatDivisor: 4
GridSize: 32
TimelineZoom: 1.1

[Metadata]
Title:Jinglebell Mega Mix
TitleUnicode:Jinglebell Mega Mix
Artist:nao.paradigm
ArtistUnicode:nao.paradigm
Creator:PROGUY
Version:7K Hard
Source:O2Jam
Tags:christmas
BeatmapID:563400
BeatmapSetID:244397

[Difficulty]
HPDrainRate:9
CircleSize:7
OverallDifficulty:8
ApproachRate:5
SliderMultiplier:1.4
SliderTickRate:1

[Events]
//Background and Video events
0,0,"asdf.jpg",0,0
//Break Periods
//Storyboard Layer 0 (Background)
//Storyboard Layer 1 (Fail)
//Storyboard Layer 2 (Pass)
//Storyboard Layer 3 (Foreground)
//Storyboard Sound Samples

[TimingPoints]
72,333.333333333333,4,1,0,35,1,0
53405,-100,4,1,0,35,0,1
64071,-100,4,1,0,35,0,0
74738,-100,4,1,0,35,0,1
85405,-100,4,1,0,35,0,0
98738,-100,4,2,0,35,0,0
117405,-100,4,1,0,35,0,0
130738,-100,4,1,0,35,0,1
141405,-100,4,1,0,35,0,0

[HitObjects]
256,192,72,5,4,0:0:0:0:
36,192,72,1,0,0:0:0:0:
36,192,405,1,0,0:0:0:0:
36,192,738,1,0,0:0:0:0:
36,192,1071,1,0,0:0:0:0:
36,192,1238,1,0,0:0:0:0:
36,192,1571,1,0,0:0:0:0:
36,192,1905,1,0,0:0:0:0:
402,192,1905,1,0,0:0:0:0:
402,192,2238,1,0,0:0:0:0:
36,192,2238,1,0,0:0:0:0:
256,192,2405,1,4,0:0:0:0:
402,192,2571,1,0,0:0:0:0:
36,192,2571,1,0,0:0:0:0:
256,192,2738,1,4,0:0:0:0:
109,192,2738,1,0,0:0:0:0:
329,192,2738,1,0,0:0:0:0:
109,192,3071,1,0,0:0:0:0:
329,192,3071,1,0,0:0:0:0:
109,192,3405,1,0,0:0:0:0:
329,192,3405,1,0,0:0:0:0:
109,192,3738,1,0,0:0:0:0:
329,192,3738,1,0,0:0:0:0:
182,192,3905,1,0,0:0:0:0:
475,192,3905,1,0,0:0:0:0:
182,192,4238,1,0,0:0:0:0:
475,192,4238,1,0,0:0:0:0:
182,192,4571,1,0,0:0:0:0:
475,192,4571,1,0,0:0:0:0:
182,192,4905,1,0,0:0:0:0:
475,192,4905,1,0,0:0:0:0:
182,192,5071,1,0,0:0:0:0:
475,192,5071,1,0,0:0:0:0:
256,192,5071,1,4,0:0:0:0:
329,192,5155,1,4,0:0:0:0:
402,192,5238,1,4,0:0:0:0:
329,192,5321,1,4,0:0:0:0:
256,192,5405,1,4,0:0:0:0:
36,192,5405,1,0,0:0:0:0:
36,192,5738,1,0,0:0:0:0:
36,192,6071,1,0,0:0:0:0:
36,192,6405,1,0,0:0:0:0:
36,192,6571,1,0,0:0:0:0:
36,192,6905,1,0,0:0:0:0:
36,192,7238,1,0,0:0:0:0:
402,192,7238,1,0,0:0:0:0:
36,192,7571,1,0,0:0:0:0:
402,192,7571,1,0,0:0:0:0:
256,192,7738,1,4,0:0:0:0:
36,192,7905,1,0,0:0:0:0:
402,192,7905,1,0,0:0:0:0:
256,192,8071,1,4,0:0:0:0:
109,192,8071,1,0,0:0:0:0:
329,192,8071,1,0,0:0:0:0:
109,192,8405,1,0,0:0:0:0:
329,192,8405,1,0,0:0:0:0:
109,192,8738,1,0,0:0:0:0:
329,192,8738,1,0,0:0:0:0:
109,192,9071,1,0,0:0:0:0:
329,192,9071,1,0,0:0:0:0:
182,192,9238,1,0,0:0:0:0:
402,192,9238,1,0,0:0:0:0:
182,192,9571,1,0,0:0:0:0:
402,192,9571,1,0,0:0:0:0:
182,192,9905,1,0,0:0:0:0:
402,192,9905,1,0,0:0:0:0:
256,192,10071,1,4,0:0:0:0:
182,192,10238,1,0,0:0:0:0:
402,192,10238,1,0,0:0:0:0:
256,192,10238,1,4,0:0:0:0:
256,192,10405,1,4,0:0:0:0:
475,192,10405,1,0,0:0:0:0:
36,192,10405,1,0,0:0:0:0:
182,192,10488,1,0,0:0:0:0:
475,192,10571,1,0,0:0:0:0:
182,192,10655,1,0,0:0:0:0:
36,192,10738,1,0,0:0:0:0:
329,192,10738,1,0,0:0:0:0:
256,192,10738,1,4,0:0:0:0:
36,192,11071,1,0,0:0:0:0:
329,192,11071,1,0,0:0:0:0:
36,192,11405,1,0,0:0:0:0:
329,192,11405,1,0,0:0:0:0:
36,192,11738,1,0,0:0:0:0:
329,192,11738,1,0,0:0:0:0:
329,192,11905,1,0,0:0:0:0:
36,192,12071,1,0,0:0:0:0:
329,192,12238,1,0,0:0:0:0:
36,192,12405,1,0,0:0:0:0:
329,192,12571,1,0,0:0:0:0:
36,192,12738,1,0,0:0:0:0:
329,192,12905,1,0,0:0:0:0:
36,192,13071,1,0,0:0:0:0:
475,192,13238,1,0,0:0:0:0:
182,192,13405,1,0,0:0:0:0:
36,192,13405,1,0,0:0:0:0:
36,192,13738,1,0,0:0:0:0:
182,192,13738,1,0,0:0:0:0:
329,192,14071,1,0,0:0:0:0:
36,192,14071,1,0,0:0:0:0:
36,192,14405,1,0,0:0:0:0:
329,192,14405,1,0,0:0:0:0:
475,192,14571,1,0,0:0:0:0:
36,192,14738,1,0,0:0:0:0:
475,192,14905,1,0,0:0:0:0:
36,192,15071,1,0,0:0:0:0:
475,192,15238,1,0,0:0:0:0:
475,192,15405,1,0,0:0:0:0:
36,192,15405,1,0,0:0:0:0:
402,192,15571,1,0,0:0:0:0:
329,192,15738,1,0,0:0:0:0:
36,192,15738,1,0,0:0:0:0:
402,192,16071,1,0,0:0:0:0:
36,192,16071,1,0,0:0:0:0:
36,192,16405,1,0,0:0:0:0:
402,192,16405,1,0,0:0:0:0:
36,192,16738,1,0,0:0:0:0:
402,192,16738,1,0,0:0:0:0:
36,192,17071,1,0,0:0:0:0:
402,192,17071,1,0,0:0:0:0:
402,192,17238,1,0,0:0:0:0:
36,192,17405,1,0,0:0:0:0:
402,192,17571,1,0,0:0:0:0:
36,192,17738,1,0,0:0:0:0:
402,192,17905,1,0,0:0:0:0:
36,192,18071,1,0,0:0:0:0:
402,192,18238,1,0,0:0:0:0:
36,192,18405,1,0,0:0:0:0:
256,192,18571,1,0,0:0:0:0:
329,192,18738,1,0,0:0:0:0:
182,192,18821,1,0,0:0:0:0:
329,192,18905,1,0,0:0:0:0:
182,192,18988,1,0,0:0:0:0:
329,192,19071,1,0,0:0:0:0:
182,192,19155,1,0,0:0:0:0:
329,192,19238,1,0,0:0:0:0:
182,192,19321,1,0,0:0:0:0:
402,192,19405,1,0,0:0:0:0:
109,192,19488,1,0,0:0:0:0:
402,192,19571,1,0,0:0:0:0:
109,192,19655,1,0,0:0:0:0:
402,192,19738,1,0,0:0:0:0:
109,192,19821,1,0,0:0:0:0:
402,192,19905,1,0,0:0:0:0:
109,192,19988,1,0,0:0:0:0:
329,192,20071,1,0,0:0:0:0:
182,192,20155,1,0,0:0:0:0:
329,192,20238,1,0,0:0:0:0:
182,192,20321,1,0,0:0:0:0:
402,192,20405,1,0,0:0:0:0:
109,192,20488,1,0,0:0:0:0:
402,192,20571,1,0,0:0:0:0:
109,192,20655,1,0,0:0:0:0:
475,192,20738,1,0,0:0:0:0:
36,192,20821,1,0,0:0:0:0:
475,192,20905,1,0,0:0:0:0:
36,192,20988,1,0,0:0:0:0:
329,192,21071,1,0,0:0:0:0:
182,192,21155,1,0,0:0:0:0:
329,192,21238,1,0,0:0:0:0:
182,192,21321,1,0,0:0:0:0:
256,192,21405,1,4,0:0:0:0:
402,192,21405,1,0,2:0:0:0:
475,192,21405,1,0,2:0:0:0:
36,192,21405,1,0,0:0:0:0:
36,192,21738,1,0,0:0:0:0:
36,192,22071,1,0,0:0:0:0:
402,192,22071,1,0,2:0:0:0:
475,192,22071,1,0,2:0:0:0:
256,192,22238,1,0,2:0:0:0:
329,192,22238,1,0,2:0:0:0:
329,192,22405,1,0,2:0:0:0:
402,192,22405,1,0,2:0:0:0:
36,192,22405,1,0,0:0:0:0:
402,192,22571,1,0,2:0:0:0:
475,192,22571,1,0,2:0:0:0:
36,192,22571,1,0,0:0:0:0:
36,192,22905,1,0,0:0:0:0:
36,192,23238,1,0,0:0:0:0:
36,192,23571,1,0,0:0:0:0:
109,192,23571,1,0,2:0:0:0:
256,192,23571,1,0,2:0:0:0:
182,192,23738,1,0,2:0:0:0:
329,192,23738,1,0,2:0:0:0:
256,192,23905,1,0,2:0:0:0:
402,192,23905,1,0,2:0:0:0:
109,192,23905,1,0,0:0:0:0:
329,192,24071,1,0,2:0:0:0:
402,192,24071,1,0,2:0:0:0:
36,192,24071,1,0,0:0:0:0:
329,192,24405,1,0,2:0:0:0:
402,192,24405,1,0,2:0:0:0:
36,192,24405,1,0,0:0:0:0:
109,192,24738,1,0,0:0:0:0:
256,192,24738,1,0,2:0:0:0:
402,192,24738,1,0,2:0:0:0:
256,192,24905,1,0,2:0:0:0:
329,192,24905,1,0,2:0:0:0:
109,192,25071,1,0,0:0:0:0:
329,192,25071,1,0,2:0:0:0:
402,192,25071,1,0,2:0:0:0:
402,192,25238,1,0,2:0:0:0:
475,192,25238,1,0,2:0:0:0:
182,192,25238,1,0,0:0:0:0:
182,192,25571,1,0,0:0:0:0:
402,192,25738,1,0,2:0:0:0:
475,192,25738,1,0,2:0:0:0:
182,192,25905,1,0,0:0:0:0:
182,192,26071,1,0,0:0:0:0:
109,192,26238,1,0,0:0:0:0:
36,192,26405,1,0,0:0:0:0:
402,192,26405,1,0,2:0:0:0:
475,192,26405,1,0,2:0:0:0:
256,192,26738,1,4,0:0:0:0:
36,192,26738,1,0,0:0:0:0:
182,192,26738,1,0,2:0:0:0:
402,192,26738,1,0,2:0:0:0:
36,192,27071,1,0,0:0:0:0:
36,192,27405,1,0,0:0:0:0:
182,192,27405,1,0,2:0:0:0:
402,192,27405,1,0,2:0:0:0:
109,192,27571,1,0,2:0:0:0:
329,192,27571,1,0,2:0:0:0:
36,192,27738,1,0,0:0:0:0:
182,192,27738,1,0,2:0:0:0:
402,192,27738,1,0,2:0:0:0:
256,192,27905,1,0,2:0:0:0:
475,192,27905,1,0,2:0:0:0:
36,192,28071,1,0,0:0:0:0:
329,192,28238,1,0,0:0:0:0:
36,192,28405,1,0,0:0:0:0:
329,192,28571,1,0,0:0:0:0:
36,192,28738,1,0,0:0:0:0:
109,192,28905,1,0,2:0:0:0:
256,192,28905,1,0,2:0:0:0:
36,192,29071,1,0,0:0:0:0:
182,192,29071,1,0,2:0:0:0:
329,192,29071,1,0,2:0:0:0:
256,192,29238,1,0,2:0:0:0:
402,192,29238,1,0,2:0:0:0:
329,192,29405,1,0,2:0:0:0:
475,192,29405,1,0,2:0:0:0:
36,192,29405,1,0,0:0:0:0:
36,192,29738,1,0,0:0:0:0:
329,192,30071,1,0,2:0:0:0:
256,192,30071,1,0,2:0:0:0:
36,192,30071,1,0,0:0:0:0:
109,192,30238,1,0,2:0:0:0:
182,192,30238,1,0,2:0:0:0:
256,192,30405,1,0,2:0:0:0:
329,192,30405,1,0,2:0:0:0:
36,192,30405,1,0,0:0:0:0:
402,192,30571,1,0,2:0:0:0:
475,192,30571,1,0,2:0:0:0:
109,192,30738,1,0,0:0:0:0:
402,192,30738,1,0,2:0:0:0:
475,192,30738,1,0,2:0:0:0:
256,192,30821,1,0,0:0:0:0:
109,192,30905,1,0,0:0:0:0:
256,192,30988,1,0,0:0:0:0:
36,192,31071,1,0,0:0:0:0:
182,192,31155,1,0,0:0:0:0:
329,192,31238,1,0,2:0:0:0:
36,192,31238,1,0,0:0:0:0:
182,192,31321,1,0,0:0:0:0:
109,192,31405,1,0,0:0:0:0:
256,192,31488,1,0,0:0:0:0:
109,192,31571,1,0,0:0:0:0:
402,192,31571,1,0,2:0:0:0:
256,192,31655,1,0,0:0:0:0:
402,192,31738,1,0,2:0:0:0:
36,192,31738,1,0,0:0:0:0:
182,192,31821,1,0,0:0:0:0:
36,192,31905,1,0,0:0:0:0:
402,192,31905,1,0,2:0:0:0:
182,192,31988,1,0,0:0:0:0:
256,192,32071,1,4,0:0:0:0:
36,192,32071,1,0,2:0:0:0:
329,192,32071,1,0,2:0:0:0:
329,192,32405,1,0,2:0:0:0:
36,192,32405,1,0,2:0:0:0:
36,192,32738,1,0,2:0:0:0:
329,192,32738,1,0,2:0:0:0:
36,192,33071,1,0,2:0:0:0:
329,192,33071,1,0,2:0:0:0:
36,192,33238,1,0,2:0:0:0:
329,192,33238,1,0,2:0:0:0:
256,192,33571,1,0,2:0:0:0:
475,192,33571,1,0,2:0:0:0:
36,192,33738,1,0,2:0:0:0:
256,192,33738,1,0,2:0:0:0:
109,192,33905,1,0,2:0:0:0:
329,192,33905,1,0,2:0:0:0:
182,192,34071,1,0,2:0:0:0:
402,192,34071,1,0,2:0:0:0:
256,192,34738,1,0,2:0:0:0:
402,192,34738,1,0,2:0:0:0:
256,192,35071,1,0,2:0:0:0:
402,192,35071,1,0,2:0:0:0:
182,192,35405,1,0,2:0:0:0:
329,192,35405,1,0,2:0:0:0:
182,192,35738,1,0,2:0:0:0:
329,192,35738,1,0,2:0:0:0:
182,192,35905,1,0,2:0:0:0:
329,192,35905,1,0,2:0:0:0:
109,192,36238,1,0,2:0:0:0:
256,192,36238,1,0,2:0:0:0:
109,192,36405,1,0,2:0:0:0:
256,192,36405,1,0,2:0:0:0:
36,192,36571,1,0,2:0:0:0:
182,192,36571,1,0,2:0:0:0:
109,192,36738,1,0,2:0:0:0:
256,192,36738,1,0,2:0:0:0:
329,192,37071,1,0,2:0:0:0:
475,192,37071,1,0,2:0:0:0:
36,192,37405,1,0,0:0:0:0:
329,192,37405,1,0,2:0:0:0:
475,192,37405,1,0,2:0:0:0:
329,192,37738,1,0,2:0:0:0:
36,192,37738,1,0,0:0:0:0:
475,192,37738,1,0,2:0:0:0:
36,192,38071,1,0,0:0:0:0:
329,192,38071,1,0,2:0:0:0:
475,192,38071,1,0,2:0:0:0:
329,192,38405,1,0,2:0:0:0:
475,192,38405,1,0,2:0:0:0:
36,192,38405,1,0,0:0:0:0:
329,192,38571,1,0,2:0:0:0:
475,192,38571,1,0,2:0:0:0:
36,192,38738,1,0,0:0:0:0:
402,192,38905,1,0,2:0:0:0:
475,192,38905,1,0,2:0:0:0:
36,192,39071,1,0,0:0:0:0:
182,192,39071,1,0,2:0:0:0:
329,192,39071,1,0,2:0:0:0:
256,192,39238,1,0,2:0:0:0:
402,192,39238,1,0,2:0:0:0:
36,192,39405,1,0,0:0:0:0:
329,192,39405,1,0,2:0:0:0:
475,192,39405,1,0,2:0:0:0:
36,192,39738,1,0,0:0:0:0:
182,192,40071,1,0,0:0:0:0:
402,192,40071,1,0,2:0:0:0:
475,192,40071,1,0,2:0:0:0:
182,192,40405,1,0,0:0:0:0:
402,192,40405,1,0,2:0:0:0:
475,192,40405,1,0,2:0:0:0:
182,192,40738,1,0,0:0:0:0:
329,192,40738,1,0,2:0:0:0:
402,192,40738,1,0,2:0:0:0:
182,192,41071,1,0,0:0:0:0:
329,192,41071,1,0,2:0:0:0:
402,192,41071,1,0,2:0:0:0:
329,192,41238,1,0,2:0:0:0:
402,192,41238,1,0,2:0:0:0:
36,192,41405,1,0,0:0:0:0:
329,192,41571,1,0,2:0:0:0:
475,192,41571,1,0,2:0:0:0:
36,192,41738,1,0,0:0:0:0:
256,192,41738,1,0,2:0:0:0:
402,192,41738,1,0,2:0:0:0:
182,192,41905,1,0,2:0:0:0:
329,192,41905,1,0,2:0:0:0:
36,192,42071,1,0,0:0:0:0:
109,192,42071,1,0,2:0:0:0:
256,192,42071,1,0,2:0:0:0:
36,192,42405,1,0,0:0:0:0:
256,192,42405,1,4,0:0:0:0:
402,192,42405,1,0,2:0:0:0:
475,192,42405,1,0,2:0:0:0:
256,192,42738,1,4,0:0:0:0:
36,192,42738,1,0,0:0:0:0:
182,192,42738,128,0,42905:0:0:0:0:
475,192,42905,128,0,43071:0:0:0:0:
36,192,43071,1,0,0:0:0:0:
402,192,43071,128,0,43238:0:0:0:0:
329,192,43238,128,0,43405:0:0:0:0:
182,192,43405,1,0,0:0:0:0:
256,192,43405,128,0,44071:0:0:0:0:
182,192,43571,1,0,0:0:0:0:
182,192,43738,1,0,0:0:0:0:
182,192,43905,1,0,0:0:0:0:
36,192,44071,1,0,0:0:0:0:
329,192,44071,128,0,44238:0:0:0:0:
475,192,44238,128,0,44405:0:0:0:0:
36,192,44405,1,0,0:0:0:0:
329,192,44405,128,0,44571:0:0:0:0:
402,192,44571,128,0,44738:0:0:0:0:
182,192,44738,1,0,0:0:0:0:
256,192,44738,128,0,45405:0:0:0:0:
182,192,44988,1,0,0:0:0:0:
182,192,45071,1,0,0:0:0:0:
182,192,45238,1,0,0:0:0:0:
36,192,45405,1,0,0:0:0:0:
329,192,45405,128,0,45571:0:0:0:0:
475,192,45571,128,0,45738:0:0:0:0:
36,192,45738,1,0,0:0:0:0:
256,192,45738,128,0,45905:0:0:0:0:
475,192,45905,128,0,46071:0:0:0:0:
36,192,45988,1,0,0:0:0:0:
109,192,46071,1,0,0:0:0:0:
329,192,46071,128,0,46738:0:0:0:0:
109,192,46238,1,0,0:0:0:0:
109,192,46405,1,0,0:0:0:0:
109,192,46571,1,0,0:0:0:0:
182,192,46738,1,0,0:0:0:0:
402,192,46738,128,0,46905:0:0:0:0:
475,192,46905,128,0,47071:0:0:0:0:
182,192,47071,1,0,0:0:0:0:
402,192,47071,128,0,47238:0:0:0:0:
329,192,47238,128,0,47405:0:0:0:0:
475,192,47405,128,0,47738:0:0:0:0:
109,192,47405,1,0,0:0:0:0:
109,192,47571,1,0,0:0:0:0:
402,192,47738,128,0,48071:0:0:0:0:
109,192,47738,1,0,0:0:0:0:
109,192,47905,1,0,0:0:0:0:
256,192,48071,1,4,0:0:0:0:
329,192,48071,128,0,48238:0:0:0:0:
36,192,48071,1,0,0:0:0:0:
402,192,48238,128,0,48405:0:0:0:0:
329,192,48405,128,0,48571:0:0:0:0:
36,192,48405,1,0,0:0:0:0:
256,192,48571,128,0,48738:0:0:0:0:
182,192,48738,128,0,49405:0:0:0:0:
402,192,48738,1,0,0:0:0:0:
402,192,48905,1,0,0:0:0:0:
402,192,49071,1,0,0:0:0:0:
402,192,49238,1,0,0:0:0:0:
109,192,49405,128,0,49571:0:0:0:0:
475,192,49405,1,0,0:0:0:0:
256,192,49571,128,0,49738:0:0:0:0:
182,192,49738,128,0,49905:0:0:0:0:
475,192,49738,1,0,0:0:0:0:
109,192,49905,128,0,50071:0:0:0:0:
36,192,50071,128,0,50738:0:0:0:0:
329,192,50071,1,0,0:0:0:0:
329,192,50321,1,0,0:0:0:0:
329,192,50405,1,0,0:0:0:0:
329,192,50571,1,0,0:0:0:0:
109,192,50738,128,0,50905:0:0:0:0:
256,192,50738,1,0,0:0:0:0:
182,192,50905,128,0,51071:0:0:0:0:
36,192,51071,128,0,51238:0:0:0:0:
256,192,51071,1,0,0:0:0:0:
109,192,51238,128,0,51405:0:0:0:0:
256,192,51321,1,0,0:0:0:0:
182,192,51405,1,0,0:0:0:0:
475,192,51405,128,0,51571:0:0:0:0:
182,192,51571,1,0,0:0:0:0:
402,192,51571,1,0,0:0:0:0:
329,192,51655,1,0,0:0:0:0:
182,192,51738,1,0,0:0:0:0:
402,192,51738,128,0,51905:0:0:0:0:
182,192,51905,1,0,0:0:0:0:
329,192,51905,128,0,52071:0:0:0:0:
36,192,52071,1,0,0:0:0:0:
475,192,52071,128,0,52238:0:0:0:0:
402,192,52238,128,0,52405:0:0:0:0:
36,192,52405,1,0,0:0:0:0:
329,192,52405,128,0,52571:0:0:0:0:
256,192,52571,128,0,52738:0:0:0:0:
182,192,52738,128,0,53405:0:0:0:0:
36,192,52738,1,0,0:0:0:0:
329,192,52905,128,0,53405:0:0:0:0:
475,192,53071,128,0,53405:0:0:0:0:
36,192,53071,1,0,0:0:0:0:
256,192,53405,1,4,0:0:0:0:
36,192,53405,1,0,0:0:0:0:
402,192,53405,1,0,0:0:0:0:
402,192,53571,1,0,0:0:0:0:
36,192,53738,1,0,0:0:0:0:
182,192,53738,1,8,0:0:0:0:
402,192,53738,1,0,0:0:0:0:
402,192,54071,1,0,0:0:0:0:
36,192,54071,1,0,0:0:0:0:
402,192,54238,1,0,0:0:0:0:
402,192,54405,1,0,0:0:0:0:
182,192,54405,1,8,0:0:0:0:
36,192,54405,1,0,0:0:0:0:
36,192,54738,1,0,0:0:0:0:
402,192,54738,1,0,0:0:0:0:
475,192,54988,1,0,0:0:0:0:
36,192,55071,1,0,0:0:0:0:
182,192,55071,1,8,0:0:0:0:
329,192,55071,1,0,0:0:0:0:
402,192,55238,1,0,0:0:0:0:
36,192,55405,1,0,0:0:0:0:
475,192,55405,1,0,0:0:0:0:
329,192,55571,1,0,0:0:0:0:
36,192,55738,1,0,0:0:0:0:
182,192,55738,1,8,0:0:0:0:
329,192,55738,1,0,0:0:0:0:
475,192,56071,1,0,0:0:0:0:
36,192,56071,1,0,0:0:0:0:
475,192,56238,1,0,0:0:0:0:
182,192,56404,1,8,0:0:0:0:
36,192,56404,1,0,0:0:0:0:
475,192,56405,1,0,0:0:0:0:
329,192,56655,1,0,0:0:0:0:
475,192,56738,1,0,0:0:0:0:
36,192,56738,1,0,0:0:0:0:
402,192,56905,1,0,0:0:0:0:
182,192,57071,1,8,0:0:0:0:
36,192,57071,1,0,0:0:0:0:
402,192,57071,1,0,0:0:0:0:
402,192,57238,1,0,0:0:0:0:
36,192,57405,1,0,0:0:0:0:
402,192,57405,1,0,0:0:0:0:
329,192,57571,1,0,0:0:0:0:
36,192,57738,1,0,0:0:0:0:
182,192,57738,1,8,0:0:0:0:
329,192,57738,1,0,0:0:0:0:
256,192,57905,1,0,0:0:0:0:
329,192,58071,1,0,0:0:0:0:
36,192,58072,1,0,0:0:0:0:
36,192,58405,1,0,0:0:0:0:
182,192,58405,1,8,0:0:0:0:
475,192,58405,1,0,0:0:0:0:
475,192,58738,1,0,0:0:0:0:
256,192,58738,1,4,0:0:0:0:
182,192,58738,1,0,0:0:0:0:
182,192,58905,1,0,0:0:0:0:
329,192,59071,1,8,0:0:0:0:
475,192,59071,1,0,0:0:0:0:
182,192,59071,1,0,0:0:0:0:
475,192,59405,1,0,0:0:0:0:
182,192,59405,1,0,0:0:0:0:
182,192,59571,1,0,0:0:0:0:
329,192,59738,1,8,0:0:0:0:
475,192,59738,1,0,0:0:0:0:
182,192,59738,1,0,0:0:0:0:
182,192,60071,1,0,0:0:0:0:
475,192,60071,1,0,0:0:0:0:
256,192,60321,1,0,0:0:0:0:
475,192,60404,1,0,0:0:0:0:
329,192,60404,1,8,0:0:0:0:
36,192,60405,1,0,0:0:0:0:
109,192,60571,1,0,0:0:0:0:
182,192,60738,1,0,0:0:0:0:
475,192,60738,1,0,0:0:0:0:
182,192,60905,1,0,0:0:0:0:
475,192,61071,1,0,0:0:0:0:
329,192,61071,1,8,0:0:0:0:
182,192,61071,1,0,0:0:0:0:
182,192,61238,1,0,0:0:0:0:
475,192,61405,1,0,0:0:0:0:
109,192,61405,1,0,0:0:0:0:
109,192,61571,1,0,0:0:0:0:
329,192,61738,1,8,0:0:0:0:
475,192,61738,1,0,0:0:0:0:
109,192,61738,1,0,0:0:0:0:
109,192,61988,1,0,0:0:0:0:
109,192,62071,1,0,0:0:0:0:
475,192,62072,1,0,0:0:0:0:
36,192,62238,1,0,0:0:0:0:
329,192,62405,1,8,0:0:0:0:
475,192,62405,1,0,0:0:0:0:
36,192,62405,1,0,0:0:0:0:
36,192,62571,1,0,0:0:0:0:
475,192,62738,1,0,0:0:0:0:
256,192,62738,1,0,0:0:0:0:
256,192,62905,1,0,0:0:0:0:
475,192,63071,1,0,0:0:0:0:
329,192,63071,1,8,0:0:0:0:
182,192,63071,1,0,0:0:0:0:
109,192,63238,1,0,0:0:0:0:
475,192,63405,1,0,0:0:0:0:
182,192,63405,128,0,64071:0:0:0:0:
475,192,63738,1,0,0:0:0:0:
329,192,63738,1,8,0:0:0:0:
109,192,63738,128,0,64071:0:0:0:0:
256,192,64071,1,4,0:0:0:0:
36,192,64071,1,0,2:0:0:0:
329,192,64071,1,0,0:0:0:0:
475,192,64238,1,0,0:0:0:0:
36,192,64405,1,0,2:0:0:0:
109,192,64405,1,0,2:0:0:0:
402,192,64405,1,0,0:0:0:0:
475,192,64571,1,0,0:0:0:0:
329,192,64738,128,0,65405:0:0:0:0:
36,192,64738,1,0,2:0:0:0:
182,192,64738,1,0,2:0:0:0:
36,192,64905,1,0,2:0:0:0:
182,192,64905,1,0,2:0:0:0:
36,192,65071,1,0,2:0:0:0:
182,192,65071,1,0,2:0:0:0:
109,192,65405,1,0,2:0:0:0:
182,192,65405,1,0,2:0:0:0:
256,192,65405,1,0,0:0:0:0:
402,192,65571,1,0,0:0:0:0:
109,192,65738,1,0,2:0:0:0:
182,192,65738,1,0,2:0:0:0:
329,192,65738,1,0,0:0:0:0:
256,192,65905,1,0,0:0:0:0:
402,192,66071,128,0,66738:0:0:0:0:
36,192,66071,1,0,2:0:0:0:
182,192,66071,1,0,2:0:0:0:
36,192,66405,1,0,2:0:0:0:
182,192,66405,1,0,2:0:0:0:
36,192,66571,1,0,2:0:0:0:
182,192,66571,1,0,2:0:0:0:
36,192,66738,1,0,2:0:0:0:
109,192,66738,1,0,2:0:0:0:
329,192,66738,1,0,0:0:0:0:
475,192,66905,1,0,0:0:0:0:
36,192,67071,1,0,2:0:0:0:
109,192,67071,1,0,2:0:0:0:
329,192,67071,1,0,0:0:0:0:
402,192,67238,1,0,0:0:0:0:
36,192,67405,1,0,2:0:0:0:
182,192,67405,1,0,2:0:0:0:
256,192,67405,128,0,68071:0:0:0:0:
36,192,67571,1,0,2:0:0:0:
182,192,67571,1,0,2:0:0:0:
36,192,67738,1,0,2:0:0:0:
182,192,67738,1,0,2:0:0:0:
36,192,67905,1,0,2:0:0:0:
182,192,67905,1,0,2:0:0:0:
36,192,68071,1,0,2:0:0:0:
109,192,68071,1,0,2:0:0:0:
402,192,68071,1,0,0:0:0:0:
475,192,68238,1,0,0:0:0:0:
36,192,68321,1,0,2:0:0:0:
109,192,68321,1,0,2:0:0:0:
402,192,68405,1,0,0:0:0:0:
36,192,68571,1,0,2:0:0:0:
109,192,68571,1,0,2:0:0:0:
329,192,68571,1,0,0:0:0:0:
109,192,68738,1,0,2:0:0:0:
182,192,68738,1,0,2:0:0:0:
475,192,68738,128,0,69071:0:0:0:0:
109,192,68905,1,0,2:0:0:0:
182,192,68905,1,0,2:0:0:0:
109,192,69071,1,0,2:0:0:0:
182,192,69071,1,0,2:0:0:0:
402,192,69071,128,0,69405:0:0:0:0:
109,192,69238,1,0,2:0:0:0:
182,192,69238,1,0,2:0:0:0:
256,192,69405,1,4,0:0:0:0:
36,192,69405,1,0,0:0:0:0:
329,192,69405,128,0,69571:0:0:0:0:
475,192,69571,128,0,69738:0:0:0:0:
256,192,69738,128,0,69905:0:0:0:0:
402,192,69905,128,0,70071:0:0:0:0:
182,192,70071,128,0,70738:0:0:0:0:
36,192,70071,1,0,0:0:0:0:
36,192,70405,1,0,0:0:0:0:
36,192,70738,1,0,0:0:0:0:
329,192,70738,128,0,70905:0:0:0:0:
475,192,70905,128,0,71071:0:0:0:0:
329,192,71071,128,0,71238:0:0:0:0:
256,192,71238,128,0,71405:0:0:0:0:
36,192,71405,1,0,0:0:0:0:
402,192,71405,128,0,72071:0:0:0:0:
36,192,71655,1,0,0:0:0:0:
36,192,71738,1,0,0:0:0:0:
36,192,71905,1,0,0:0:0:0:
36,192,72071,1,0,0:0:0:0:
182,192,72071,128,0,72238:0:0:0:0:
475,192,72238,128,0,72405:0:0:0:0:
256,192,72405,128,0,72571:0:0:0:0:
109,192,72571,128,0,72738:0:0:0:0:
36,192,72738,1,0,0:0:0:0:
182,192,72738,128,0,72905:0:0:0:0:
329,192,72905,1,0,0:0:0:0:
475,192,72988,1,0,0:0:0:0:
36,192,73071,1,0,0:0:0:0:
182,192,73071,128,0,73238:0:0:0:0:
329,192,73238,128,0,73405:0:0:0:0:
36,192,73405,1,0,0:0:0:0:
475,192,73405,128,0,73571:0:0:0:0:
329,192,73571,128,0,73738:0:0:0:0:
36,192,73655,1,0,0:0:0:0:
256,192,73738,128,0,73905:0:0:0:0:
36,192,73905,1,0,0:0:0:0:
109,192,73905,128,0,74071:0:0:0:0:
36,192,74071,1,0,0:0:0:0:
329,192,74071,128,0,74738:0:0:0:0:
182,192,74238,1,0,0:0:0:0:
402,192,74238,1,0,0:0:0:0:
36,192,74405,1,0,0:0:0:0:
475,192,74405,128,0,74738:0:0:0:0:
182,192,74571,1,0,0:0:0:0:
256,192,74738,1,4,0:0:0:0:
36,192,74738,1,0,0:0:0:0:
402,192,74738,1,0,0:0:0:0:
402,192,74904,1,0,0:0:0:0:
36,192,75071,1,0,0:0:0:0:
182,192,75071,1,8,0:0:0:0:
402,192,75071,1,0,0:0:0:0:
36,192,75404,1,0,0:0:0:0:
402,192,75404,1,0,0:0:0:0:
402,192,75571,1,0,0:0:0:0:
36,192,75738,1,0,0:0:0:0:
182,192,75738,1,8,0:0:0:0:
402,192,75738,1,0,0:0:0:0:
36,192,76071,1,0,0:0:0:0:
402,192,76071,1,0,0:0:0:0:
475,192,76321,1,0,0:0:0:0:
36,192,76404,1,0,0:0:0:0:
182,192,76404,1,8,0:0:0:0:
256,192,76405,1,0,0:0:0:0:
329,192,76572,1,0,0:0:0:0:
36,192,76738,1,0,0:0:0:0:
402,192,76739,1,0,0:0:0:0:
256,192,76905,1,0,0:0:0:0:
36,192,77071,1,0,0:0:0:0:
182,192,77071,1,8,0:0:0:0:
256,192,77072,1,0,0:0:0:0:
475,192,77405,1,0,0:0:0:0:
36,192,77405,1,0,0:0:0:0:
475,192,77572,1,0,0:0:0:0:
182,192,77738,1,8,0:0:0:0:
36,192,77738,1,0,0:0:0:0:
475,192,77739,1,0,0:0:0:0:
475,192,77988,1,0,0:0:0:0:
475,192,78072,1,0,0:0:0:0:
36,192,78072,1,0,0:0:0:0:
329,192,78239,1,0,0:0:0:0:
182,192,78405,1,8,0:0:0:0:
329,192,78405,1,0,0:0:0:0:
36,192,78405,1,0,0:0:0:0:
329,192,78572,1,0,0:0:0:0:
329,192,78739,1,0,0:0:0:0:
36,192,78739,1,0,0:0:0:0:
402,192,78905,1,0,0:0:0:0:
182,192,79072,1,8,0:0:0:0:
402,192,79072,1,0,0:0:0:0:
36,192,79072,1,0,0:0:0:0:
256,192,79239,1,0,0:0:0:0:
402,192,79405,1,0,0:0:0:0:
36,192,79406,1,0,0:0:0:0:
329,192,79738,1,0,0:0:0:0:
36,192,79739,1,0,0:0:0:0:
182,192,79739,1,8,0:0:0:0:
475,192,80071,1,0,0:0:0:0:
109,192,80071,1,0,0:0:0:0:
256,192,80071,1,4,0:0:0:0:
109,192,80238,1,0,0:0:0:0:
109,192,80404,1,0,0:0:0:0:
329,192,80404,1,8,0:0:0:0:
475,192,80404,1,0,0:0:0:0:
475,192,80738,1,0,0:0:0:0:
109,192,80738,1,0,0:0:0:0:
109,192,80904,1,0,0:0:0:0:
109,192,81071,1,0,0:0:0:0:
475,192,81071,1,0,0:0:0:0:
329,192,81071,1,8,0:0:0:0:
475,192,81404,1,0,0:0:0:0:
109,192,81405,1,0,0:0:0:0:
182,192,81655,1,0,0:0:0:0:
329,192,81737,1,8,0:0:0:0:
475,192,81737,1,0,0:0:0:0:
36,192,81738,1,0,0:0:0:0:
109,192,81904,1,0,0:0:0:0:
475,192,82071,1,0,0:0:0:0:
182,192,82071,1,0,0:0:0:0:
182,192,82238,1,0,0:0:0:0:
475,192,82404,1,0,0:0:0:0:
329,192,82404,1,8,0:0:0:0:
182,192,82404,1,0,0:0:0:0:
182,192,82571,1,0,0:0:0:0:
109,192,82738,1,0,0:0:0:0:
475,192,82738,1,0,0:0:0:0:
109,192,82904,1,0,0:0:0:0:
475,192,83071,1,0,0:0:0:0:
329,192,83071,1,8,0:0:0:0:
109,192,83071,1,0,0:0:0:0:
109,192,83321,1,0,0:0:0:0:
109,192,83404,1,0,0:0:0:0:
475,192,83405,1,0,0:0:0:0:
36,192,83571,1,0,0:0:0:0:
475,192,83738,1,0,0:0:0:0:
329,192,83738,1,8,0:0:0:0:
36,192,83738,1,0,0:0:0:0:
36,192,83904,1,0,0:0:0:0:
475,192,84071,1,0,0:0:0:0:
182,192,84072,1,0,0:0:0:0:
182,192,84239,1,0,0:0:0:0:
475,192,84404,1,0,0:0:0:0:
329,192,84404,1,8,0:0:0:0:
109,192,84405,1,0,0:0:0:0:
36,192,84572,1,0,0:0:0:0:
109,192,84738,128,0,85405:0:0:0:0:
475,192,84738,1,0,0:0:0:0:
329,192,85071,1,8,0:0:0:0:
182,192,85071,128,0,85405:0:0:0:0:
475,192,85071,1,0,0:0:0:0:
256,192,85405,1,4,0:0:0:0:
402,192,85405,1,0,0:0:0:0:
475,192,85405,1,0,0:0:0:0:
329,192,85738,1,0,0:0:0:0:
402,192,85738,1,0,0:0:0:0:
182,192,85988,1,0,0:0:0:0:
329,192,85988,1,0,0:0:0:0:
256,192,86071,1,0,0:0:0:0:
109,192,86071,1,0,0:0:0:0:
256,192,86571,1,0,0:0:0:0:
329,192,86571,1,0,0:0:0:0:
182,192,86738,1,0,0:0:0:0:
256,192,86738,1,0,0:0:0:0:
109,192,87071,1,0,0:0:0:0:
182,192,87071,1,0,0:0:0:0:
36,192,87405,1,0,0:0:0:0:
109,192,87405,1,0,0:0:0:0:
256,192,87905,1,0,0:0:0:0:
402,192,87905,1,0,0:0:0:0:
329,192,88071,1,0,0:0:0:0:
182,192,88155,1,0,0:0:0:0:
329,192,88238,1,0,0:0:0:0:
182,192,88321,1,0,0:0:0:0:
329,192,88405,1,0,0:0:0:0:
182,192,88488,1,0,0:0:0:0:
329,192,88571,1,0,0:0:0:0:
182,192,88655,1,0,0:0:0:0:
402,192,88738,1,0,0:0:0:0:
109,192,88821,1,0,0:0:0:0:
402,192,88905,1,0,0:0:0:0:
109,192,88988,1,0,0:0:0:0:
402,192,89071,1,0,0:0:0:0:
109,192,89155,1,0,0:0:0:0:
402,192,89238,1,0,0:0:0:0:
109,192,89321,1,0,0:0:0:0:
329,192,89405,1,0,0:0:0:0:
182,192,89488,1,0,0:0:0:0:
402,192,89571,1,0,0:0:0:0:
109,192,89655,1,0,0:0:0:0:
475,192,89738,1,0,0:0:0:0:
36,192,89821,1,0,0:0:0:0:
402,192,89905,1,0,0:0:0:0:
109,192,89988,1,0,0:0:0:0:
329,192,90071,1,0,0:0:0:0:
182,192,90155,1,0,0:0:0:0:
402,192,90238,1,0,0:0:0:0:
109,192,90321,1,0,0:0:0:0:
475,192,90405,1,0,0:0:0:0:
36,192,90488,1,0,0:0:0:0:
402,192,90571,1,0,0:0:0:0:
109,192,90655,1,0,0:0:0:0:
182,192,90738,1,0,0:0:0:0:
256,192,90738,1,4,0:0:0:0:
329,192,90738,1,0,0:0:0:0:
475,192,90905,1,0,0:0:0:0:
36,192,91071,1,8,0:0:0:0:
182,192,91071,1,0,0:0:0:0:
402,192,91071,1,0,0:0:0:0:
329,192,91238,1,0,0:0:0:0:
182,192,91405,1,0,0:0:0:0:
329,192,91405,1,0,0:0:0:0:
402,192,91655,1,0,0:0:0:0:
182,192,91738,1,0,0:0:0:0:
36,192,91738,1,8,0:0:0:0:
256,192,91738,1,0,0:0:0:0:
475,192,91905,1,0,0:0:0:0:
475,192,92071,1,0,0:0:0:0:
182,192,92071,1,0,0:0:0:0:
402,192,92238,1,0,0:0:0:0:
182,192,92404,1,0,0:0:0:0:
36,192,92404,1,8,0:0:0:0:
402,192,92405,1,0,0:0:0:0:
329,192,92571,1,0,0:0:0:0:
329,192,92738,1,0,0:0:0:0:
182,192,92738,1,0,0:0:0:0:
402,192,92988,1,0,0:0:0:0:
256,192,93071,1,0,0:0:0:0:
36,192,93071,1,8,0:0:0:0:
182,192,93071,1,0,0:0:0:0:
182,192,93238,1,0,0:0:0:0:
109,192,93321,1,0,0:0:0:0:
36,192,93405,1,0,0:0:0:0:
329,192,93405,1,0,0:0:0:0:
36,192,93571,1,0,0:0:0:0:
36,192,93738,1,0,0:0:0:0:
329,192,93738,1,0,0:0:0:0:
475,192,93738,1,8,0:0:0:0:
36,192,93905,1,0,0:0:0:0:
109,192,93988,1,0,0:0:0:0:
182,192,94071,1,0,0:0:0:0:
329,192,94071,1,0,0:0:0:0:
329,192,94405,1,0,0:0:0:0:
475,192,94405,1,8,0:0:0:0:
256,192,94571,1,0,0:0:0:0:
182,192,94655,1,0,0:0:0:0:
329,192,94738,1,0,0:0:0:0:
109,192,94738,1,0,0:0:0:0:
109,192,94905,1,0,0:0:0:0:
475,192,95071,1,8,0:0:0:0:
329,192,95071,1,0,0:0:0:0:
109,192,95071,1,0,0:0:0:0:
109,192,95238,1,0,0:0:0:0:
182,192,95321,1,0,0:0:0:0:
329,192,95404,1,0,0:0:0:0:
256,192,95405,1,0,0:0:0:0:
475,192,95738,1,8,0:0:0:0:
329,192,95738,1,0,0:0:0:0:
182,192,95905,1,0,0:0:0:0:
109,192,95988,1,0,0:0:0:0:
329,192,96071,1,0,0:0:0:0:
36,192,96071,1,0,0:0:0:0:
256,192,96238,1,0,0:0:0:0:
329,192,96404,1,0,0:0:0:0:
475,192,96404,1,8,0:0:0:0:
182,192,96571,1,0,0:0:0:0:
329,192,96737,1,0,0:0:0:0:
109,192,96738,1,0,0:0:0:0:
182,192,96988,1,0,0:0:0:0:
329,192,97071,1,0,0:0:0:0:
475,192,97071,1,8,0:0:0:0:
36,192,97071,1,0,0:0:0:0:
256,192,97238,1,0,0:0:0:0:
329,192,97405,1,0,0:0:0:0:
182,192,97405,1,0,0:0:0:0:
475,192,97738,1,8,0:0:0:0:
329,192,97738,1,0,0:0:0:0:
109,192,97738,1,0,0:0:0:0:
329,192,98071,1,0,0:0:0:0:
36,192,98071,1,0,0:0:0:0:
475,192,98405,1,8,0:0:0:0:
329,192,98405,1,0,0:0:0:0:
256,192,98738,1,4,1:0:0:0:
402,192,98738,1,0,0:0:0:0:
36,192,99571,1,0,0:0:0:0:
182,192,99738,1,0,0:0:0:0:
402,192,99905,1,0,0:0:0:0:
475,192,100571,1,0,0:0:0:0:
475,192,100905,1,0,0:0:0:0:
182,192,101071,1,0,0:0:0:0:
329,192,101238,1,0,0:0:0:0:
36,192,101405,1,0,0:0:0:0:
182,192,102238,1,0,0:0:0:0:
256,192,102405,1,0,0:0:0:0:
329,192,102572,1,0,0:0:0:0:
402,192,102738,1,0,0:0:0:0:
475,192,102905,1,0,0:0:0:0:
402,192,103072,1,0,0:0:0:0:
329,192,103238,1,0,0:0:0:0:
256,192,103405,1,0,0:0:0:0:
182,192,103572,1,0,0:0:0:0:
109,192,103738,1,0,0:0:0:0:
182,192,103905,1,0,0:0:0:0:
256,192,104072,1,0,0:0:0:0:
109,192,104905,1,0,0:0:0:0:
256,192,105071,1,0,0:0:0:0:
402,192,105238,1,0,0:0:0:0:
329,192,105905,1,0,0:0:0:0:
329,192,106238,1,0,0:0:0:0:
182,192,106405,1,0,0:0:0:0:
402,192,106571,1,0,0:0:0:0:
109,192,106738,1,0,0:0:0:0:
109,192,107571,1,0,0:0:0:0:
182,192,107738,1,0,0:0:0:0:
256,192,107905,1,0,0:0:0:0:
329,192,108071,1,0,0:0:0:0:
475,192,108238,1,0,0:0:0:0:
329,192,108405,1,0,0:0:0:0:
182,192,108571,1,0,0:0:0:0:
36,192,108738,1,0,0:0:0:0:
256,192,109071,1,0,0:0:0:0:
402,192,109238,1,0,0:0:0:0:
329,192,109405,1,0,0:0:0:0:
36,192,109405,1,0,1:0:0:0:
182,192,109738,1,8,0:0:0:0:
329,192,110237,1,0,0:0:0:0:
36,192,110238,1,0,1:0:0:0:
402,192,110404,1,0,0:0:0:0:
182,192,110405,1,8,0:0:0:0:
475,192,110571,1,0,0:0:0:0:
36,192,110738,1,0,1:0:0:0:
182,192,111071,1,8,0:0:0:0:
402,192,111238,1,0,0:0:0:0:
36,192,111571,1,0,1:0:0:0:
402,192,111571,1,0,0:0:0:0:
182,192,111738,1,8,0:0:0:0:
329,192,111738,1,0,0:0:0:0:
402,192,111905,1,0,0:0:0:0:
256,192,112071,1,0,0:0:0:0:
36,192,112071,1,0,1:0:0:0:
182,192,112405,1,8,0:0:0:0:
329,192,112905,1,0,0:0:0:0:
36,192,112905,1,0,1:0:0:0:
256,192,113071,1,0,0:0:0:0:
182,192,113071,1,8,0:0:0:0:
329,192,113238,1,0,0:0:0:0:
402,192,113405,1,0,0:0:0:0:
36,192,113405,1,0,1:0:0:0:
475,192,113571,1,0,0:0:0:0:
36,192,113571,1,0,1:0:0:0:
402,192,113738,1,0,0:0:0:0:
182,192,113738,1,8,0:0:0:0:
329,192,113905,1,0,0:0:0:0:
256,192,114071,1,0,0:0:0:0:
182,192,114238,1,8,0:0:0:0:
329,192,114405,1,0,0:0:0:0:
36,192,114405,1,0,1:0:0:0:
182,192,114571,1,8,0:0:0:0:
475,192,114571,1,0,0:0:0:0:
329,192,114738,1,0,0:0:0:0:
36,192,114738,1,0,1:0:0:0:
182,192,115071,1,8,0:0:0:0:
36,192,115571,1,0,1:0:0:0:
256,192,115571,1,0,0:0:0:0:
182,192,115738,1,8,0:0:0:0:
329,192,115738,1,0,0:0:0:0:
402,192,115905,1,0,0:0:0:0:
36,192,116071,1,0,1:0:0:0:
182,192,116405,1,8,0:0:0:0:
475,192,116571,1,0,0:0:0:0:
475,192,116905,1,0,0:0:0:0:
36,192,116905,1,0,1:0:0:0:
182,192,117071,1,8,0:0:0:0:
329,192,117071,1,0,0:0:0:0:
402,192,117238,1,0,0:0:0:0:
256,192,117405,1,0,0:0:0:0:
182,192,117488,1,0,0:0:0:0:
109,192,117571,1,0,0:0:0:0:
36,192,117655,1,0,0:0:0:0:
256,192,117738,1,0,0:0:0:0:
329,192,117821,1,0,0:0:0:0:
402,192,117905,1,0,0:0:0:0:
475,192,117988,1,0,0:0:0:0:
36,192,118071,1,0,0:0:0:0:
109,192,118155,1,0,0:0:0:0:
182,192,118238,1,0,0:0:0:0:
256,192,118321,1,0,0:0:0:0:
475,192,118405,1,0,0:0:0:0:
402,192,118488,1,0,0:0:0:0:
329,192,118571,1,0,0:0:0:0:
256,192,118655,1,0,0:0:0:0:
329,192,118738,1,0,0:0:0:0:
182,192,118821,1,0,0:0:0:0:
329,192,118905,1,0,0:0:0:0:
182,192,118988,1,0,0:0:0:0:
402,192,119071,1,0,0:0:0:0:
109,192,119155,1,0,0:0:0:0:
402,192,119238,1,0,0:0:0:0:
109,192,119321,1,0,0:0:0:0:
36,192,119405,1,0,0:0:0:0:
475,192,119405,1,0,0:0:0:0:
109,192,119488,1,0,0:0:0:0:
402,192,119488,1,0,0:0:0:0:
182,192,119571,1,0,0:0:0:0:
329,192,119571,1,0,0:0:0:0:
256,192,119655,1,0,0:0:0:0:
182,192,119738,1,0,0:0:0:0:
329,192,119738,1,0,0:0:0:0:
256,192,119821,1,0,0:0:0:0:
182,192,119905,1,0,0:0:0:0:
329,192,119905,1,0,0:0:0:0:
109,192,119988,1,0,0:0:0:0:
402,192,119988,1,0,0:0:0:0:
475,192,120071,1,0,0:0:0:0:
36,192,120071,1,4,0:0:0:0:
475,192,120238,1,0,0:0:0:0:
475,192,120405,1,0,0:0:0:0:
182,192,120405,1,8,0:0:0:0:
475,192,120738,1,0,0:0:0:0:
475,192,120905,1,0,0:0:0:0:
182,192,121071,1,8,0:0:0:0:
475,192,121071,1,0,0:0:0:0:
329,192,121405,1,0,0:0:0:0:
475,192,121655,1,0,0:0:0:0:
329,192,121738,1,0,0:0:0:0:
182,192,121738,1,8,0:0:0:0:
402,192,121905,1,0,0:0:0:0:
475,192,122071,1,0,0:0:0:0:
475,192,122238,1,0,0:0:0:0:
475,192,122405,1,0,0:0:0:0:
182,192,122405,1,8,0:0:0:0:
402,192,122738,1,0,0:0:0:0:
402,192,122905,1,0,0:0:0:0:
109,192,123071,1,8,0:0:0:0:
402,192,123071,1,0,0:0:0:0:
402,192,123321,1,0,0:0:0:0:
402,192,123405,1,0,0:0:0:0:
329,192,123571,1,0,0:0:0:0:
109,192,123738,1,8,0:0:0:0:
329,192,123738,1,0,0:0:0:0:
329,192,123905,1,0,0:0:0:0:
256,192,124071,1,0,0:0:0:0:
256,192,124238,1,0,0:0:0:0:
256,192,124405,1,0,0:0:0:0:
256,192,124571,1,0,0:0:0:0:
109,192,124738,1,0,0:0:0:0:
402,192,124821,1,0,0:0:0:0:
109,192,124905,1,0,0:0:0:0:
402,192,124988,1,0,0:0:0:0:
36,192,125071,1,0,0:0:0:0:
182,192,125155,1,0,0:0:0:0:
329,192,125238,1,0,0:0:0:0:
475,192,125321,1,0,0:0:0:0:
36,192,125405,1,0,0:0:0:0:
256,192,125405,1,4,0:0:0:0:
329,192,125405,1,0,0:0:0:0:
329,192,125571,1,0,0:0:0:0:
329,192,125738,1,0,0:0:0:0:
36,192,125738,1,0,0:0:0:0:
182,192,125738,1,8,0:0:0:0:
36,192,126071,1,0,0:0:0:0:
329,192,126071,1,0,0:0:0:0:
329,192,126238,1,0,0:0:0:0:
36,192,126405,1,0,0:0:0:0:
182,192,126405,1,8,0:0:0:0:
329,192,126405,1,0,0:0:0:0:
329,192,126738,1,0,0:0:0:0:
36,192,126738,1,0,0:0:0:0:
402,192,126988,1,0,0:0:0:0:
182,192,127071,1,8,0:0:0:0:
36,192,127071,1,0,0:0:0:0:
256,192,127072,1,0,0:0:0:0:
329,192,127238,1,0,0:0:0:0:
36,192,127404,1,0,0:0:0:0:
402,192,127405,1,0,0:0:0:0:
402,192,127572,1,0,0:0:0:0:
402,192,127738,1,0,0:0:0:0:
182,192,127738,1,8,0:0:0:0:
36,192,127738,1,0,0:0:0:0:
36,192,128071,1,0,0:0:0:0:
475,192,128071,1,0,0:0:0:0:
475,192,128238,1,0,0:0:0:0:
36,192,128404,1,0,0:0:0:0:
182,192,128404,1,8,0:0:0:0:
475,192,128405,1,0,0:0:0:0:
475,192,128655,1,0,0:0:0:0:
36,192,128737,1,0,0:0:0:0:
475,192,128738,1,0,0:0:0:0:
402,192,128905,1,0,0:0:0:0:
36,192,129071,1,0,0:0:0:0:
182,192,129071,1,8,0:0:0:0:
402,192,129071,1,0,0:0:0:0:
402,192,129238,1,0,0:0:0:0:
36,192,129405,1,0,0:0:0:0:
329,192,129405,1,0,0:0:0:0:
475,192,129571,1,0,0:0:0:0:
329,192,129738,1,0,0:0:0:0:
182,192,129738,1,8,0:0:0:0:
36,192,129738,1,0,0:0:0:0:
402,192,129905,1,0,0:0:0:0:
36,192,130071,1,0,0:0:0:0:
256,192,130071,128,0,130738:0:0:0:0:
182,192,130405,1,8,0:0:0:0:
36,192,130405,1,0,0:0:0:0:
402,192,130405,128,0,130738:0:0:0:0:
329,192,130738,1,4,0:0:0:0:
475,192,130738,1,0,0:0:0:0:
109,192,130738,1,0,0:0:0:0:
109,192,130905,1,0,0:0:0:0:
475,192,131071,1,0,0:0:0:0:
329,192,131071,1,8,0:0:0:0:
109,192,131071,1,0,0:0:0:0:
256,192,131405,1,0,0:0:0:0:
475,192,131405,1,0,0:0:0:0:
256,192,131571,1,0,0:0:0:0:
256,192,131738,1,0,0:0:0:0:
329,192,131738,1,8,0:0:0:0:
475,192,131738,1,0,0:0:0:0:
475,192,132071,1,0,0:0:0:0:
109,192,132071,1,0,0:0:0:0:
182,192,132321,1,0,0:0:0:0:
475,192,132404,1,0,0:0:0:0:
329,192,132404,1,8,0:0:0:0:
36,192,132405,1,0,0:0:0:0:
109,192,132571,1,0,0:0:0:0:
475,192,132738,1,0,0:0:0:0:
182,192,132738,1,0,0:0:0:0:
182,192,132905,1,0,0:0:0:0:
475,192,133071,1,0,0:0:0:0:
329,192,133071,1,8,0:0:0:0:
182,192,133071,1,0,0:0:0:0:
475,192,133405,1,0,0:0:0:0:
109,192,133405,1,0,0:0:0:0:
109,192,133571,1,0,0:0:0:0:
329,192,133738,1,8,0:0:0:0:
475,192,133738,1,0,0:0:0:0:
109,192,133738,1,0,0:0:0:0:
109,192,133988,1,0,0:0:0:0:
109,192,134071,1,0,0:0:0:0:
475,192,134072,1,0,0:0:0:0:
256,192,134238,1,0,0:0:0:0:
329,192,134405,1,8,0:0:0:0:
475,192,134405,1,0,0:0:0:0:
256,192,134405,1,0,0:0:0:0:
256,192,134571,1,0,0:0:0:0:
475,192,134738,1,0,0:0:0:0:
256,192,134738,1,0,0:0:0:0:
182,192,134905,1,0,0:0:0:0:
475,192,135071,1,0,0:0:0:0:
329,192,135071,1,8,0:0:0:0:
182,192,135071,1,0,0:0:0:0:
36,192,135238,1,0,0:0:0:0:
475,192,135405,1,0,0:0:0:0:
109,192,135405,1,0,0:0:0:0:
109,192,135571,1,0,0:0:0:0:
475,192,135738,1,0,0:0:0:0:
329,192,135738,1,8,0:0:0:0:
256,192,135738,1,0,0:0:0:0:
256,192,135905,1,0,0:0:0:0:
182,192,136071,1,0,0:0:0:0:
329,192,136071,1,0,0:0:0:0:
256,192,136071,1,4,0:0:0:0:
329,192,136238,1,0,0:0:0:0:
36,192,136404,1,8,0:0:0:0:
182,192,136404,1,0,0:0:0:0:
329,192,136405,1,0,0:0:0:0:
182,192,136738,1,0,0:0:0:0:
402,192,136738,1,0,0:0:0:0:
402,192,136905,1,0,0:0:0:0:
36,192,137071,1,8,0:0:0:0:
182,192,137071,1,0,0:0:0:0:
402,192,137071,1,0,0:0:0:0:
182,192,137405,1,0,0:0:0:0:
329,192,137405,1,0,0:0:0:0:
475,192,137655,1,0,0:0:0:0:
36,192,137738,1,8,0:0:0:0:
182,192,137738,1,0,0:0:0:0:
329,192,137738,1,0,0:0:0:0:
402,192,137905,1,0,0:0:0:0:
475,192,138071,1,0,0:0:0:0:
182,192,138072,1,0,0:0:0:0:
475,192,138238,1,0,0:0:0:0:
182,192,138405,1,0,0:0:0:0:
36,192,138405,1,8,0:0:0:0:
475,192,138405,1,0,0:0:0:0:
475,192,138571,1,0,0:0:0:0:
182,192,138738,1,0,0:0:0:0:
402,192,138738,1,0,0:0:0:0:
402,192,138905,1,0,0:0:0:0:
36,192,139071,1,8,0:0:0:0:
182,192,139071,1,0,0:0:0:0:
402,192,139071,1,0,0:0:0:0:
402,192,139238,1,0,0:0:0:0:
182,192,139405,1,0,0:0:0:0:
402,192,139405,1,0,0:0:0:0:
329,192,139571,1,0,0:0:0:0:
182,192,139738,1,0,0:0:0:0:
36,192,139738,1,8,0:0:0:0:
329,192,139738,1,0,0:0:0:0:
329,192,139905,1,0,0:0:0:0:
402,192,140071,1,0,0:0:0:0:
182,192,140072,1,0,0:0:0:0:
475,192,140238,1,0,0:0:0:0:
36,192,140405,1,8,0:0:0:0:
182,192,140405,1,0,0:0:0:0:
402,192,140405,1,0,0:0:0:0:
329,192,140571,1,0,0:0:0:0:
256,192,140738,1,0,0:0:0:0:
182,192,140739,1,0,0:0:0:0:
329,192,140905,1,0,0:0:0:0:
402,192,141071,1,0,0:0:0:0:
182,192,141072,1,0,0:0:0:0:
36,192,141072,1,8,0:0:0:0:
256,192,141405,1,4,0:0:0:0:
