osu file format v12

[General]
AudioFilename: 1 - Piece Of Azure.mp3
AudioLeadIn: 2000
PreviewTime: 189823
Countdown: 0
SampleSet: Soft
StackLeniency: 0.7
Mode: 0
LetterboxInBreaks: 0
WidescreenStoryboard: 0

[Editor]
DistanceSpacing: 1
BeatDivisor: 4
GridSize: 4

[Metadata]
Title:piece of azure
TitleUnicode:piece of azure
Artist:nao
ArtistUnicode:nao
Creator:Sekai-nyan
Version:Marathon
Source:Areas~空に映すキミとのセカイ~
Tags:visual novel eroge Lapis Lazuli OST fripSide collaboration osuplayer111 Andrea Darksonic Miya Areas ~Sora ni Utsusu Kimi to no Sekai~
BeatmapID:252994
BeatmapSetID:93888

[Difficulty]
HPDrainRate:6
CircleSize:4
OverallDifficulty:6
ApproachRate:7
SliderMultiplier:1.8
SliderTickRate:2

[Events]
//Background and Video events
0,0,"BG.jpg",0,0
//Break Periods
//Storyboard Layer 0 (Background)
//Storyboard Layer 1 (Fail)
//Storyboard Layer 2 (Pass)
//Storyboard Layer 3 (Foreground)
Sprite,Foreground,Centre,"SB\pulse.jpg",320,240 L,88510,21 F,0,0,666,1,0 F,0,666,1333,0 L,189843,15 F,0,0,666,1,0 F,0,666,1333,0 L,211176,21 F,0,0,666,1,0 F,0,666,1333,0 L,304510,15 F,0,0,666,1,0 F,0,666,1333,0 L,325843,21 F,0,0,666,1,0 F,0,666,1333,0 M,0,88510,,320,240 S,0,88510,,0.8
Sprite,Foreground,Centre,"SB\andrea.png",320,240 F,0,176,,0 F,0,176,510,0,1 M,0,510,,500,50 F,0,510,19176,1 F,0,19176,19843,1,0 F,0,19843,165510,0 F,0,165510,165843,0,1 F,0,165843,189843,1 F,0,189843,190176,1,0 F,0,190176,304176,0 F,0,304176,304510,0,1 F,0,304510,325843,1 F,0,325843,326176,1,0 F,0,326176,,0
Sprite,Foreground,Centre,"SB\sekai.png",320,240 F,0,21176,21843,0,1 M,0,21843,,500,50 F,0,21843,43176,1 F,0,43176,43510,1,0 F,0,43510,88176,0 F,0,88176,88510,0,1 F,0,88510,115176,1 F,0,115176,123176,1 F,0,123176,123510,1,0 F,0,123510,144176,0 F,0,144176,144510,0,1 F,0,144510,165843,1 F,0,165843,166176,1,0 F,0,166176,210843,0 F,0,210843,211176,0,1 F,0,211176,259176,1 F,0,259176,259510,1,0 F,0,259510,282843,0 F,0,282843,283176,0,1 F,0,283176,304510,1 F,0,304510,304843,1,0 F,0,304843,352176,0 F,0,352176,352510,0,1 F,0,352510,365843,1 F,0,365843,366510,1,0
Sprite,Foreground,Centre,"SB\miya.png",320,240 F,0,42843,,0 F,0,42843,43176,0,1 M,0,43176,,500,50 F,0,43176,64510,1 F,0,64510,64843,1,0 F,0,64843,122843,0 F,0,122843,123176,0,1 F,0,123176,144510,1 F,0,144510,144843,1,0 F,0,144843,189510,0 F,0,189510,189843,0,1 F,0,189843,211176,1 F,0,211176,211510,1,0 F,0,211510,,0
Sprite,Foreground,Centre,"SB\darksonic.png",320,240 F,0,64176,,0 F,0,64176,64510,0,1 M,0,64510,,500,50 F,0,64510,88510,1 F,0,88510,88843,1,0 F,0,88843,258843,0 F,0,258843,259176,0,1 F,0,259176,283176,1 F,0,283176,283510,1,0 F,0,283510,325510,0 F,0,325510,325843,0,1 F,0,325843,352510,1 F,0,352510,352843,1,0 F,0,352843,,0
//Storyboard Sound Samples
//Background Colour Transformations
3,100,163,162,255

[TimingPoints]
510,666.666666666667,4,2,1,50,1,0
23010,-100,4,2,1,50,0,0
23343,-100,4,2,1,50,0,0
33676,-100,4,2,1,50,0,0
34010,-100,4,2,1,50,0,0
88510,-100,4,2,2,60,0,1
93676,-100,4,2,0,60,0,1
94010,-100,4,2,2,60,0,1
104343,-100,4,2,0,60,0,1
104676,-100,4,2,2,60,0,1
106343,-100,4,2,0,60,0,1
106676,-100,4,2,2,60,0,1
109010,-100,4,2,0,60,0,1
109343,-100,4,2,2,60,0,1
109676,-100,4,2,0,60,0,1
110010,-100,4,2,2,60,0,1
112343,-100,4,2,0,60,0,1
112676,-100,4,2,2,60,0,1
115176,-100,4,2,1,50,0,0
118676,-100,4,2,1,50,0,0
122843,-100,4,2,1,50,0,0
144510,-100,4,2,0,50,0,0
144676,-100,4,2,1,50,0,0
155010,-100,4,2,0,50,0,0
155343,-100,4,2,1,50,0,0
165843,-100,4,2,0,50,0,0
166010,-100,4,2,1,50,0,0
189843,-100,4,2,0,60,0,1
190010,-100,4,2,2,60,0,1
195176,-100,4,2,0,60,0,1
195343,-100,4,2,2,60,0,1
200510,-100,4,2,0,60,0,1
200676,-100,4,2,2,60,0,1
205843,-100,4,2,0,60,0,1
206010,-100,4,2,2,60,0,1
208510,-100,4,2,2,50,0,0
211176,-100,4,2,0,60,0,1
211343,-100,4,2,2,60,0,1
216343,-100,4,2,0,60,0,1
216676,-100,4,2,2,60,0,1
227010,-100,4,2,0,60,0,1
227343,-100,4,2,2,60,0,1
229676,-100,4,2,0,60,0,1
230010,-100,4,2,2,60,0,1
232343,-100,4,2,0,60,0,1
232676,-100,4,2,2,60,0,1
235010,-100,4,2,0,60,0,1
235343,-100,4,2,2,60,0,1
237843,-100,4,2,2,50,0,0
242843,-100,4,2,0,50,0,0
243343,-100,4,2,2,50,0,0
248510,-100,4,2,0,50,0,0
248676,-100,4,2,2,50,0,0
255676,-100,4,2,0,50,0,0
256010,-100,4,2,2,50,0,0
256343,-100,4,2,0,50,0,0
256676,-100,4,2,2,50,0,0
288343,-100,4,2,0,50,0,0
288676,-100,4,2,2,50,0,0
293176,-100,4,2,0,50,0,0
293343,-100,4,2,2,50,0,0
294343,-100,4,2,2,50,0,0
294676,-100,4,2,2,50,0,0
298343,-100,4,2,0,50,0,0
298676,-100,4,2,2,50,0,0
299010,-100,4,2,0,50,0,0
299343,-100,4,2,2,50,0,0
301010,-100,4,2,0,50,0,0
301343,-100,4,2,2,50,0,0
304510,-100,4,2,2,60,0,1
323176,-100,4,2,1,50,0,0
325843,-100,4,2,2,60,0,1
352510,-100,4,2,1,50,0,0
358510,-100,4,2,1,50,0,0
359176,-100,4,2,1,55,0,0
359843,-100,4,2,1,50,0,0
360510,-100,4,2,1,45,0,0
361176,-100,4,2,1,40,0,0
361843,-100,4,2,1,35,0,0
362510,-100,4,2,1,30,0,0
363176,-100,4,2,1,25,0,0
363843,-100,4,2,1,20,0,0
364510,-100,4,2,1,15,0,0
365176,-100,4,2,1,10,0,0
365843,-100,4,2,1,5,0,0

[Colours]
Combo1 : 131,89,109
Combo2 : 144,208,254
Combo3 : 206,170,170
Combo4 : 249,223,236

[HitObjects]
256,192,510,1,2,0:0:0:0:
48,192,1843,5,2,0:0:0:0:
256,40,2510,1,2,0:0:0:0:
464,192,3176,1,2,0:0:0:0:
464,192,4510,5,2,0:0:0:0:
256,344,5176,1,2,0:0:0:0:
48,192,5843,1,2,0:0:0:0:
48,192,7176,5,2,0:0:0:0:
256,192,7843,1,2,0:0:0:0:
464,192,8510,1,2,0:0:0:0:
216,40,9510,6,0,L|176:120,1,90,2|2,0:0|0:0,0:0:0:0:
296,40,10176,2,0,L|336:120,1,90
256,164,10843,1,0,0:0:0:0:
256,252,11176,6,0,L|256:296,2,45,2|0|0,0:0|0:0|0:0,0:0:0:0:
176,208,11843,1,0,0:0:0:0:
212,124,12176,1,0,0:0:0:0:
300,124,12510,1,2,0:0:0:0:
336,208,12843,1,0,0:0:0:0:
392,140,13176,2,0,L|440:140,2,45,2|0|0,0:0|0:0|0:0,0:0:0:0:
424,56,13843,6,0,L|472:56,2,45,2|0|0,0:0|0:0|0:0,0:0:0:0:
344,16,14510,1,0,0:0:0:0:
256,32,14843,1,0,0:0:0:0:
168,16,15176,2,0,P|76:16|20:80,1,180,2|2,0:0|0:0,0:0:0:0:
36,120,16010,2,0,L|56:160,1,45
96,240,16510,5,2,0:0:0:0:
116,280,16676,1,0,0:0:0:0:
136,320,16843,2,0,P|180:320|216:348,1,90
376,320,17510,2,0,P|332:320|296:348,1,90,0|2,0:0|0:0,0:0:0:0:
256,268,18176,1,0,0:0:0:0:
212,188,18510,1,0,0:0:0:0:
300,188,18843,1,0,0:0:0:0:
256,192,19176,12,2,21176,0:0:0:0:
360,328,21843,6,0,P|372:272|304:232,1,135,4|0,0:0|0:0,0:0:0:0:
272,220,22510,2,0,P|224:148|272:64,1,180,8|0,0:0|0:0,0:0:0:0:
184,24,23510,1,0,0:0:0:0:
100,56,23843,1,8,0:0:0:0:
56,136,24176,1,0,0:0:0:0:
48,236,24510,6,0,P|88:264|160:220,1,135,4|0,0:0|0:0,0:0:0:0:
180,188,25176,2,0,P|224:160|280:168,1,90,8|0,0:0|0:0,0:0:0:0:
316,232,25843,1,0,0:0:0:0:
388,288,26176,1,0,0:0:0:0:
444,220,26510,1,8,0:0:0:0:
372,164,26843,5,0,0:0:0:0:
372,164,27010,1,0,0:0:0:0:
372,164,27176,2,0,P|416:128|464:136,2,90,4|0|8,0:0|0:0|0:0,0:0:0:0:
316,92,28176,2,0,P|276:128|228:128,1,90
188,60,28843,1,0,0:0:0:0:
100,56,29176,2,0,P|52:64|20:104,1,90,8|0,0:0|0:0,0:0:0:0:
88,156,29843,6,0,P|140:156|167:181,1,90,4|0,0:0|0:0,0:0:0:0:
160,224,30343,1,0,0:0:0:0:
140,264,30510,2,0,P|96:264|57:234,1,90,8|0,0:0|0:0,0:0:0:0:
216,272,31176,2,0,L|316:272,1,90,0|2,0:0|0:0,0:0:0:0:
312,228,31676,1,0,0:0:0:0:
316,184,31843,2,0,L|216:184,1,90,10|2,0:0|0:0,0:0:0:0:
140,164,32510,6,0,P|140:92|192:56,1,135,4|0,0:0|0:0,0:0:0:0:
232,68,33176,2,0,P|320:84|412:36,1,180,8|0,0:0|0:0,0:0:0:0:
476,92,34176,1,0,0:0:0:0:
476,184,34510,1,8,0:0:0:0:
424,260,34843,1,0,0:0:0:0:
348,308,35176,6,0,P|288:320|228:268,1,135,4|0,0:0|0:0,0:0:0:0:
192,256,35843,2,0,P|140:244|96:260,1,90,8|0,0:0|0:0,0:0:0:0:
28,300,36510,1,0,0:0:0:0:
0,216,36843,1,0,0:0:0:0:
16,176,37010,1,0,0:0:0:0:
32,132,37176,1,8,0:0:0:0:
100,72,37510,5,0,0:0:0:0:
100,72,37676,1,0,0:0:0:0:
100,72,37843,2,0,B|184:40|184:40|288:72,1,180,4|8,0:0|0:0,0:0:0:0:
300,152,38843,1,0,0:0:0:0:
344,140,39010,1,0,0:0:0:0:
388,168,39176,2,0,P|376:220|320:236,1,90,4|0,0:0|0:0,0:0:0:0:
288,304,39843,2,0,P|252:264|264:212,1,90,8|0,0:0|0:0,0:0:0:0:
164,216,40510,6,0,P|128:268|16:276,1,180,4|8,0:0|0:0,0:0:0:0:
6,188,41510,1,0,0:0:0:0:
124,107,41843,1,0,0:0:0:0:
79,241,42176,1,0,0:0:0:0:
34,107,42510,1,8,0:0:0:0:
151,188,42843,1,0,0:0:0:0:
80,240,43176,6,4,B|124:252|136:324|212:328,1,135,4|0,0:0|0:0,0:0:0:0:
224,340,43843,1,8,0:0:0:0:
308,364,44176,1,0,0:0:0:0:
328,276,44510,1,0,0:0:0:0:
416,280,44843,1,0,0:0:0:0:
432,192,45176,1,12,0:0:0:0:
408,104,45510,1,0,0:0:0:0:
384,68,45676,1,0,0:0:0:0:
344,48,45843,6,0,L|200:48,1,135,2|0,0:0|0:0,0:0:0:0:
164,48,46510,1,8,0:0:0:0:
96,104,46843,1,0,0:0:0:0:
28,160,47176,2,0,P|12:120|20:68,2,90,0|0|12,0:0|0:0|0:0,0:0:0:0:
108,200,48176,1,0,0:0:0:0:
132,240,48343,1,0,0:0:0:0:
120,284,48510,6,0,P|168:308|192:340,1,90,2|0,0:0|0:0,0:0:0:0:
232,348,49010,2,0,L|296:328,1,45,0|8,0:0|0:0,0:0:0:0:
364,336,49510,1,0,0:0:0:0:
393,302,49676,1,0,0:0:0:0:
433,284,49843,1,2,0:0:0:0:
492,216,50176,2,0,L|492:124,1,90,0|8,0:0|0:0,0:0:0:0:
492,36,50843,1,0,0:0:0:0:
380,100,51176,6,0,L|276:144,1,90,2|0,0:0|0:0,0:0:0:0:
252,144,51676,2,0,P|184:148|120:112,1,135
64,52,52510,1,0,0:0:0:0:
48,140,52843,1,0,0:0:0:0:
64,228,53176,1,12,0:0:0:0:
48,316,53510,1,0,0:0:0:0:
176,272,53843,6,0,L|308:316,1,135,2|0,0:0|0:0,0:0:0:0:
348,328,54510,1,8,0:0:0:0:
384,244,54843,1,0,0:0:0:0:
416,160,55176,1,0,0:0:0:0:
384,76,55510,1,0,0:0:0:0:
300,112,55843,2,0,L|204:84,1,90,12|0,0:0|0:0,0:0:0:0:
172,76,56343,1,0,0:0:0:0:
128,64,56510,6,0,P|84:120|24:136,1,135,2|0,0:0|0:0,0:0:0:0:
24,135,57176,1,8,0:0:0:0:
76,212,57510,1,0,0:0:0:0:
164,220,57843,1,0,0:0:0:0:
232,280,58176,1,0,0:0:0:0:
320,256,58510,1,12,0:0:0:0:
408,272,58843,1,0,0:0:0:0:
408,272,59010,1,0,0:0:0:0:
408,272,59176,5,2,0:0:0:0:
424,176,59510,2,0,P|376:184|340:168,1,90,0|8,0:0|0:0,0:0:0:0:
392,96,60176,1,0,0:0:0:0:
392,96,60343,1,0,0:0:0:0:
392,96,60510,1,2,0:0:0:0:
320,40,60843,2,0,L|212:40,2,90,0|8|0,0:0|0:0|0:0,0:0:0:0:
296,172,61843,5,4,0:0:0:0:
240,240,62176,2,0,L|192:240,2,45,0|0|8,0:0|0:0|0:0,0:0:0:0:
296,312,62843,1,0,0:0:0:0:
384,336,63176,1,0,0:0:0:0:
456,284,63510,2,0,L|472:228,1,45
472,196,63843,2,0,L|468:148,1,45,12|0,0:0|0:0,0:0:0:0:
460,108,64176,1,0,0:0:0:0:
376,136,64510,6,0,P|380:216|299:257,1,180,2|10,0:0|0:0,0:0:0:0:
224,208,65510,1,2,0:0:0:0:
308,176,65843,1,2,0:0:0:0:
238,118,66176,2,0,P|206:86|163:81,2,90,0|10|0,0:0|0:0|0:0,0:0:0:0:
224,208,67176,6,0,B|172:240|168:304|168:304|103:304,1,180,2|10,0:0|0:0,0:0:0:0:
40,240,68176,1,0,0:0:0:0:
44,196,68343,1,0,0:0:0:0:
72,160,68510,2,0,P|100:120|135:101,1,90,2|0,0:0|0:0,0:0:0:0:
268,84,69176,2,0,P|240:124|204:142,2,90,10|0|6,0:0|0:0|0:0,0:0:0:0:
348,44,70176,5,0,0:0:0:0:
412,108,70510,2,0,P|424:152|424:196,1,90,10|0,0:0|0:0,0:0:0:0:
340,164,71176,2,0,P|317:203|286:235,1,90,2|2,0:0|0:0,0:0:0:0:
276,324,71843,1,10,0:0:0:0:
204,268,72176,1,2,0:0:0:0:
220,180,72510,6,0,B|174:151|134:169|134:169|152:129|123:83,1,180,2|10,0:0|0:0,0:0:0:0:
204,44,73510,1,2,0:0:0:0:
204,44,73676,1,2,0:0:0:0:
204,44,73843,2,0,B|220:64|220:88|220:88|252:88|268:104,1,90
310,172,74510,1,10,0:0:0:0:
220,180,74843,1,2,0:0:0:0:
192,216,75010,1,0,0:0:0:0:
172,256,75176,6,0,P|200:296|236:316,1,90,2|0,0:0|0:0,0:0:0:0:
220,180,75843,2,0,P|192:140|156:120,1,90,8|0,0:0|0:0,0:0:0:0:
100,192,76510,2,0,P|60:220|40:256,1,90,2|2,0:0|0:0,0:0:0:0:
40,255,77010,1,2,0:0:0:0:
40,255,77176,1,8,0:0:0:0:
128,268,77510,5,2,0:0:0:0:
128,268,77676,1,2,0:0:0:0:
128,268,77843,2,0,P|168:240|188:204,1,90,2|0,0:0|0:0,0:0:0:0:
224,120,78510,2,0,P|237:79|274:45,2,90,8|0|2,0:0|0:0|0:0,0:0:0:0:
296,172,79510,1,2,0:0:0:0:
296,172,79676,1,2,0:0:0:0:
296,172,79843,2,0,P|316:208|356:236,1,90,8|0,0:0|0:0,0:0:0:0:
384,148,80510,6,0,P|316:80|241:95,1,180,2|8,0:0|0:0,0:0:0:0:
296,172,81510,2,0,P|288:216|256:256,1,90,2|2,0:0|0:0,0:0:0:0:
176,280,82176,2,0,L|228:376,2,90,0|10|0,0:0|0:0|0:0,0:0:0:0:
84,280,83176,6,0,P|32:204|49:123,1,180,2|8,0:0|0:0,0:0:0:0:
136,140,84176,1,2,0:0:0:0:
212,92,84510,2,0,P|250:66|290:74,1,90,2|0,0:0|0:0,0:0:0:0:
348,144,85176,2,0,P|310:170|269:161,1,90,2|8,0:0|0:0,0:0:0:0:
160,144,85843,1,4,0:0:0:0:
256,192,86010,12,2,87843,0:0:0:0:
376,300,88510,5,4,0:0:0:0:
376,300,88843,2,0,P|356:244|380:200,1,90,0|8,0:0|0:0,0:0:0:0:
420,144,89510,1,0,0:0:0:0:
352,84,89843,1,2,0:0:0:0:
284,140,90176,1,0,0:0:0:0:
284,140,90510,2,0,P|208:160|140:128,1,135,8|0,0:0|0:0,0:0:0:0:
116,128,91176,6,0,P|64:116|16:144,1,90,2|0,0:0|0:0,0:0:0:0:
80,208,91843,1,8,0:0:0:0:
36,224,92010,1,0,0:0:0:0:
28,268,92176,1,0,0:0:0:0:
96,328,92510,1,2,0:0:0:0:
140,332,92676,1,8,0:0:0:0:
184,316,92843,1,0,0:0:0:0:
256,264,93176,1,8,0:0:0:0:
300,248,93343,1,0,0:0:0:0:
344,264,93510,1,0,0:0:0:0:
416,316,93843,5,4,0:0:0:0:
472,248,94176,1,0,0:0:0:0:
404,188,94510,2,0,P|420:144|392:92,1,90,8|0,0:0|0:0,0:0:0:0:
324,60,95176,2,0,P|288:96|196:96,1,135,2|0,0:0|0:0,0:0:0:0:
164,100,95843,2,0,L|72:100,1,90,8|0,0:0|0:0,0:0:0:0:
76,192,96510,5,2,0:0:0:0:
256,332,97176,1,8,0:0:0:0:
436,192,97843,1,2,0:0:0:0:
448,148,98010,1,8,0:0:0:0:
436,104,98176,1,0,0:0:0:0:
360,52,98510,1,8,0:0:0:0:
324,80,98676,1,0,0:0:0:0:
284,104,98843,1,8,0:0:0:0:
240,104,99010,1,0,0:0:0:0:
196,92,99176,6,0,P|124:104|96:156,1,135,4|0,0:0|0:0,0:0:0:0:
84,184,99843,2,0,P|48:236|8:248,1,90,8|0,0:0|0:0,0:0:0:0:
84,312,100510,2,0,P|120:276|176:264,1,90,2|0,0:0|0:0,0:0:0:0:
244,284,101176,1,8,0:0:0:0:
214,199,101510,1,0,0:0:0:0:
304,192,101843,6,0,P|368:200|416:152,1,135,2|0,0:0|0:0,0:0:0:0:
436,116,102510,1,8,0:0:0:0:
428,72,102676,1,0,0:0:0:0:
396,40,102843,1,0,0:0:0:0:
308,16,103176,1,2,0:0:0:0:
272,44,103343,1,8,0:0:0:0:
228,44,103510,1,0,0:0:0:0:
140,56,103843,1,8,0:0:0:0:
100,76,104010,1,0,0:0:0:0:
84,120,104176,1,0,0:0:0:0:
136,192,104510,6,0,P|176:228|176:316,1,135,4|0,0:0|0:0,0:0:0:0:
188,348,105176,2,0,P|236:364|284:340,1,90,8|0,0:0|0:0,0:0:0:0:
312,328,105676,1,0,0:0:0:0:
344,296,105843,1,0,0:0:0:0:
404,228,106176,1,0,0:0:0:0:
404,228,106343,1,0,0:0:0:0:
404,228,106510,2,0,B|436:164|436:164|396:88,1,135,4|0,0:0|0:0,0:0:0:0:
372,76,107176,6,0,L|276:44,1,90,4|0,0:0|0:0,0:0:0:0:
200,24,107843,1,8,0:0:0:0:
112,24,108176,1,0,0:0:0:0:
112,24,108343,2,0,P|124:72|76:144,1,135
28,216,109176,2,0,P|8:264|36:312,1,90,4|0,0:0|0:0,0:0:0:0:
112,308,109843,5,4,0:0:0:0:
196,336,110176,1,0,0:0:0:0:
216,248,110510,1,8,0:0:0:0:
216,248,110676,1,0,0:0:0:0:
216,248,110843,1,0,0:0:0:0:
288,192,111176,2,0,P|340:216|404:160,1,135,4|0,0:0|0:0,0:0:0:0:
428,140,111843,1,8,0:0:0:0:
468,60,112176,1,0,0:0:0:0:
384,28,112510,5,4,0:0:0:0:
340,104,112843,1,0,0:0:0:0:
340,104,113010,1,0,0:0:0:0:
340,104,113176,2,0,P|264:124|232:112,1,90,8|0,0:0|0:0,0:0:0:0:
184,68,113843,1,0,0:0:0:0:
184,68,114010,1,8,0:0:0:0:
184,68,114176,1,0,0:0:0:0:
100,36,114510,1,8,0:0:0:0:
60,52,114676,1,0,0:0:0:0:
36,88,114843,1,8,0:0:0:0:
44,132,115010,1,0,0:0:0:0:
80,160,115176,5,4,0:0:0:0:
256,312,115843,1,8,0:0:0:0:
436,160,116510,2,0,P|456:104|416:44,1,135,0|0,0:0|0:0,0:0:0:0:
380,68,117176,2,0,P|332:76|284:48,1,90,8|0,0:0|0:0,0:0:0:0:
204,60,117843,2,0,P|136:40|72:76,1,135,4|0,0:0|0:0,0:0:0:0:
60,104,118510,1,8,0:0:0:0:
256,192,118676,12,4,120510,0:0:0:0:
256,192,120676,12,0,122510,0:0:0:0:
204,320,123176,6,0,P|168:264|108:224,1,135,4|0,0:0|0:0,0:0:0:0:
72,208,123843,2,0,P|36:168|24:132,1,90,8|0,0:0|0:0,0:0:0:0:
116,124,124510,1,0,0:0:0:0:
188,68,124843,1,0,0:0:0:0:
232,68,125010,1,0,0:0:0:0:
276,68,125176,1,8,0:0:0:0:
324,144,125510,1,0,0:0:0:0:
368,144,125676,1,0,0:0:0:0:
412,144,125843,6,0,P|440:108|480:84,2,90,2|0|8,0:0|0:0|0:0,0:0:0:0:
372,224,126843,2,0,P|360:268|372:316,1,90
448,268,127510,1,0,0:0:0:0:
448,268,127676,1,0,0:0:0:0:
448,268,127843,1,8,0:0:0:0:
360,268,128176,1,0,0:0:0:0:
316,268,128343,1,0,0:0:0:0:
272,268,128510,6,0,B|237:226|168:237|152:188,1,135,2|0,0:0|0:0,0:0:0:0:
124,180,129176,1,8,0:0:0:0:
64,116,129510,2,0,P|40:160|40:204,1,90
104,260,130176,2,0,P|128:304|128:348,1,90,0|8,0:0|0:0,0:0:0:0:
208,296,130843,1,0,0:0:0:0:
296,316,131176,6,0,P|328:284|384:280,1,90,2|0,0:0|0:0,0:0:0:0:
416,276,131676,2,0,L|468:276,1,45,0|8,0:0|0:0,0:0:0:0:
436,188,132176,1,0,0:0:0:0:
460,100,132510,1,0,0:0:0:0:
400,32,132843,1,2,0:0:0:0:
356,20,133010,1,0,0:0:0:0:
312,32,133176,2,0,P|280:68|236:88,1,90,8|2,0:0|0:0,0:0:0:0:
156,104,133843,6,0,P|92:144|60:192,1,135,4|0,0:0|0:0,0:0:0:0:
52,236,134510,2,0,P|36:276|-12:316,1,90,8|0,0:0|0:0,0:0:0:0:
76,356,135176,1,0,0:0:0:0:
160,324,135510,2,0,P|188:364|228:380,1,90,0|8,0:0|0:0,0:0:0:0:
248,288,136176,1,0,0:0:0:0:
228,200,136510,6,0,P|292:208|336:264,1,135,2|0,0:0|0:0,0:0:0:0:
352,300,137176,1,8,0:0:0:0:
424,248,137510,2,0,P|408:204|424:160,1,90
356,104,138176,1,0,0:0:0:0:
356,104,138343,1,0,0:0:0:0:
356,104,138510,1,8,0:0:0:0:
280,56,138843,1,0,0:0:0:0:
236,64,139010,1,0,0:0:0:0:
192,56,139176,6,0,P|116:96|96:192,1,180,2|8,0:0|0:0,0:0:0:0:
52,260,140176,1,0,0:0:0:0:
96,276,140343,1,0,0:0:0:0:
136,260,140510,2,0,L|232:260,2,90,2|0|8,0:0|0:0|0:0,0:0:0:0:
96,180,141510,1,0,0:0:0:0:
96,92,141843,6,0,P|144:104|172:136,1,90,2|0,0:0|0:0,0:0:0:0:
196,220,142510,1,8,0:0:0:0:
256,288,142843,1,0,0:0:0:0:
312,220,143176,1,0,0:0:0:0:
356,140,143510,1,0,0:0:0:0:
444,116,143843,1,8,0:0:0:0:
496,188,144176,1,0,0:0:0:0:
392,320,144510,6,0,B|374:268|432:246|416:192,1,135,4|0,0:0|0:0,0:0:0:0:
416,148,145176,2,0,P|372:108|328:104,1,90,8|0,0:0|0:0,0:0:0:0:
256,88,145843,1,0,0:0:0:0:
184,36,146176,1,0,0:0:0:0:
116,96,146510,1,8,0:0:0:0:
184,156,146843,5,0,0:0:0:0:
184,156,147010,1,0,0:0:0:0:
184,156,147176,2,0,P|148:208|80:224,1,135,4|0,0:0|0:0,0:0:0:0:
52,256,147843,2,0,P|28:308|44:352,1,90,8|0,0:0|0:0,0:0:0:0:
120,364,148510,1,0,0:0:0:0:
208,372,148843,1,0,0:0:0:0:
260,296,149176,1,8,0:0:0:0:
212,220,149510,5,0,0:0:0:0:
212,220,149676,1,0,0:0:0:0:
212,220,149843,2,0,P|212:164|280:120,1,135,4|0,0:0|0:0,0:0:0:0:
316,104,150510,2,0,L|408:68,1,90,8|0,0:0|0:0,0:0:0:0:
464,136,151176,1,0,0:0:0:0:
500,220,151510,1,0,0:0:0:0:
464,304,151843,1,12,0:0:0:0:
380,336,152176,5,0,0:0:0:0:
380,336,152343,1,0,0:0:0:0:
380,336,152510,2,0,P|332:308|256:332,1,135,4|0,0:0|0:0,0:0:0:0:
216,340,153176,2,0,P|168:348|120:316,1,90,8|0,0:0|0:0,0:0:0:0:
52,288,153843,1,0,0:0:0:0:
52,288,154176,1,0,0:0:0:0:
20,204,154510,1,12,0:0:0:0:
20,204,154843,1,0,0:0:0:0:
64,128,155176,6,0,B|128:100|128:100|200:136,1,135,4|0,0:0|0:0,0:0:0:0:
220,156,155843,2,0,P|272:176|316:168,1,90,8|0,0:0|0:0,0:0:0:0:
392,188,156510,1,0,0:0:0:0:
480,164,156843,1,0,0:0:0:0:
504,252,157176,1,12,0:0:0:0:
460,264,157343,1,0,0:0:0:0:
416,276,157510,1,0,0:0:0:0:
360,348,157843,6,0,P|312:352|248:296,1,135,4|0,0:0|0:0,0:0:0:0:
208,276,158510,1,8,0:0:0:0:
164,268,158676,1,0,0:0:0:0:
120,280,158843,1,0,0:0:0:0:
40,324,159176,1,0,0:0:0:0:
0,240,159510,1,0,0:0:0:0:
72,184,159843,1,12,0:0:0:0:
144,128,160176,5,0,0:0:0:0:
144,128,160343,1,0,0:0:0:0:
144,128,160510,2,0,P|192:148|248:52,1,180,4|8,0:0|0:0,0:0:0:0:
340,44,161510,1,0,0:0:0:0:
384,40,161676,1,0,0:0:0:0:
428,56,161843,1,0,0:0:0:0:
428,144,162176,2,0,P|380:140|328:144,1,90,0|8,0:0|0:0,0:0:0:0:
276,208,162843,1,0,0:0:0:0:
372,220,163176,6,0,P|416:228|468:220,1,90,4|0,0:0|0:0,0:0:0:0:
432,308,163843,2,0,P|348:340|248:308,1,180,8|0,0:0|0:0,0:0:0:0:
88,284,165176,1,12,0:0:0:0:
88,240,165343,1,0,0:0:0:0:
88,196,165510,1,0,0:0:0:0:
180,160,165843,6,0,P|272:160|332:100,1,180,4|8,0:0|0:0,0:0:0:0:
376,28,166843,1,0,0:0:0:0:
464,28,167176,1,2,0:0:0:0:
464,116,167510,1,0,0:0:0:0:
464,160,167676,1,0,0:0:0:0:
464,204,167843,1,4,0:0:0:0:
408,276,168176,1,0,0:0:0:0:
348,344,168510,6,0,L|256:344|180:292,1,180,2|8,0:0|0:0,0:0:0:0:
112,236,169510,1,0,0:0:0:0:
112,236,169676,1,0,0:0:0:0:
112,236,169843,2,0,P|132:156|220:160,1,180,2|4,0:0|0:0,0:0:0:0:
272,228,170843,5,0,0:0:0:0:
272,228,171010,1,0,0:0:0:0:
272,228,171176,2,0,L|452:228,1,180,2|8,0:0|0:0,0:0:0:0:
500,152,172176,1,0,0:0:0:0:
456,72,172510,2,0,P|412:72|380:104,1,90,2|0,0:0|0:0,0:0:0:0:
300,60,173176,1,4,0:0:0:0:
212,60,173510,1,0,0:0:0:0:
131,102,173843,6,0,P|100:72|56:72,2,90,2|0|8,0:0|0:0|0:0,0:0:0:0:
60,160,174843,1,0,0:0:0:0:
60,160,175010,2,0,P|60:240|100:288,1,135
152,348,175843,1,4,0:0:0:0:
220,288,176176,5,0,0:0:0:0:
220,288,176343,1,0,0:0:0:0:
220,288,176510,2,0,P|308:288|384:344,1,180,4|8,0:0|0:0,0:0:0:0:
460,296,177510,1,0,0:0:0:0:
448,272,177676,1,0,0:0:0:0:
436,248,177843,1,2,0:0:0:0:
400,164,178176,1,0,0:0:0:0:
388,140,178343,1,0,0:0:0:0:
376,116,178510,1,4,0:0:0:0:
340,32,178843,6,0,L|292:32,1,45
248,32,179176,2,0,P|200:32|168:56,1,90,4|0,0:0|0:0,0:0:0:0:
112,128,179843,1,8,0:0:0:0:
48,192,180176,1,0,0:0:0:0:
112,256,180510,1,2,0:0:0:0:
168,328,180843,2,0,P|200:352|248:352,1,90,0|4,0:0|0:0,0:0:0:0:
332,316,181510,1,0,0:0:0:0:
412,276,181843,6,0,B|444:192|444:192|412:108,2,180,4|8|2,0:0|0:0|0:0,0:0:0:0:
332,316,183510,1,0,0:0:0:0:
300,232,183843,1,4,0:0:0:0:
212,232,184176,1,0,0:0:0:0:
180,316,184510,6,0,P|96:316|28:252,1,180,2|8,0:0|0:0,0:0:0:0:
28,164,185510,1,0,0:0:0:0:
52,128,185676,1,0,0:0:0:0:
76,92,185843,1,2,0:0:0:0:
164,92,186176,1,0,0:0:0:0:
256,92,186510,1,4,0:0:0:0:
320,156,186843,5,0,0:0:0:0:
348,192,187010,1,0,0:0:0:0:
376,228,187176,1,4,1:2:0:0:
404,264,187343,1,0,1:0:0:0:
432,300,187510,2,0,L|356:356,1,90,0|2,1:0|1:2,0:0:0:0:
300,288,188176,1,0,0:0:0:0:
300,288,188343,2,0,P|256:288|216:316,1,90,0|0,1:0|1:0,0:0:0:0:
216,356,188843,1,0,1:0:0:0:
136,312,189176,5,4,0:0:0:0:
116,272,189343,1,0,1:0:0:0:
96,232,189510,1,0,1:0:0:0:
76,192,189676,1,0,1:0:0:0:
56,152,189843,6,0,L|196:152,1,135,4|0,0:0|0:0,0:0:0:0:
236,152,190510,1,8,0:0:0:0:
308,96,190843,2,0,L|408:96,1,90,0|4,0:0|0:0,0:0:0:0:
476,140,191510,1,0,0:0:0:0:
452,180,191676,1,0,0:0:0:0:
428,216,191843,1,8,0:0:0:0:
392,296,192176,1,0,0:0:0:0:
340,220,192510,6,0,P|256:188|176:224,1,180,4|8,0:0|0:0,0:0:0:0:
177,222,193343,1,0,0:0:0:0:
177,222,193510,1,0,0:0:0:0:
132,300,193843,1,4,0:0:0:0:
100,268,194010,1,8,0:0:0:0:
88,224,194176,1,0,0:0:0:0:
84,136,194510,2,0,P|64:100|20:72,1,90,8|0,0:0|0:0,0:0:0:0:
160,60,195176,6,0,P|200:120|256:148,1,135,4|0,0:0|0:0,0:0:0:0:
300,156,195843,2,0,P|348:180|372:216,1,90,8|0,0:0|0:0,0:0:0:0:
288,244,196510,1,4,0:0:0:0:
356,304,196843,1,0,0:0:0:0:
272,336,197176,2,0,P|228:324|180:336,1,90,8|0,0:0|0:0,0:0:0:0:
116,240,197843,6,0,P|48:200|40:104,1,180,4|8,0:0|0:0,0:0:0:0:
104,44,198843,2,0,L|196:44,1,90,0|4,0:0|0:0,0:0:0:0:
236,56,199343,1,8,0:0:0:0:
280,44,199510,1,0,0:0:0:0:
360,84,199843,1,8,0:0:0:0:
384,120,200010,1,0,0:0:0:0:
408,156,200176,1,8,0:0:0:0:
432,192,200343,1,0,0:0:0:0:
452,232,200510,6,0,B|414:300|312:253|300:311,1,180,4|8,0:0|0:0,0:0:0:0:
188,360,201510,2,0,L|96:376,1,90,0|4,0:0|0:0,0:0:0:0:
108,288,202176,2,0,L|16:304,2,90,0|8|0,0:0|0:0|0:0,0:0:0:0:
144,156,203176,6,0,P|184:84|288:72,1,180,4|8,0:0|0:0,0:0:0:0:
316,84,204010,1,0,0:0:0:0:
360,68,204176,1,0,0:0:0:0:
432,124,204510,2,0,L|468:156,2,45,4|8|0,0:0|0:0|0:0,0:0:0:0:
364,184,205176,2,0,P|320:208|296:256,1,90,8|0,0:0|0:0,0:0:0:0:
228,320,205843,6,0,P|184:240|92:204,1,180,4|8,0:0|0:0,0:0:0:0:
72,120,206843,1,0,0:0:0:0:
72,120,207010,1,0,0:0:0:0:
72,120,207176,1,0,0:0:0:0:
152,76,207510,2,0,L|248:76,1,90,0|8,0:0|0:0,0:0:0:0:
288,76,208010,1,0,0:0:0:0:
332,76,208176,1,0,0:0:0:0:
400,136,208510,5,4,0:0:0:0:
404,180,208676,1,0,0:0:0:0:
382,219,208843,1,8,0:0:0:0:
347,247,209010,1,0,0:0:0:0:
302,252,209176,1,8,0:0:0:0:
262,171,209510,1,0,0:0:0:0:
217,170,209676,1,8,0:0:0:0:
172,174,209843,1,0,0:0:0:0:
126,174,210010,1,8,0:0:0:0:
87,255,210343,1,0,0:0:0:0:
110,292,210509,1,8,0:0:0:0:
149,313,210676,1,0,0:0:0:0:
193,316,210843,1,8,0:0:0:0:
238,313,211010,1,0,0:0:0:0:
282,308,211176,5,4,0:0:0:0:
360,263,211510,1,0,0:0:0:0:
314,185,211843,2,0,P|258:169|190:201,1,135,8|0,0:0|0:0,0:0:0:0:
163,235,212510,2,0,P|119:267|71:263,1,90,2|0,0:0|0:0,0:0:0:0:
42,188,213176,1,8,0:0:0:0:
16,104,213510,5,0,0:0:0:0:
44,68,213676,1,0,0:0:0:0:
88,56,213843,2,0,P|131:98|229:46,1,180,2|8,0:0|0:0,0:0:0:0:
256,140,214843,1,0,0:0:0:0:
336,180,215176,2,0,L|396:212,2,45,2|8|0,0:0|0:0|0:0,0:0:0:0:
328,92,215843,2,0,L|376:64,2,45,8|0|0,0:0|0:0|0:0,0:0:0:0:
256,140,216510,6,0,P|204:164|128:136,1,135,4|0,0:0|0:0,0:0:0:0:
96,120,217176,1,8,0:0:0:0:
20,172,217510,1,0,0:0:0:0:
20,172,217676,1,0,0:0:0:0:
20,172,217843,2,0,P|48:244|8:296,1,135,2|0,0:0|0:0,0:0:0:0:
32,332,218510,2,0,P|80:360|124:352,1,90,8|0,0:0|0:0,0:0:0:0:
160,280,219176,5,4,0:0:0:0:
256,128,219843,1,8,0:0:0:0:
344,284,220510,1,8,0:0:0:0:
388,284,220676,1,0,0:0:0:0:
428,260,220843,1,0,0:0:0:0:
468,180,221176,1,8,0:0:0:0:
492,144,221343,1,0,0:0:0:0:
488,100,221510,1,8,0:0:0:0:
456,68,221676,1,0,0:0:0:0:
424,48,221843,6,0,P|364:32|296:80,1,135,4|0,0:0|0:0,0:0:0:0:
272,92,222510,2,0,P|232:112|164:100,1,90,8|0,0:0|0:0,0:0:0:0:
100,120,223176,1,2,0:0:0:0:
20,160,223510,1,0,0:0:0:0:
80,224,223843,2,0,P|124:248|172:232,1,90,8|0,0:0|0:0,0:0:0:0:
192,324,224510,6,0,P|256:292|368:336,1,180,2|8,0:0|0:0,0:0:0:0:
396,344,225343,1,0,0:0:0:0:
440,336,225510,1,0,0:0:0:0:
468,252,225843,1,2,0:0:0:0:
472,208,226010,1,8,0:0:0:0:
448,172,226176,1,0,0:0:0:0:
380,112,226510,1,8,0:0:0:0:
344,88,226676,1,0,0:0:0:0:
300,104,226843,1,0,0:0:0:0:
220,144,227176,6,0,P|140:176|84:160,1,135,4|0,0:0|0:0,0:0:0:0:
48,168,227843,2,0,P|8:200|16:264,1,90,8|0,0:0|0:0,0:0:0:0:
52,312,228510,1,0,0:0:0:0:
132,352,228843,1,0,0:0:0:0:
168,328,229010,1,0,0:0:0:0:
188,288,229176,2,0,L|284:288,1,90,8|0,0:0|0:0,0:0:0:0:
352,344,229843,6,0,P|372:292|320:220,1,135,4|0,0:0|0:0,0:0:0:0:
304,196,230510,1,8,0:0:0:0:
376,140,230843,1,0,0:0:0:0:
360,100,231010,1,0,0:0:0:0:
324,76,231176,1,0,0:0:0:0:
248,124,231510,1,0,0:0:0:0:
208,104,231676,1,0,0:0:0:0:
164,108,231843,2,0,P|116:120|64:104,1,90,12|0,0:0|0:0,0:0:0:0:
36,192,232510,5,4,0:0:0:0:
16,280,232843,1,0,0:0:0:0:
56,300,233010,1,0,0:0:0:0:
100,288,233176,2,0,P|152:272|224:316,1,135,8|0,0:0|0:0,0:0:0:0:
260,332,233843,2,0,P|304:344|352:324,1,90,4|0,0:0|0:0,0:0:0:0:
396,256,234510,1,8,0:0:0:0:
456,188,234843,1,0,0:0:0:0:
384,132,235176,5,4,0:0:0:0:
356,96,235343,1,8,0:0:0:0:
316,76,235510,1,0,0:0:0:0:
272,68,235676,1,0,0:0:0:0:
228,80,235843,1,8,0:0:0:0:
192,108,236010,1,0,0:0:0:0:
176,148,236176,1,8,0:0:0:0:
180,192,236343,1,8,0:0:0:0:
216,220,236510,5,0,0:0:0:0:
216,264,236676,1,8,0:0:0:0:
180,292,236843,1,0,0:0:0:0:
136,296,237010,1,8,0:0:0:0:
104,264,237176,1,8,0:0:0:0:
96,220,237343,1,0,0:0:0:0:
52,204,237510,1,8,0:0:0:0:
16,228,237676,1,8,0:0:0:0:
12,272,237843,5,4,0:0:0:0:
68,100,238510,1,8,0:0:0:0:
236,36,239176,2,0,P|292:28|340:100,1,135,2|0,0:0|0:0,0:0:0:0:
340,128,239843,2,0,P|372:160|432:160,1,90,8|0,0:0|0:0,0:0:0:0:
460,244,240510,5,2,0:0:0:0:
400,312,240843,1,2,0:0:0:0:
400,312,241010,2,0,L|340:312,1,45,0|8,0:0|0:0,0:0:0:0:
308,312,241343,2,0,L|248:312,1,45,0|2,0:0|0:0,0:0:0:0:
184,356,241843,1,8,0:0:0:0:
172,312,242010,1,0,0:0:0:0:
192,268,242176,2,0,P|175:226|186:183,1,90,2|8,0:0|0:0,0:0:0:0:
264,140,242843,2,0,P|280:196|252:244,1,90,2|4,0:0|0:0,0:0:0:0:
380,368,243843,5,8,0:0:0:0:
484,220,244510,1,2,0:0:0:0:
492,132,244843,1,0,0:0:0:0:
412,96,245176,1,8,0:0:0:0:
332,140,245510,1,0,0:0:0:0:
340,228,245843,6,0,L|288:244,1,45,2|0,0:0|0:0,0:0:0:0:
256,256,246176,2,0,L|204:276,1,45
172,288,246510,2,0,L|120:304,2,45,8|0|0,0:0|0:0|0:0,0:0:0:0:
160,200,247176,1,0,0:0:0:0:
136,160,247343,1,8,0:0:0:0:
148,116,247510,1,0,0:0:0:0:
192,36,247843,1,8,0:0:0:0:
236,28,248010,1,0,0:0:0:0:
276,48,248176,1,8,0:0:0:0:
296,88,248343,1,8,0:0:0:0:
280,132,248510,5,4,0:0:0:0:
484,217,249176,2,0,P|488:176|464:136,1,90,8|0,0:0|0:0,0:0:0:0:
427,110,249676,1,0,0:0:0:0:
388,133,249843,2,0,P|373:195|410:261,1,135,2|0,0:0|0:0,0:0:0:0:
424,297,250510,1,8,0:0:0:0:
334,306,250843,5,2,0:0:0:0:
334,306,251010,1,0,0:0:0:0:
334,306,251176,2,0,P|286:294|234:318,1,90,2|0,0:0|0:0,0:0:0:0:
159,320,251843,2,0,P|114:295|109:234,1,90,8|0,0:0|0:0,0:0:0:0:
70,229,252343,1,0,0:0:0:0:
61,184,252510,1,2,0:0:0:0:
83,145,252676,1,8,0:0:0:0:
125,129,252843,1,0,0:0:0:0:
213,141,253176,2,0,P|269:161|337:73,1,180,8|2,0:0|0:0,0:0:0:0:
419,40,254176,5,0,0:0:0:0:
473,111,254510,1,8,0:0:0:0:
431,190,254843,1,2,0:0:0:0:
431,190,255010,1,0,0:0:0:0:
431,190,255176,2,0,P|411:254|443:318,1,135,2|0,0:0|0:0,0:0:0:0:
402,341,255843,2,0,L|310:341,1,90,4|0,0:0|0:0,0:0:0:0:
255,270,256510,5,4,0:0:0:0:
255,180,256843,1,8,0:0:0:0:
255,180,257176,1,2,0:0:0:0:
256,88,257510,1,8,0:0:0:0:
272,44,257676,1,8,0:0:0:0:
312,28,257843,1,0,0:0:0:0:
356,32,258010,1,8,0:0:0:0:
419,96,258343,5,8,0:0:0:0:
435,137,258510,1,8,0:0:0:0:
438,181,258676,1,0,0:0:0:0:
412,218,258843,1,8,0:0:0:0:
376,245,259010,1,8,0:0:0:0:
331,239,259176,1,4,0:0:0:0:
151,258,259843,5,8,0:0:0:0:
206,187,260176,2,0,P|234:223|241:265,1,90,0|2,0:0|0:0,0:0:0:0:
151,259,260843,2,0,P|123:223|115:180,2,90,0|8|0,0:0|0:0|0:0,0:0:0:0:
206,187,261843,5,2,0:0:0:0:
280,76,262176,1,0,0:0:0:0:
268,212,262510,1,8,0:0:0:0:
158,133,262843,1,0,0:0:0:0:
280,76,263176,6,0,P|368:100|376:177,1,180,2|10,0:0|0:0,0:0:0:0:
320,248,264176,1,0,0:0:0:0:
308,272,264343,1,0,0:0:0:0:
296,296,264510,6,0,B|216:340|216:340|127:340,1,180,6|8,0:0|0:0,0:0:0:0:
112,252,265510,1,0,0:0:0:0:
56,180,265843,2,0,P|152:172|199:231,1,180,2|8,0:0|0:0,0:0:0:0:
112,252,266843,1,0,0:0:0:0:
56,180,267176,5,2,0:0:0:0:
100,100,267510,2,0,L|72:64,2,45,0|0|10,0:0|0:0|0:0,0:0:0:0:
188,124,268176,1,0,0:0:0:0:
144,204,268510,2,0,B|212:224|256:180|256:180|315:180,1,180,2|8,0:0|0:0,0:0:0:0:
352,100,269510,1,0,0:0:0:0:
352,100,269676,1,0,0:0:0:0:
352,100,269843,6,0,P|316:180|326:269,1,180,6|8,0:0|0:0,0:0:0:0:
256,324,270843,1,0,0:0:0:0:
185,269,271176,2,0,B|156:222|88:246|77:196,1,135,2|0,0:0|0:0,0:0:0:0:
80,152,271843,1,8,0:0:0:0:
140,84,272176,1,0,0:0:0:0:
184,84,272343,1,0,0:0:0:0:
228,84,272510,6,0,L|268:104,1,45,2|0,0:0|0:0,0:0:0:0:
312,116,272843,1,0,0:0:0:0:
356,118,273010,1,0,0:0:0:0:
381,156,273176,1,10,0:0:0:0:
378,200,273343,1,0,0:0:0:0:
341,225,273510,1,0,0:0:0:0:
296,222,273676,1,0,0:0:0:0:
272,185,273843,6,0,L|232:165,1,45,2|8,0:0|0:0,0:0:0:0:
186,165,274176,2,0,L|146:185,1,45
108,212,274510,1,8,0:0:0:0:
70,237,274676,1,0,0:0:0:0:
58,281,274843,1,0,0:0:0:0:
84,316,275010,1,0,0:0:0:0:
128,330,275176,1,6,0:0:0:0:
236,280,275510,5,0,0:0:0:0:
258,257,275676,1,0,0:0:0:0:
281,234,275843,1,8,0:0:0:0:
192,212,276176,5,0,0:0:0:0:
223,180,276343,1,0,0:0:0:0:
254,149,276510,1,0,0:0:0:0:
165,127,276843,5,0,0:0:0:0:
207,84,277010,1,0,0:0:0:0:
249,42,277176,1,10,0:0:0:0:
165,127,277510,1,2,0:0:0:0:
256,200,277843,6,0,P|304:248|317:311,1,135,2|0,0:0|0:0,0:0:0:0:
292,348,278510,1,8,0:0:0:0:
204,372,278843,2,0,P|172:340|163:298,1,90,0|2,0:0|0:0,0:0:0:0:
256,200,279510,2,0,P|287:231|296:273,2,90,0|8|0,0:0|0:0|0:0,0:0:0:0:
256,200,280510,1,4,0:0:0:0:
256,192,280676,12,4,282510,0:0:0:0:
340,84,283176,6,0,B|256:48|256:48|164:88,1,180,4|2,0:0|0:0,0:0:0:0:
96,124,284176,1,0,0:0:0:0:
32,188,284510,1,2,0:0:0:0:
28,276,284843,1,0,0:0:0:0:
112,308,285176,1,2,0:0:0:0:
196,280,285510,1,0,0:0:0:0:
256,212,285843,6,0,P|312:236|392:164,1,180,2|2,0:0|0:0,0:0:0:0:
400,120,286676,1,0,0:0:0:0:
412,76,286843,1,0,0:0:0:0:
324,76,287176,2,0,L|232:76,2,90,2|0|2,0:0|0:0|0:0,0:0:0:0:
368,76,288010,1,0,0:0:0:0:
412,76,288176,1,0,0:0:0:0:
396,164,288510,6,0,B|344:168|304:136|240:164,1,135,4|0,0:0|0:0,0:0:0:0:
216,172,289176,1,2,0:0:0:0:
136,128,289510,2,0,L|96:104,2,45,0|0|2,0:0|0:0|0:0,0:0:0:0:
132,216,290176,2,0,L|76:244,2,45,0|0|2,0:0|0:0|0:0,0:0:0:0:
168,308,290843,1,0,0:0:0:0:
256,344,291176,5,4,0:0:0:0:
424,192,291843,1,2,0:0:0:0:
256,48,292510,1,2,0:0:0:0:
168,68,292843,1,0,0:0:0:0:
128,88,293010,1,0,0:0:0:0:
120,132,293176,1,4,0:0:0:0:
136,220,293510,1,0,0:0:0:0:
220,248,293843,6,0,P|276:260|332:200,1,135,4|0,0:0|0:0,0:0:0:0:
360,176,294510,2,2,P|396:140|444:136,1,90,4|2,0:0|0:0,0:0:0:0:
464,52,295176,1,2,0:0:0:0:
376,28,295510,1,0,0:0:0:0:
296,68,295843,2,0,L|196:68,1,90,2|0,0:0|0:0,0:0:0:0:
128,24,296510,6,0,P|112:64|124:108,1,90,4|0,0:0|0:0,0:0:0:0:
188,176,297176,1,2,0:0:0:0:
212,216,297343,1,0,0:0:0:0:
256,232,297510,1,0,0:0:0:0:
324,172,297843,1,2,0:0:0:0:
488,240,298510,1,4,0:0:0:0:
488,328,298843,1,0,0:0:0:0:
400,352,299176,6,0,P|348:332|260:368,1,135,4|0,0:0|0:0,0:0:0:0:
228,360,299843,2,0,P|176:356|144:320,1,90,2|0,0:0|0:0,0:0:0:0:
76,276,300510,1,2,0:0:0:0:
44,192,300843,1,0,0:0:0:0:
92,116,301176,1,4,0:0:0:0:
124,84,301343,1,0,0:0:0:0:
168,84,301510,1,0,0:0:0:0:
256,112,301843,5,4,0:0:0:0:
256,192,302010,12,4,303843,0:0:0:0:
256,192,304510,5,4,0:0:0:0:
256,100,304843,2,0,L|256:56,2,45,0|0|8,0:0|0:0|0:0,0:0:0:0:
256,192,305510,1,0,0:0:0:0:
204,268,305843,1,6,0:0:0:0:
256,340,306176,1,0,0:0:0:0:
300,340,306343,1,0,0:0:0:0:
344,340,306510,1,8,0:0:0:0:
432,340,306843,1,0,0:0:0:0:
480,264,307176,6,0,P|480:172|420:112,1,180,6|8,0:0|0:0,0:0:0:0:
380,92,308010,1,0,0:0:0:0:
340,68,308176,1,0,0:0:0:0:
256,104,308510,2,0,L|256:148,2,45,6|8|0,0:0|0:0|0:0,0:0:0:0:
172,68,309176,5,10,0:0:0:0:
132,92,309343,1,0,0:0:0:0:
96,116,309510,2,0,L|52:144,2,45,0|0|4,0:0|0:0|0:0,0:0:0:0:
148,188,310176,1,0,0:0:0:0:
176,224,310343,1,0,0:0:0:0:
204,260,310510,6,0,P|248:260|288:288,1,90,8|0,0:0|0:0,0:0:0:0:
352,344,311176,1,6,0:0:0:0:
440,344,311510,1,0,0:0:0:0:
460,304,311676,1,0,0:0:0:0:
480,264,311843,1,8,0:0:0:0:
444,184,312176,1,0,0:0:0:0:
404,104,312510,6,0,P|320:104|240:52,1,180,6|8,0:0|0:0,0:0:0:0:
152,56,313510,1,0,0:0:0:0:
92,124,313843,2,0,L|92:172,1,45,6|8,0:0|0:0,0:0:0:0:
92,216,314176,1,0,0:0:0:0:
92,260,314343,1,0,0:0:0:0:
92,304,314510,1,14,0:0:0:0:
172,340,314843,2,8,L|220:340,1,45
264,340,315176,6,0,P|308:340|344:312,1,90,4|0,0:0|0:0,0:0:0:0:
344,268,315676,2,0,L|344:224,1,45,0|8,0:0|0:0,0:0:0:0:
344,132,316176,1,0,0:0:0:0:
288,60,316510,1,6,0:0:0:0:
200,60,316843,1,0,0:0:0:0:
160,84,317010,1,0,0:0:0:0:
120,108,317176,1,8,0:0:0:0:
84,192,317510,1,0,0:0:0:0:
120,276,317843,6,0,P|204:276|280:332,1,180,6|8,0:0|0:0,0:0:0:0:
304,368,318676,2,0,L|360:368,1,45
420,312,319176,2,0,L|452:276,1,45,6|8,0:0|0:0,0:0:0:0:
484,248,319510,1,0,0:0:0:0:
420,184,319843,2,0,L|384:152,1,45,14|0,0:0|0:0,0:0:0:0:
352,128,320176,1,0,0:0:0:0:
288,64,320510,5,6,0:0:0:0:
200,64,320843,1,0,0:0:0:0:
136,128,321176,1,8,0:0:0:0:
136,220,321510,1,0,0:0:0:0:
136,220,321676,2,0,P|204:220|256:260,1,135
304,336,322510,1,12,0:0:0:0:
348,336,322676,1,0,0:0:0:0:
392,336,322843,1,0,0:0:0:0:
444,264,323176,5,6,0:0:0:0:
468,224,323343,1,0,1:0:0:0:
492,184,323510,1,0,1:0:0:0:
444,108,323843,2,0,P|396:108|360:80,1,90,0|0,1:0|0:0,0:0:0:0:
332,52,324343,1,0,1:0:0:0:
256,96,324676,5,0,1:0:0:0:
228,96,324843,1,0,1:0:0:0:
200,96,325010,1,0,1:0:0:0:
172,96,325176,1,0,1:0:0:0:
144,96,325343,1,0,1:0:0:0:
116,96,325510,1,0,1:0:0:0:
88,96,325676,1,0,1:0:0:0:
60,96,325843,1,6,0:0:0:0:
60,184,326176,5,0,0:0:0:0:
60,184,326343,1,0,0:0:0:0:
60,184,326510,2,0,P|84:224|120:248,1,90,8|0,0:0|0:0,0:0:0:0:
148,162,327176,2,0,P|184:138|208:98,1,90,2|0,0:0|0:0,0:0:0:0:
120,76,327843,1,8,0:0:0:0:
148,162,328176,1,0,0:0:0:0:
228,204,328510,6,0,P|312:208|324:288,1,180,2|8,0:0|0:0,0:0:0:0:
296,324,329343,1,0,0:0:0:0:
256,344,329510,1,0,0:0:0:0:
188,284,329843,6,0,L|212:236,1,45,2|8,0:0|0:0,0:0:0:0:
228,204,330176,1,0,0:0:0:0:
252,116,330510,2,0,P|284:80|323:69,1,90,10|0,0:0|0:0,0:0:0:0:
368,76,331010,1,0,0:0:0:0:
408,96,331176,1,6,0:0:0:0:
440,180,331510,6,0,L|459:220,2,45,0|0|8,0:0|0:0|0:0,0:0:0:0:
408,96,332176,1,0,0:0:0:0:
308,188,332510,1,2,0:0:0:0:
272,60,332843,1,0,0:0:0:0:
372,152,333176,1,8,0:0:0:0:
236,188,333509,1,0,0:0:0:0:
336,280,333843,6,0,P|308:320|271:335,1,90,2|0,0:0|0:0,0:0:0:0:
171,243,334510,2,0,P|199:203|236:188,1,90,8|0,0:0|0:0,0:0:0:0:
300,128,335176,1,2,0:0:0:0:
300,128,335343,1,8,0:0:0:0:
300,128,335510,1,0,0:0:0:0:
228,76,335843,1,10,0:0:0:0:
204,164,336176,1,8,0:0:0:0:
204,164,336343,1,8,0:0:0:0:
204,164,336510,6,0,P|164:140|121:137,1,90,6|0,0:0|0:0,0:0:0:0:
140,228,337176,1,8,0:0:0:0:
72,288,337510,2,0,P|112:312|154:314,1,90,0|2,0:0|0:0,0:0:0:0:
224,257,338176,1,0,0:0:0:0:
140,228,338510,2,0,P|100:204|57:201,2,90,8|0|2,0:0|0:0|0:0,0:0:0:0:
224,257,339510,5,0,0:0:0:0:
304,217,339843,1,8,0:0:0:0:
324,257,340010,1,0,0:0:0:0:
304,297,340176,1,0,0:0:0:0:
224,256,340510,2,0,L|216:211,1,45,2|8,0:0|0:0,0:0:0:0:
208,168,340843,1,0,0:0:0:0:
289,127,341176,2,0,L|304:216,1,90,10|0,0:0|0:0,0:0:0:0:
412,296,341843,6,0,L|397:207,1,90,6|0,0:0|0:0,0:0:0:0:
376,120,342510,1,8,0:0:0:0:
288,128,342843,2,0,L|251:102,1,45
196,172,343343,2,0,L|159:146,1,45
88,200,343843,1,12,0:0:0:0:
122,226,344010,1,0,0:0:0:0:
156,252,344176,1,0,0:0:0:0:
196,172,344510,6,0,L|269:223,1,90,4|0,0:0|0:0,0:0:0:0:
348,268,345176,1,8,0:0:0:0:
372,180,345510,1,0,0:0:0:0:
372,180,345676,2,0,P|328:88|264:64,1,135
212,64,346510,2,0,L|167:56,2,45,12|0|0,0:0|0:0|0:0,0:0:0:0:
172,144,347176,6,0,P|148:178|152:224,1,90,4|0,0:0|0:0,0:0:0:0:
152,224,347676,1,0,0:0:0:0:
152,224,347843,1,8,0:0:0:0:
191,305,348176,1,0,0:0:0:0:
260,248,348510,6,0,L|350:248,1,90,4|0,0:0|0:0,0:0:0:0:
396,248,349010,1,0,0:0:0:0:
440,248,349176,1,8,0:0:0:0:
418,160,349510,1,0,0:0:0:0:
348,104,349843,6,0,P|304:116|269:142,1,90,4|0,0:0|0:0,0:0:0:0:
256,185,350343,1,0,0:0:0:0:
256,230,350510,1,8,0:0:0:0:
256,320,350843,5,0,0:0:0:0:
216,195,351176,1,0,0:0:0:0:
322,273,351510,1,0,0:0:0:0:
190,273,351843,1,8,0:0:0:0:
296,195,352176,1,0,0:0:0:0:
256,320,352510,5,4,0:0:0:0:
380,192,353176,1,8,0:0:0:0:
256,60,353843,1,2,0:0:0:0:
132,192,354510,1,8,0:0:0:0:
256,320,355176,6,0,P|296:280|380:276,1,135,4|0,0:0|0:0,0:0:0:0:
416,264,355843,2,0,P|468:232|484:180,1,90,8|0,0:0|0:0,0:0:0:0:
436,128,356510,1,2,0:0:0:0:
396,48,356843,1,0,0:0:0:0:
332,112,357176,1,0,0:0:0:0:
288,112,357343,1,0,0:0:0:0:
244,112,357510,1,0,0:0:0:0:
256,192,357843,12,0,365843,0:0:0:0:
