osu file format v9

[General]
AudioFilename: nao - entrance to you.mp3
AudioLeadIn: 1000
PreviewTime: 65637
Countdown: 0
SampleSet: Soft
StackLeniency: 0.6
Mode: 0
LetterboxInBreaks: 1

[Editor]
Bookmarks: 2005,19817,34817,49817,66692,81692,96692
DistanceSpacing: 1
BeatDivisor: 4
GridSize: 8

[Metadata]
Title:entrance to you (Stage Ver.)
Artist:nao
Creator:ykcarrot
Version:Normal
Source:CUSTOM MAID 3D
Tags:ARM IOSYS Miku

[Difficulty]
HPDrainRate:4
CircleSize:4
OverallDifficulty:4
ApproachRate:4
SliderMultiplier:1.1
SliderTickRate:0.5

[Events]
//Background and Video events
Video,160,"BGA.avi"
0,0,"Maid Wallpaper.jpg"
//Break Periods
2,20017,25997
//Storyboard Layer 0 (Background)
//Storyboard Layer 1 (Fail)
//Storyboard Layer 2 (Pass)
//Storyboard Layer 3 (Foreground)
//Storyboard Sound Samples
//Background Colour Transformations
3,100,163,162,255

[TimingPoints]
130,468.75,4,2,1,50,1,0
15950,-100,4,2,1,40,0,0
19817,468.75,4,2,2,80,1,0
34348,-100,4,1,2,80,0,0
34582,-100,4,2,1,80,0,0
45949,-100,4,2,1,60,0,0
46184,-100,4,2,1,80,0,0
47824,-100,4,2,1,60,0,0
48059,-100,4,2,1,80,0,0
48879,-100,4,1,1,70,0,0
49582,-100,4,2,2,80,0,0
60949,-100,4,2,2,60,0,0
61184,-100,4,2,2,80,0,0
61887,-100,4,2,2,60,0,0
62121,-100,4,1,1,80,0,0
62824,-100,4,2,2,60,0,0
63059,-100,4,2,2,80,0,0
63293,-100,4,1,1,80,0,0
63527,-100,4,2,2,60,0,0
66692,-100,4,2,2,80,0,1
81574,-100,4,2,2,80,0,0
81692,-100,4,2,2,80,0,1
88137,-100,4,1,1,70,0,1
88957,-100,4,2,2,80,0,1
96223,-100,4,2,2,80,0,0
96457,-100,4,2,1,50,0,0
109699,-100,4,2,1,40,0,0
110520,-100,4,2,1,30,0,0

[Colours]
Combo1 : 64,128,128
Combo2 : 128,64,64
Combo3 : 232,196,23

[HitObjects]
256,304,1067,1,0
256,192,1536,1,0
256,80,2005,2,0,B|192:80|160:136,1,110,4|0
112,136,2708,2,0,B|80:184|112:240,1,110,0|2
160,336,3645,5,0
160,336,3880,2,0,B|216:312|216:240,1,110
216,192,4583,2,0,B|264:160|320:192,1,110,0|2
416,240,5520,5,0
416,240,5755,2,0,B|456:184|408:128,1,110
384,96,6458,2,0,B|328:128|264:88,1,110,0|2
176,56,7395,5,0
176,56,7630,1,0
72,96,8098,1,0
72,96,8333,2,0,B|40:144|72:200,1,110,0|2
144,288,9270,5,0
144,288,9505,2,0,B|256:288,1,110
254,288,10208,2,0,B|384:288,1,110,0|2
368,176,11145,5,0
368,176,11380,2,0,B|256:176,1,110
258,176,12083,2,0,B|128:176,1,110,0|2
200,80,13020,5,0
200,80,13255,1,0
312,80,13723,1,0
312,80,13958,1,0
432,192,14661,5,0
432,192,15130,2,0,B|424:288|352:336,1,165
256,192,16067,12,4,19817
256,96,27317,5,2
344,160,27785,1,10
432,224,28254,1,2
344,288,28723,1,10
256,352,29192,5,2
256,352,29660,1,10
168,288,30129,1,2
256,224,30598,1,10
168,160,31067,6,0,B|96:160|80:96,1,110,0|8
80,48,31770,2,0,B|112:0|208:0|232:64,1,165,0|8
280,48,32707,2,0,B|312:0|408:0|432:64,1,165
424,104,33645,2,0,B|416:112|416:112|424:120|424:120|416:128|416:128|424:136|424:136|416:144|416:144|424:152|424:152|416:160|416:160|424:168|424:168|416:176|416:176|424:184|424:184|416:192|416:192|424:200|424:200|416:208|416:208|424:216|424:216|416:224,1,165,0|8
419,220,34817,1,4
416,328,35285,6,0,B|392:360|344:360|320:328,1,110
280,296,35988,1,2
200,224,36457,2,0,B|144:200|144:128,1,110
192,104,37160,2,0,B|248:128|248:200,1,110
248,248,37863,1,2
352,272,38332,6,0,B|376:304|440:304|456:256,1,110
448,216,39035,2,0,B|424:184|360:184|344:232,1,110
304,248,39738,1,2
304,136,40207,2,0,B|272:80|208:80,1,110
160,80,40910,2,0,B|112:184|184:184|160:296,1,220
80,368,42317,1,4
0,296,42785,6,0,B|0:232|56:208,1,110
104,184,43488,1,2
216,184,43957,2,0,B|272:184|264:232|328:232,1,110
344,184,44660,2,0,B|400:184|392:232|456:232,1,110
496,232,45363,1,2
496,120,45832,5,0
496,120,46067,2,0,B|528:64|496:16,2,110,4|0|0
440,120,47238,1,0
328,120,47707,2,0,B|256:120,2,55,0|4|0
384,120,48410,2,0,B|416:176|376:240,1,110,0|2
328,320,49348,1,8
256,240,49817,1,4
184,320,50285,5,8
112,240,50754,1,0
152,136,51223,1,8
256,96,51692,1,0
360,136,52160,1,8
400,240,52629,1,0
328,320,53098,2,0,B|256:312|256:232,1,110,8|0
256,136,54035,6,0,B|368:136,1,110,8|0
392,88,54738,2,0,B|456:88|480:160,1,110
480,200,55442,1,0
480,312,55910,1,8
384,256,56379,2,8,B|328:288,4,55,8|8|8|8|4
480,200,57785,5,8
424,104,58254,1,0
312,104,58723,1,8
256,200,59192,2,0,B|256:264,2,55,0|0|8
256,144,59895,2,0,B|224:48|128:48,1,165,4|0
80,48,60832,5,0
80,48,61067,2,0,B|80:168,1,110,4|0
80,216,61770,1,0
80,216,62004,2,0,B|80:288|160:288,1,110,4|4
200,288,62707,5,0
256,288,62942,2,0,B|256:360,2,55,4|8|8
312,288,63645,2,0,B|416:288|416:96|312:96,1,275,4|0
256,192,65285,1,0
256,80,65754,5,2
256,192,66223,1,2
368,192,66692,5,4
424,288,67160,2,0,B|480:288|488:232,2,82.5,8|0|0
368,288,68098,1,8
256,288,68567,1,0
200,192,69035,2,0,B|144:192|136:248,2,82.5,8|0|0
256,192,69973,1,8
368,192,70442,5,0
368,80,70910,2,0,B|416:80|448:128,2,82.5,8|0|0
312,80,71848,1,8
200,80,72317,1,0
104,136,72785,2,0,B|64:80|112:24,2,110,8|0|8
104,248,74192,6,0,B|64:304|112:360,2,110,4|8|0
152,224,75363,2,0,B|216:192,1,55,0|8
304,152,76067,2,0,B|344:208|296:264,2,110,0|8|0
256,128,77238,2,0,B|192:96,1,55,0|8
160,80,77707,5,0
112,104,77942,2,0,B|80:128|80:184|120:208,1,110,0|8
160,224,78645,1,0
208,248,78879,2,0,B|240:272|240:328|200:352,1,110,0|8
160,368,79582,5,0
112,344,79817,2,0,B|64:344|40:288,2,82.5
160,312,80754,2,8,B|208:264,1,55,8|8
256,272,81223,2,8,B|296:208,1,55
344,224,81692,6,0,B|344:144,1,55,4|0
344,112,82160,2,0,B|392:112|400:160,2,82.5,8|0|0
288,112,83098,1,8
176,112,83567,2,0,B|104:112,1,55
64,112,84035,2,0,B|64:64|112:56,2,82.5,8|0|0
64,168,84973,1,8
64,280,85442,6,0,B|144:280,1,55
176,280,85910,2,0,B|192:328|160:328|176:376,2,82.5,8|0|0
176,224,86848,1,8
112,132,87317,2,0,B|168:112|168:152|232:124,1,110,0|8
256,88,88020,1,0
292,128,88254,2,0,B|344:148|344:112|399:131,1,110,2|8
336,224,89192,6,0,B|296:272|344:336,2,110,4|8|0
376,184,90363,1,0
376,184,90598,1,8
376,72,91067,2,0,B|432:40|496:80,2,110,0|8|0
328,96,92238,1,8
328,96,92473,1,0
280,128,92707,5,0
280,128,92942,2,0,B|232:120|232:176|176:168,1,110,0|0
184,224,93645,1,0
184,224,93879,2,0,B|232:216|232:272|280:264,1,110
328,288,94582,5,0
376,264,94817,1,0
424,192,95168,1,0
424,104,95520,2,0,B|344:88|344:128|256:104,1,165
152,104,96692,6,0,B|120:160|160:224,1,110,4|0
168,264,97395,2,0,B|104:264|80:336,2,110
208,304,98567,6,0,B|232:336|280:336|304:304,1,110,2|0
344,264,99270,2,0,B|408:264|432:336,2,110
360,208,100442,6,0,B|392:160|360:104,1,110,2|0
304,96,101145,2,0,B|280:64|232:64|208:96,2,110,0|0|0
256,128,102317,6,0,B|256:256,2,110,2|0|0
208,96,103488,2,0,B|144:96|96:144,1,110
64,168,104192,5,2
64,280,104660,1,0
64,280,104895,1,0
160,224,105363,1,0
160,112,105832,1,0
160,112,106067,5,2
256,168,106535,1,0
256,168,106770,1,0
256,56,107238,1,0
352,112,107707,1,0
352,112,107942,5,2
352,224,108410,1,0
352,224,108645,1,0
448,168,109113,1,0
448,280,109582,1,0
448,280,109817,6,0,B|400:328,1,55,4|0
352,320,110285,2,0,B|288:320,1,55
