osu file format v9

[General]
AudioFilename: nao - entrance to you.mp3
AudioLeadIn: 1000
PreviewTime: 65637
Countdown: 0
SampleSet: Soft
StackLeniency: 0.6
Mode: 0
LetterboxInBreaks: 1

[Editor]
Bookmarks: 2005,19817,34817,49817,66692,81692,96692
DistanceSpacing: 1
BeatDivisor: 4
GridSize: 8

[Metadata]
Title:entrance to you (Stage Ver.)
Artist:nao
Creator:ykcarrot
Version:Hard
Source:CUSTOM MAID 3D
Tags:ARM IOSYS Miku

[Difficulty]
HPDrainRate:7
CircleSize:5
OverallDifficulty:7
ApproachRate:7
SliderMultiplier:1.8
SliderTickRate:0.5

[Events]
//Background and Video events
Video,160,"BGA.avi"
0,0,"Maid Wallpaper.jpg"
//Break Periods
2,20016,25479
//Storyboard Layer 0 (Background)
//Storyboard Layer 1 (Fail)
//Storyboard Layer 2 (Pass)
//Storyboard Layer 3 (Foreground)
//Storyboard Sound Samples
//Background Colour Transformations
3,100,163,162,255

[TimingPoints]
130,468.75,4,2,0,50,1,0
598,-133.333333333333,4,2,1,50,0,0
15950,-133.333333333333,4,2,1,40,0,0
17473,-133.333333333333,4,2,1,0,0,0
17708,-100,4,2,2,80,0,0
19817,468.75,4,2,2,80,1,0
26145,-100,4,1,1,70,0,0
27258,-100,4,2,2,80,0,0
34348,-100,4,1,2,80,0,0
34582,-100,4,2,1,80,0,0
45949,-100,4,2,1,60,0,0
46184,-100,4,2,1,80,0,0
47824,-100,4,2,1,60,0,0
48059,-100,4,2,1,80,0,0
48762,-100,4,1,1,70,0,0
49758,-100,4,2,2,80,0,0
60949,-100,4,2,2,60,0,0
61184,-100,4,2,2,80,0,0
61887,-100,4,2,2,60,0,0
62121,-100,4,1,1,80,0,0
62824,-100,4,2,2,60,0,0
63059,-100,4,2,2,80,0,0
63293,-100,4,1,1,80,0,0
63527,-100,4,2,2,60,0,0
66692,-100,4,2,2,80,0,1
81574,-100,4,2,2,80,0,0
81692,-100,4,2,2,80,0,1
88137,-100,4,1,1,70,0,1
89133,-100,4,2,2,80,0,1
96223,-100,4,2,2,80,0,0
96457,-133.333333333333,4,2,1,50,0,0
109699,-133.333333333333,4,2,1,40,0,0
110520,-133.333333333333,4,2,1,30,0,0

[Colours]
Combo1 : 64,128,128
Combo2 : 128,64,64
Combo3 : 232,196,23

[HitObjects]
256,328,1067,1,0
256,192,1536,1,0
256,56,2005,2,0,B|176:56|128:136,1,134.999995976687,4|0
80,88,2708,2,0,B|40:152|80:216,1,134.999995976687,0|2
288,256,3645,5,0
344,224,3880,1,0
344,160,4114,1,0
288,128,4348,1,0
288,192,4583,2,0,B|128:192,1,134.999995976687,0|2
320,304,5520,5,0
288,360,5755,1,0
224,360,5989,1,0
192,304,6223,1,0
256,304,6458,2,0,B|256:160,1,134.999995976687,0|2
56,128,7395,5,0
112,160,7630,1,0
112,224,7864,1,0
56,256,8098,1,0
56,192,8333,2,0,B|200:192,1,134.999995976687,0|2
256,192,9036,1,0
293,248,9270,5,0
328,192,9505,2,0,B|288:120|336:56,1,134.999995976687
392,64,10208,2,0,B|248:64,1,134.999995976687,0|2
256,256,11145,6,0,B|256:336,2,67.4999979883433
256,192,11848,1,0
312,160,12083,2,0,B|296:136|280:120|232:120|208:136|192:176,1,134.999995976687,0|2
112,344,13020,6,0,B|72:344|48:296,2,67.4999979883433
144,288,13723,1,0
176,232,13958,2,0,B|256:232|280:312,1,134.999995976687
312,360,14661,5,0
312,360,15130,2,0,B|416:320|432:208,1,202.49999396503
256,192,16067,12,0,17473
144,72,17942,5,0
131,84,18059,1,0
121,98,18176,1,0
111,113,18294,1,0
102,128,18411,1,0
96,145,18528,1,0
93,162,18645,5,8
92,179,18762,1,8
93,197,18880,1,8
95,214,18997,1,8
98,231,19114,1,8
103,248,19231,1,8
110,264,19348,2,0,B|136:329|209:362|265:358,1,180,8|4
152,64,26379,5,2
152,64,26496,1,2
88,128,26731,1,8
88,128,26848,1,8
24,192,27082,5,4
24,192,27199,1,4
24,192,27317,1,2
256,328,27785,1,10
488,192,28254,1,2
256,56,28723,1,10
256,328,29192,5,2
256,328,29660,1,10
24,192,30129,1,2
256,56,30598,1,10
256,328,31067,6,0,B|336:328|336:232,1,135
336,192,31535,1,8
336,104,31770,1,0
256,56,32004,2,0,B|256:0,2,45,0|8|0
176,104,32473,1,8
176,192,32707,6,0,B|184:256|256:280|336:256|336:184,1,225
336,192,33410,1,0
256,160,33645,2,0,B|248:152|248:152|264:144|264:144|248:136|248:136|264:128|264:128|248:120|248:120|264:112|264:112|248:104|248:104|264:96|264:96|248:88|248:88|264:80|264:80|248:72|248:72|264:64|264:64|248:56|248:56|264:48|264:48|248:40|248:40|264:32|264:32|256:24,1,270,0|8
255,36,34817,1,4
472,192,35285,6,0,B|496:240|464:288,2,90
392,232,35988,2,0,B|336:232|320:168,1,90,2|0
280,104,36457,2,0,B|328:72|376:112,2,90,0|2|0
216,168,37160,2,0,B|168:192|112:160,1,90
64,112,37629,1,0
64,112,37863,2,0,B|16:136|16:192,1,90,2|0
16,272,38332,6,0,B|8:304|24:344|56:344,2,90,0|2|0
72,200,39035,2,0,B|88:176|144:176|160:208,1,90
208,272,39504,1,0
208,272,39738,2,0,B|216:304|200:344|168:344,1,90,2|0
112,272,40207,2,0,B|128:312|96:320|112:360,2,90,0|2|0
112,184,40910,1,0
112,96,41145,5,0
112,96,41262,1,0
112,96,41379,2,0,B|200:40|280:96,1,180
360,56,42082,2,0,B|392:96|360:144,1,90,0|4
200,360,42785,6,0,B|144:360|128:304,2,90
200,272,43488,2,0,B|200:168,1,90,2|0
200,88,43957,2,0,B|256:88|272:144,2,90,0|2|0
112,88,44660,1,0
24,88,44895,1,0
64,168,45129,1,0
152,168,45363,2,0,B|152:264,1,90,2|0
152,352,45832,6,0,B|104:352|64:304,2,90,0|4|0
240,352,46535,2,0,B|320:352|320:272|408:272,1,180
488,272,47238,2,0,B|488:216|440:192,1,90
368,160,47707,2,0,B|392:112|448:112,2,90,0|4|0
360,248,48410,2,0,B|312:248|288:200,1,90
224,80,48879,5,2
224,80,48996,1,2
112,152,49231,1,8
112,152,49348,1,8
112,288,49582,1,4
112,288,49699,1,4
112,288,49817,1,4
376,336,50285,6,0,B|432:336|480:296,1,90,8|0
352,280,50754,2,0,B|408:272|432:208,1,90
312,232,51223,2,0,B|360:208|352:144,1,90,8|0
256,208,51692,2,0,B|256:96,1,90
198,231,52160,2,0,B|152:208|158:158,1,90,8|0
158,279,52629,2,0,B|104:272|89:229,1,90
135,335,53098,2,0,B|80:336|51:310,2,90,8|0|0
256,200,54035,6,0,B|256:104,1,90,8|0
256,110,54387,1,0
256,110,54504,1,0
256,24,54738,2,0,B|200:24|176:80,2,90,0|8|0
344,24,55442,1,0
400,96,55676,1,0
456,24,55910,2,0,B|504:48|504:112,1,90,8|0
504,184,56379,5,8
504,232,56496,1,8
480,272,56613,1,8
440,296,56731,1,8
392,296,56848,1,8
304,272,57082,1,8
304,272,57199,1,8
304,272,57317,1,4
80,120,57785,6,0,B|32:120|0:168,1,90,8|0
96,184,58254,2,0,B|96:232|144:264,1,90,0|0
160,168,58723,2,0,B|208:168|240:120,1,90,8|0
144,104,59192,2,0,B|144:56|96:24,2,90,0|0|8
96,184,59895,2,0,B|120:288|208:312,1,180,4|8
304,312,60598,5,0
304,312,60715,1,8
304,312,60832,1,0
256,240,61067,2,0,B|248:232|248:232|256:224|256:224|248:216|248:216|256:208|256:208|248:200|248:200|256:192|256:192|248:184|248:184|256:176|256:176|248:168|248:168|256:160|256:160|248:152|248:152|256:144|256:144|248:136|248:136|256:128|256:128|248:120|248:120|256:112,1,180,4|0
304,32,61770,1,0
304,32,62004,2,0,B|352:32|384:80,2,90,4|8|4
256,112,62707,1,0
208,32,62942,1,12
208,32,63176,1,8
208,32,63410,2,0,B|160:32|128:80,1,90,8|4
256,192,63762,12,0,64817
256,192,65285,5,0
256,40,65754,5,2
256,344,66223,1,2
512,192,66692,5,4
464,264,66926,1,0
416,192,67160,2,0,B|368:160|320:200,1,90,8|0
296,216,67512,2,0,B|248:248|200:208,1,90
176,192,67863,2,0,B|128:160|80:200,2,90,0|8|0
128,272,68567,5,0
192,336,68801,1,0
256,272,69035,2,0,B|272:216|336:216,1,90,8|0
344,256,69387,2,0,B|328:312|264:312,1,90
232,312,69738,2,0,B|184:312|168:256,2,90,0|8|0
256,224,70442,5,0
176,184,70676,1,0
176,96,70910,1,8
256,48,71145,1,0
256,48,71262,1,0
336,96,71496,1,0
336,96,71613,1,0
336,184,71848,2,0,B|336:280,1,90,8|0
336,368,72317,5,0
256,320,72551,1,0
176,368,72785,1,8
96,320,73020,1,0
96,320,73137,2,0,B|24:296|24:208,1,135
24,128,73723,1,8
112,128,73957,5,8
112,128,74074,1,8
112,128,74192,2,0,B|136:176|200:176,1,90,4|0
264,136,74660,2,0,B|296:184|256:232,1,90,8|0
264,220,75012,1,0
232,304,75246,1,0
232,304,75363,2,0,B|176:304|160:248,2,90,0|8|0
320,304,76067,6,0,B|376:304|408:256,1,90
464,208,76535,2,0,B|464:96,1,90,8|0
464,118,76887,1,0
416,40,77121,1,0
416,40,77238,2,0,B|368:8|320:48,1,90,0|8
256,88,77707,5,0
184,144,77942,2,0,B|208:208|312:208|328:136,1,180,0|8
256,88,78645,1,0
256,176,78879,1,0
248,216,78996,1,8
256,256,79113,1,0
264,304,79231,1,0
256,344,79348,1,8
168,344,79582,5,0
88,304,79817,2,0,B|40:288|40:216,1,90
40,192,80168,2,0,B|104:192|168:128,1,135
240,96,80754,1,8
264,120,80871,1,8
288,144,80988,1,8
312,168,81106,1,8
336,192,81223,1,8
360,216,81340,1,8
384,240,81457,1,8
448,304,81692,5,4
512,240,81926,1,0
448,304,82160,1,8
384,368,82395,1,0
384,368,82512,1,0
320,304,82746,1,0
320,304,82863,2,0,B|272:304|240:352,2,90,0|8|0
384,240,83567,5,0
448,176,83801,1,0
384,240,84035,1,8
320,176,84270,1,0
320,176,84387,1,0
384,112,84621,1,0
384,112,84738,2,0,B|440:112|464:72,2,90,0|8|0
320,48,85442,6,0,B|272:16|224:56,1,90
176,112,85910,1,8
176,200,86145,1,0
176,200,86262,2,0,B|120:200|104:136,1,90
72,120,86613,2,0,B|24:136|24:192,1,90,0|8
24,280,87082,1,0
88,344,87317,5,0
128,264,87551,1,0
208,216,87785,1,8
304,216,88020,1,0
384,264,88254,1,2
384,264,88371,1,2
424,344,88606,1,8
424,344,88723,1,8
336,344,88957,5,4
336,344,89074,1,4
336,344,89192,2,0,B|284:344|252:304,1,90,4|0
176,344,89660,2,0,B|228:344|260:304,1,90,8|0
256,264,90012,2,0,B|256:160,1,90
296,144,90363,2,0,B|280:120|232:120|216:144,2,90,0|8|0
368,88,91067,6,0,B|352:32|296:40,1,90
209,39,91535,2,0,B|160:32|144:88,1,90,8|0
144,136,91887,2,0,B|168:184|136:240,1,90
144,222,92238,1,8
112,304,92473,2,0,B|72:344,2,45,0|8|0
184,256,92942,6,0,B|200:304|256:312|320:304|328:248,1,180
256,192,93645,1,0
184,128,93879,2,0,B|200:80|256:72|320:80|328:136,1,180
256,192,94582,1,0
256,280,94817,1,0
256,104,95168,1,0
256,280,95520,2,0,B|424:280|424:96,1,270
423,111,96692,5,4
368,80,96926,1,0
312,112,97160,1,0
256,80,97395,2,0,B|192:64|192:112|120:80,2,134.999995976687,0|0|0
256,144,98567,5,2
200,176,98801,1,0
256,208,99035,1,0
312,176,99270,2,0,B|376:160|376:208|448:176,2,134.999995976687,0|0|0
256,144,100442,5,2
200,176,100676,1,0
144,208,100910,1,0
88,240,101145,2,0,B|24:280|24:360,2,134.999995976687,0|0|0
144,272,102317,5,2
200,304,102551,1,0
448,192,103020,1,0
200,80,103488,2,0,B|200:32,2,33.7499989941716
144,112,103957,1,0
88,144,104192,6,0,B|64:104|96:64,2,67.4999979883433,2|0|0
136,192,104895,1,0
368,328,105363,1,0
368,56,105832,1,0
424,88,106067,6,0,B|448:48|416:8,2,67.4999979883433,2|0|0
392,144,106770,1,0
120,144,107238,1,0
256,376,107707,1,0
256,312,107942,6,0,B|256:232,2,67.4999979883433,2|0|0
256,312,108645,1,0
120,80,109113,1,0
392,80,109582,1,0
392,144,109817,6,0,B|384:184|336:184,1,67.4999979883433,4|0
288,144,110285,2,0,B|248:144|232:192,1,67.4999979883433
