osu file format v9

[General]
AudioFilename: nao - entrance to you.mp3
AudioLeadIn: 1000
PreviewTime: 65637
Countdown: 0
SampleSet: Soft
StackLeniency: 0.6
Mode: 0
LetterboxInBreaks: 1

[Editor]
Bookmarks: 2005,19817,34817,49817,66692,81692,96692
DistanceSpacing: 1
BeatDivisor: 4
GridSize: 8

[Metadata]
Title:entrance to you (Stage Ver.)
Artist:nao
Creator:ykcarrot
Version:Easy
Source:CUSTOM MAID 3D
Tags:ARM IOSYS Miku

[Difficulty]
HPDrainRate:2
CircleSize:3
OverallDifficulty:2
ApproachRate:2
SliderMultiplier:0.799999999999999
SliderTickRate:1

[Events]
//Background and Video events
Video,160,"BGA.avi"
0,0,"Maid Wallpaper.jpg"
//Break Periods
2,20017,25757
//Storyboard Layer 0 (Background)
//Storyboard Layer 1 (Fail)
//Storyboard Layer 2 (Pass)
//Storyboard Layer 3 (Foreground)
//Storyboard Sound Samples
//Background Colour Transformations
3,100,163,162,255

[TimingPoints]
130,468.75,4,2,1,50,1,0
15950,-100,4,2,1,40,0,0
19817,468.75,4,2,2,80,1,0
31418,-100,4,1,2,80,0,0
31652,-100,4,2,2,80,0,0
34348,-100,4,1,2,80,0,0
34582,-100,4,2,1,80,0,0
45832,-100,4,2,1,60,0,0
48645,-100,4,1,1,70,0,0
49817,-100,4,2,2,80,0,0
59543,-100,4,1,2,80,0,0
59777,-100,4,2,2,80,0,0
60832,-100,4,2,2,60,0,0
66692,-100,4,2,2,80,0,1
68918,-100,4,1,2,80,0,1
69152,-100,4,2,2,80,0,1
72668,-100,4,1,2,80,0,1
72902,-100,4,2,2,80,0,1
78293,-100,4,1,2,80,0,1
78527,-100,4,2,2,80,0,1
79231,-100,4,1,2,80,0,1
79465,-100,4,2,2,80,0,1
80168,-100,4,1,2,80,0,1
81574,-100,4,2,2,80,0,0
81692,-100,4,2,2,80,0,1
85793,-100,4,1,2,80,0,1
86027,-100,4,2,2,80,0,1
87668,-100,4,1,2,80,0,1
87902,-100,4,2,2,80,0,1
88254,-100,4,1,1,70,0,1
88957,-100,4,2,2,80,0,1
96692,-100,4,2,1,50,0,0
109582,-100,4,2,1,40,0,0
110520,-100,4,2,1,30,0,0

[Colours]
Combo1 : 64,128,128
Combo2 : 128,64,64
Combo3 : 232,196,23

[HitObjects]
216,56,1067,1,0
296,56,1536,1,0
256,128,2005,2,0,B|208:224|304:224|248:336,1,200,4|2
160,248,3880,2,0,B|256:296|352:248,1,200,0|2
328,128,5755,6,0,B|328:88|296:72|256:64|208:72|184:88|184:136,1,200,0|2
184,248,7630,2,0,B|184:288|216:304|256:312|304:304|328:288|328:240,1,200,0|2
296,136,9505,6,0,B|328:80|424:80,2,120
216,136,11380,2,0,B|184:80|88:80,2,120
256,208,13255,5,0
216,280,13723,2,0,B|184:312|144:280,1,79.9999999999999
104,208,14661,1,0
144,136,15130,2,0,B|176:72|256:72,1,120
256,192,16067,12,4,19817
480,80,27317,5,2
424,136,27785,1,10
368,80,28254,1,2
312,136,28723,1,10
256,192,29192,5,2
200,248,29660,1,10
256,304,30129,1,2
312,248,30598,1,10
256,192,31067,6,0,B|256:48,2,120,0|0|8
200,248,32942,2,0,B|256:288|312:248,2,120,0|0|8
256,192,34817,1,4
256,112,35285,5,0
176,112,35754,2,0,B|176:208,1,79.9999999999999,0|0
96,192,36692,2,0,B|96:288,3,79.9999999999999,2|0|0|0
96,352,38567,5,2
176,328,39035,1,0
176,248,39504,2,0,B|168:208|184:208|176:168,1,79.9999999999999
256,168,40442,2,0,B|264:208|248:208|256:248,1,79.9999999999999,2|0
256,328,41379,2,0,B|288:368|368:368|400:328,1,160,0|4
400,248,42785,6,0,B|496:248,2,79.9999999999999
336,200,44192,1,2
272,152,44660,2,0,B|176:152,2,79.9999999999999
336,104,46067,5,4
104,336,47942,1,4
216,224,48879,2,0,B|312:224,2,79.9999999999999,2|8|4
136,224,50285,5,8
88,160,50754,1,0
136,96,51223,1,8
216,96,51692,2,0,B|216:176,1,79.9999999999999,0|8
296,176,52629,2,0,B|296:88,1,79.9999999999999,0|8
376,96,53567,1,0
456,96,54035,6,0,B|456:144|424:176,1,79.9999999999999,8|0
488,224,54973,2,0,B|464:272|424:280,1,79.9999999999999,8|0
352,280,55910,1,8
296,224,56379,2,0,B|256:248|256:304,2,79.9999999999999,8|8|4
352,168,57785,6,0,B|288:104,2,79.9999999999999,8|0|8
432,176,59192,2,0,B|424:248|344:248,2,120,0|4|8
432,96,61067,5,4
256,96,62004,1,4
80,96,62942,1,4
168,192,63645,2,0,B|200:232|256:240|320:232|352:184,1,200,4|0
256,56,65754,5,2
256,136,66223,1,2
256,216,66692,6,0,B|344:216,1,79.9999999999999,4|8
336,296,67629,2,0,B|240:296,1,79.9999999999999,0|8
176,296,68567,2,0,B|80:296|80:136|176:136,1,240,0|8
256,136,70442,6,0,B|256:248,1,79.9999999999999,0|8
336,216,71379,2,0,B|336:112,1,79.9999999999999,0|8
336,56,72317,2,0,B|480:56|480:248,1,240,0|8
480,296,74192,5,4
408,256,74660,1,8
336,296,75129,2,0,B|296:328|240:280,1,79.9999999999999,0|8
192,256,76067,1,0
120,296,76535,1,8
48,256,77004,2,0,B|16:216|64:160,1,79.9999999999999,0|8
112,128,77942,6,0,B|192:208|328:208|408:120,2,320,0|0|4
64,64,82160,6,0,B|24:88|32:136,2,79.9999999999999,8|0|8
112,128,83567,1,0
160,192,84035,2,0,B|200:168|192:120,2,79.9999999999999,8|0|8
112,256,85442,6,0,B|112:352|232:352,1,160
256,280,86848,1,8
296,352,87317,2,0,B|400:344|400:256,1,160,0|2
400,176,88723,1,8
360,104,89192,6,0,B|344:64|288:64,3,79.9999999999999,4|8|0|8
216,64,91067,2,0,B|168:64|152:104,3,79.9999999999999,0|8|0|0
112,176,92942,6,0,B|192:256|320:256|400:176,2,320,0|0|4
416,56,98567,5,2
256,336,100442,1,2
96,56,102317,1,2
296,304,104192,6,0,B|360:328|360:272|432:312,2,120,2|0|0
216,304,106067,2,0,B|152:328|152:272|80:312,2,120,2|0|0
256,232,107942,6,0,B|160:232|160:72|256:72,1,240,2|0
264,152,109817,2,0,B|336:144|336:64,1,120,4|0
