osu file format v9

[General]
AudioFilename: nao - Tsukumonotsuki (Short Ver.).MP3
AudioLeadIn: 2000
PreviewTime: 83173
Countdown: 0
SampleSet: Soft
StackLeniency: 0.7
Mode: 0
LetterboxInBreaks: 0

[Editor]
DistanceSpacing: 1.1
BeatDivisor: 4
GridSize: 4

[Metadata]
Title:Tsukumonotsuki
Artist:nao
Creator:nich95
Version:Insane
Source:Tsukumonotsuki
Tags:Sugar Pot opening eroge loli visual novel Konei BeatofIke kajiyatta

[Difficulty]
HPDrainRate:7
CircleSize:4
OverallDifficulty:7
ApproachRate:8
SliderMultiplier:1.8
SliderTickRate:1

[Events]
//Background and Video events
Video,0,"Tsukumonotsuki OP.avi"
0,0,"BG.jpg"
//Break Periods
//Storyboard Layer 0 (Background)
//Storyboard Layer 1 (Fail)
//Storyboard Layer 2 (Pass)
//Storyboard Layer 3 (Foreground)
//Storyboard Sound Samples
//Background Colour Transformations
3,100,163,162,255

[TimingPoints]
926,666.666666666667,4,2,1,40,1,0
926,-133.333333333333,4,2,1,25,0,0
1092,-133.333333333333,4,2,1,40,0,0
2926,-133.333333333333,4,2,0,40,0,0
3592,-133.333333333333,4,2,1,40,0,0
5592,-133.333333333333,4,2,0,40,0,0
6259,-133.333333333333,4,2,1,40,0,0
8259,-133.333333333333,4,2,0,40,0,0
8592,-133.333333333333,4,2,1,40,0,0
10926,-133.333333333333,4,2,0,40,0,0
11259,-133.333333333333,4,2,1,40,0,0
21380,444.444444444444,4,1,1,65,1,0
24935,-100,4,1,1,75,0,0
39157,-133.333333333333,4,2,2,40,0,0
53379,-100,4,1,2,65,0,0
66268,-100,4,1,1,70,0,0
67602,-100,4,1,2,75,0,0
68935,-100,4,1,1,75,0,0
69824,-100,4,1,2,75,0,0
70713,-100,4,1,1,75,0,0
71602,-100,4,1,2,75,0,0
72491,-100,4,1,1,75,0,0
75157,-100,4,1,2,75,0,0
76046,-100,4,1,1,75,0,0
76935,-100,4,1,2,75,0,0
77824,-100,4,1,1,75,0,0
78713,-100,4,1,2,75,0,0
79602,-100,4,1,1,75,0,0
80046,-100,4,1,2,75,0,0
80379,-100,4,1,1,75,0,0
80713,-100,4,1,2,75,0,0
81379,-133.333333333333,4,1,2,75,0,0
81602,-133.333333333333,4,1,2,45,0,0
81824,-133.333333333333,4,2,1,75,0,0
82268,-200,4,2,1,5,0,0
82713,-100,4,1,1,75,0,0
83602,-100,4,1,1,85,0,1
97379,-100,4,1,2,75,0,0
97824,-100,4,1,1,85,0,1
111602,-100,4,1,2,85,0,1
112046,-100,4,2,1,65,0,0

[Colours]
Combo1 : 0,0,160
Combo2 : 255,128,192
Combo3 : 128,128,255

[HitObjects]
128,160,926,2,0,B|176:104|248:96,1,134.999995976687,6|0
320,96,1926,1,2
356,104,2092,1,0
388,120,2259,1,2
392,268,2926,1,2
364,292,3092,1,0
328,304,3259,1,0
256,320,3592,6,0,B|192:328|128:288,1,134.999995976687,2|0
80,232,4592,1,2
64,200,4759,1,0
56,164,4926,1,2
192,108,5592,1,2
244,160,5926,1,0
300,208,6259,6,0,B|352:256,2,67.5000025749208,2|0|0
316,136,7259,1,2
332,64,7592,2,0,B|280:16,2,67.5000025749208,2|0|2
384,116,8592,1,0
372,188,8926,2,0,B|340:252|268:280,1,135.000005149842,2|0
200,280,9926,2,0,B|168:280,2,33.7499989941716,2|0|0
352,56,10926,5,2
352,56,11259,1,0
352,56,11592,2,0,B|416:88|456:152,1,134.999995976687,8|0
424,264,12592,1,0
424,264,12759,1,0
424,264,12925,2,0,B|360:232|320:168,1,134.999995976687,8|0
256,144,13925,1,0
187,175,14259,6,0,B|152:232|88:264,1,134.999995976687,8|0
60,144,15259,1,0
60,144,15425,1,0
60,144,15592,2,0,B|96:88|160:56,1,134.999995976687,8|0
224,88,16592,1,0
288,120,16925,6,0,B|352:240,1,134.999995976687,8|0
336,312,17925,1,0
264,320,18259,2,0,B|200:200,2,134.999995976687,8|0|4
96,192,21380,5,8
256,72,21824,1,0
416,192,22268,1,0
256,312,22713,1,0
96,192,23157,6,0,B|0:192,2,90,0|0|8
196,192,23824,1,0
296,192,24046,1,0
328,184,24157,1,0
352,160,24268,1,0
360,128,24379,1,0
352,96,24491,2,0,B|344:48|296:32,1,90,8|0
256,124,24935,6,0,B|176:172,1,90,4|0
88,128,25379,2,0,B|172:80,1,90,8|0
166,83,25713,1,0
348,164,25935,1,0
348,164,26046,2,0,B|422:113,2,90,0|8|0
352,264,26713,6,0,B|272:320,1,90
180,312,27157,1,8
88,276,27379,2,0,B|56:244,1,45
40,132,27713,2,0,B|72:164,1,45,8|0
160,120,28046,1,8
248,168,28268,1,0
296,184,28379,1,0
344,168,28491,6,0,B|408:140|408:48|344:24,1,180
228,96,29157,1,0
228,96,29268,1,0
228,96,29379,2,0,B|348:96,1,90
368,96,29713,1,0
416,96,29824,1,8
480,232,30046,5,0
480,232,30157,2,0,B|344:232,1,135
296,232,30602,1,0
248,232,30713,1,8
104,268,31046,1,0
104,268,31157,2,0,B|80:228|104:180,1,90,8|0
176,116,31602,1,8
176,116,31713,1,0
176,116,31824,2,0,B|200:156|176:204,1,90,0|4
88,84,32268,5,0
64,128,32379,1,0
56,176,32491,2,0,B|52:224|68:268,1,90
116,356,32824,2,0,B|120:308|104:264,1,90
132,168,33157,2,0,B|128:216|144:260,1,90,0|8
224,312,33602,2,0,B|308:280,1,90
388,220,34046,5,0
364,124,34268,1,8
272,88,34491,1,0
272,88,34602,2,0,B|224:104|176:88,1,90,0|0
88,128,34935,2,0,B|136:112|184:128,1,90,8|8
224,212,35379,2,0,B|248:252,1,45
272,292,35602,6,0,B|336:296|400:264|432:220,1,180,4|0
444,80,36268,1,0
444,80,36379,1,0
444,80,36491,2,0,B|384:152,1,90,4|0
340,160,36824,1,0
292,172,36935,2,0,B|232:244,1,90,8|0
84,268,37379,6,0,B|144:196,1,90,4|0
172,160,37713,1,0
204,120,37824,1,8
308,120,38046,1,8
340,160,38157,1,0
370,198,38268,2,0,B|428:268,1,90,0|0
284,288,38713,1,8
256,304,38824,1,0
228,320,38935,1,0
200,336,39046,1,0
176,348,39157,6,0,B|124:300|96:236,1,134.999995976687,4|2
120,168,39824,1,8
192,188,40046,2,2,B|252:216|328:204,1,134.999995976687,8|2
408,84,40935,2,0,B|348:56|272:68,1,134.999995976687,8|2
212,104,41602,1,8
244,172,41824,2,0,B|292:224|284:296,1,134.999995976687,8|2
220,332,42491,1,0
208,260,42713,6,0,B|280:256|332:208,1,134.999995976687,8|2
376,152,43379,1,8
332,92,43602,2,0,B|281:45|209:41,1,134.999995976687,8|2
144,72,44268,1,0
112,92,44379,1,0
80,112,44491,1,8
64,232,44713,6,0,B|120:188,1,67.4999979883433,0|0
264,248,45157,1,0
264,248,45268,1,0
264,248,45379,2,0,B|208:292,1,67.4999979883433,2|0
248,136,45824,2,0,B|304:92,1,67.4999979883433,0|0
464,224,46268,6,0,B|410:265,1,67.4999979883433,4|0
336,240,46713,1,2
368,172,46935,1,8
400,104,47157,2,0,B|372:44,1,67.5000025749208,8|0
248,40,47602,2,0,B|276:100,1,67.5000025749208,0|0
336,240,48046,6,0,B|200:240,1,134.999995976687,8|2
168,172,48713,1,8
136,104,48935,2,0,B|84:88|36:104,2,101.249996982515,8|0|0
280,172,49824,5,8
280,172,50268,1,2
312,240,50491,1,8
344,260,50602,1,0
376,280,50713,2,0,B|428:296|476:280,2,101.249996982515,8|0|0
356,176,51602,5,4
256,192,51713,12,4,53379
316,260,53602,5,0
316,260,53713,1,0
316,260,53824,2,0,B|224:260,1,90,8|0
192,168,54268,2,0,B|140:184|128:232,1,90
316,172,54713,2,0,B|368:156|380:108,1,90,8|0
192,52,55157,5,0
96,80,55379,1,0
80,128,55491,1,0
64,176,55602,2,0,B|88:216|88:264,1,90,8|0
168,320,56046,1,0
248,264,56268,1,0
296,256,56379,1,0
344,244,56491,2,0,B|364:196|408:180,1,90,8|0
468,64,56935,5,0
468,64,57379,1,8
384,116,57602,1,0
296,76,57824,1,0
216,132,58046,1,0
128,88,58268,1,8
64,164,58491,5,0
56,212,58602,1,0
48,260,58713,2,0,B|88:276|120:316,1,90,0|0
280,236,59157,2,0,B|240:220|208:180,1,90,8|0
192,136,59491,1,0
208,88,59602,5,2
340,60,59824,1,0
204,64,60046,1,8
336,84,60268,1,0
416,192,60491,5,4
364,276,60713,1,0
320,296,60824,1,0
272,308,60935,2,0,B|224:284|164:296,1,90,8|0
108,232,61379,1,0
188,172,61602,1,0
228,144,61713,1,0
268,116,61824,2,0,B|304:140|352:148,1,90,8|0
200,24,62268,5,0
188,172,62602,1,0
180,220,62713,2,0,B|148:252|104:264,1,90,8|0
180,324,63157,2,0,B|240:288|312:296,1,135,0|0
360,304,63602,1,8
440,244,63824,1,0
400,152,64046,6,0,B|304:124|248:60,1,180,4|8
256,192,64713,1,0
112,232,64935,2,0,B|208:260|264:324,1,180,4|0
256,192,65602,1,0
256,192,65824,6,0,B|320:256,1,90,4|0
456,264,66268,2,0,B|392:200,1,90,8|0
332,124,66713,1,0
332,124,66824,1,8
256,60,67046,1,0
256,60,67157,1,8
156,60,67379,2,0,B|64:60,1,90,0|4
60,192,67824,5,0
60,192,67935,1,0
60,192,68046,2,0,B|152:192,1,90,8|0
188,160,68379,1,0
228,128,68491,2,0,B|320:128,1,90
392,192,68935,1,8
360,284,69157,1,0
292,212,69379,5,0
260,304,69602,1,0
212,316,69713,1,0
164,328,69824,2,0,B|116:328|80:300,1,90,8|0
32,216,70268,1,0
112,156,70491,1,0
160,172,70602,1,0
208,172,70713,2,0,B|300:172,1,90,8|0
460,244,71157,5,0
384,312,71379,1,0
336,320,71491,1,0
288,320,71602,1,8
208,260,71824,1,0
160,172,72046,1,0
84,108,72268,1,0
84,108,72379,1,0
84,108,72491,2,0,B|56:148|64:196,1,90,8|0
248,124,72935,6,0,B|340:144,1,90
356,188,73268,1,0
380,232,73379,2,0,B|472:252,1,90,8|0
444,156,73824,5,0
424,112,73935,1,0
384,80,74046,1,0
336,64,74157,1,0
288,64,74268,1,8
256,156,74491,1,0
228,252,74713,5,4
228,252,74824,1,0
228,252,74935,2,0,B|140:252,1,90,0|8
32,128,75379,2,0,B|124:128,1,90
256,40,75824,1,0
256,40,75935,1,0
256,40,76046,2,0,B|292:76|288:120,1,90,8|0
260,280,76491,5,0
260,280,76602,1,0
260,280,76713,2,0,B|224:244|228:200,1,90,0|8
287,120,77157,1,0
384,144,77379,1,0
412,240,77602,2,0,B|412:288,2,45,0|0|8
316,216,78046,5,0
268,204,78157,1,0
220,204,78268,1,0
66,280,78491,2,0,B|156:280,1,90,0|8
220,204,78935,1,0
220,156,79046,1,0
200,112,79157,1,0
112,68,79379,1,0
60,152,79602,1,8
136,212,79824,1,0
66,280,80046,5,8
256,44,80379,1,8
446,280,80713,1,8
446,280,80935,1,8
416,80,81379,6,0,B|384:88|348:80,1,67.5000025749208
256,120,81824,6,0,B|192:80|120:76|60:104|24:172,1,270.000010299683,4|0
36,272,82935,5,8
36,272,83046,1,0
36,272,83157,1,8
124,320,83379,1,0
200,208,83602,6,0,B|296:208,1,90,4|0
372,156,84046,1,8
332,64,84268,1,0
284,64,84379,1,0
236,64,84491,1,0
148,112,84713,2,0,B|72:160,1,90,0|8
48,320,85157,5,0
48,320,85268,1,0
48,320,85379,2,0,B|124:272,1,90
216,316,85824,2,0,B|216:224,1,90,8|0
216,226,86157,1,0
296,64,86379,1,8
296,64,86491,2,0,B|296:154,1,90,8|8
364,292,86935,5,0
412,304,87046,1,0
460,316,87157,2,0,B|480:272|476:228,1,90
419,91,87602,2,0,B|399:135|403:179,1,90,8|0
403,179,87935,1,0
403,179,88046,2,0,B|324:224,1,90
252,340,88491,2,0,B|331:295,1,90,8|0
320,148,88935,5,0
268,64,89157,1,0
220,64,89268,1,0
172,64,89379,1,8
100,132,89602,1,0
100,132,89713,1,0
172,200,89935,1,0
172,200,90046,1,8
264,160,90268,1,8
296,180,90379,1,0
320,204,90491,1,0
332,236,90602,1,0
336,272,90713,5,4
256,328,90935,1,0
176,272,91157,1,8
96,216,91379,2,0,B|52:208,2,45
196,232,91824,2,0,B|240:240|288:240,1,90,0|8
428,188,92268,5,0
428,188,92379,1,0
428,188,92491,2,0,B|384:180|336:180,1,90
256,124,92935,1,8
173,180,93157,1,0
173,180,93268,2,8,B|128:180|84:188,1,90
52,204,93602,2,0,B|80:240|88:288,1,90,8|8
212,332,94046,5,0
212,332,94268,2,0,B|228:284|268:260,1,90,4|0
316,260,94602,1,0
364,260,94713,2,0,B|401:237|417:189,1,90,8|0
412,140,95046,1,0
396,96,95157,2,0,B|348:104|304:88,1,90,4|0
256,176,95602,1,8
204,89,95824,2,0,B|164:104|116:96,1,90,0|4
256,176,96268,5,0
256,176,96379,1,0
256,176,96491,2,0,B|256:264,1,90,8|0
256,266,96824,1,0
168,316,97046,1,0
168,316,97157,2,0,B|168:224,1,90,0|8
172,188,97491,1,0
184,152,97602,1,0
204,120,97713,1,0
228,92,97824,6,0,B|264:116|312:124,1,90,4|0
456,232,98268,2,0,B|420:208|372:200,1,90,8|0
332,228,98602,1,0
292,256,98713,2,0,B|200:256,1,90
112,300,99157,1,8
48,224,99379,5,0
48,176,99491,1,0
48,128,99602,2,0,B|88:96|132:88,1,90
296,88,100046,2,0,B|256:120|212:128,1,90,8|0
215,127,100379,1,0
156,208,100602,1,8
156,208,100713,1,8
216,288,100935,2,0,B|264:284|304:308,1,90,8|0
464,288,101379,5,0
440,192,101602,1,0
440,192,101713,1,0
440,192,101824,2,0,B|400:168|380:120,1,90,8|0
188,64,102268,2,0,B|232:80|252:128,1,90
172,188,102713,1,8
236,264,102935,1,0
152,316,103157,6,0,B|104:312|76:272,1,90
56,228,103491,1,0
56,180,103602,1,8
112,100,103824,1,0
112,100,103935,1,0
204,136,104157,1,0
204,136,104268,1,8
256,280,104491,1,8
304,292,104602,1,0
352,292,104713,1,0
400,280,104824,1,0
444,256,104935,6,0,B|460:168,1,90,4|0
372,40,105379,2,0,B|356:88|312:108,1,90,8|0
315,106,105713,1,0
315,106,105824,2,0,B|272:127|256:173,1,90
308,256,106268,1,8
232,316,106491,5,0
184,312,106602,1,0
136,308,106713,1,0
64,240,106935,2,0,B|92:200|96:156,1,90,0|8
32,84,107379,1,0
32,84,107491,1,0
128,68,107713,1,8
128,68,107824,1,8
228,68,108046,2,0,B|324:68,1,90,8|0
472,192,108491,6,0,B|380:192,1,90,4|0
360,236,108824,1,0
336,280,108935,2,0,B|244:280,1,90,8|0
152,312,109379,1,4
52,264,109602,1,0
28,148,109824,1,8
116,56,110046,1,0
240,108,110268,6,0,B|320:156,1,90,4|0
317,154,110602,1,0
317,154,110713,1,8
352,248,110935,1,0
352,248,111046,2,0,B|304:260|280:296,1,90,0|0
176,328,111379,2,0,B|224:316|248:280,1,90,0|8
200,192,111824,1,0
164,160,111935,1,0
148,112,112046,5,4
388,64,112379,1,4
308,296,112713,1,4
