osu file format v13

[General]
AudioFilename: nekopara.mp3
AudioLeadIn: 0
PreviewTime: 68364
Countdown: 0
SampleSet: Soft
StackLeniency: 0.4
Mode: 0
LetterboxInBreaks: 0
WidescreenStoryboard: 0

[Editor]
DistanceSpacing: 1.4
BeatDivisor: 4
GridSize: 8
TimelineZoom: 1.5

[Metadata]
Title:Taiyou Paradise
TitleUnicode:タイヨウパラダイス
Artist:nao
ArtistUnicode:nao
Creator:Minakami Yuki
Version:Normal
Source:ネコぱら vol.1 ソレイユ開店しました!
Tags:NEKO WORKs さより 雪仁 水城新人 KIZAWA Studio Sayori Yuki Jin Mizuki Shinjin Nekopara Soreiyu Kaiten Shimashita eroge VN galgame visual novel sun opening BeatofIke Moecho Fycho mtbbsben
BeatmapID:570178
BeatmapSetID:242019

[Difficulty]
HPDrainRate:4
CircleSize:3.5
OverallDifficulty:4
ApproachRate:5
SliderMultiplier:1.2
SliderTickRate:1

[Events]
//Background and Video events
0,0,"bg.jpg",0,0
//Break Periods
//Storyboard Layer 0 (Background)
//Storyboard Layer 1 (Fail)
//Storyboard Layer 2 (Pass)
//Storyboard Layer 3 (Foreground)
//Storyboard Sound Samples

[TimingPoints]
1630,408.163265306122,4,2,4,35,1,0
8976,-100,4,2,2,45,0,0
9589,-100,4,2,2,60,0,0
9895,-100,4,2,4,60,0,0
10099,-100,4,2,2,60,0,0
14283,-100,4,2,0,60,0,0
14691,-100,4,2,2,60,0,0
17344,-100,4,2,0,60,0,0
17956,-100,4,2,2,60,0,0
20609,-100,4,2,0,60,0,0
21221,-100,4,2,2,60,0,0
23874,-100,4,2,0,60,0,0
24283,-100,4,2,2,35,0,0
24487,-100,4,2,2,60,0,0
24589,-100,4,2,0,35,0,0
26323,-100,4,2,2,60,0,0
27752,-100,4,2,3,45,0,0
38976,-100,4,2,3,60,0,0
40405,-100,4,2,2,60,0,0
53058,-100,4,2,3,60,0,0
53466,-100,4,2,2,60,0,0
60405,-100,4,2,3,60,0,0
60813,-100,4,2,2,60,0,0
61221,-100,4,2,3,60,0,0
61629,-100,4,2,2,60,0,0
62038,-100,4,2,3,60,0,0
62446,-100,4,2,2,60,0,0
62854,-100,4,2,3,60,0,0
63262,-100,4,2,2,60,0,0
65507,-100,4,2,2,50,0,0
66732,-100,4,2,2,70,0,0
67548,-100,4,2,2,75,0,0
67956,-100,4,2,2,80,0,0
68568,-100,4,2,2,70,0,1
71221,-100,4,2,0,70,0,1
71834,-100,4,2,2,70,0,1
74487,-100,4,2,0,70,0,1
75099,-100,4,2,2,70,0,1
77752,-100,4,2,0,70,0,1
78364,-100,4,2,2,70,0,1
84283,-100,4,2,0,70,0,1
84691,-100,4,2,2,70,0,1
87548,-100,4,2,0,70,0,1
88160,-100,4,2,2,70,0,1
90813,-100,4,2,0,70,0,1
91425,-100,4,2,2,70,0,1
94691,-100,4,2,2,80,0,1
97140,-100,4,2,0,80,0,1
97956,-100,4,2,2,80,0,1
100405,-100,4,2,0,80,0,1
101221,-100,4,2,2,80,0,1
103976,-100,4,2,3,60,0,1
104487,-100,4,2,2,80,0,1
105915,-100,4,2,3,60,0,1
107752,-100,4,2,2,60,0,0
110405,-100,4,2,0,60,0,0
111017,-100,4,2,2,60,0,0
113670,-100,4,2,0,60,0,0
114283,-100,4,2,2,60,0,0
116936,-100,4,2,0,60,0,0
117344,-100,4,2,2,35,0,0
117548,-100,4,2,2,60,0,0
117650,-100,4,2,0,35,0,0
119385,-100,4,2,2,60,0,0
121017,-100,4,2,2,70,0,0
121425,-100,4,2,2,35,0,0
121629,-100,4,2,2,75,0,0
122038,-100,4,2,2,35,0,0
122242,-100,4,2,2,80,0,0
122446,-100,4,2,4,80,0,0
123262,-100,4,2,3,45,0,0

[Colours]
Combo1 : 255,192,0
Combo2 : 255,128,128
Combo3 : 255,36,255
Combo4 : 255,128,255

[HitObjects]
136,310,1630,6,0,B|154:252|154:252|222:235|272:287|240:380,2,240,6|0|2,0:0|0:0|0:0,0:0:0:0:
136,310,4078,1,0,0:0:0:0:
16,190,4487,2,0,L|43:109,1,60,4|0,0:0|0:0,0:0:0:0:
100,80,4895,6,0,P|153:105|219:90,1,120,4|2,0:0|0:0,0:0:0:0:
365,27,5711,2,0,L|445:36,1,60,0|2,0:0|0:0,0:0:0:0:
478,192,6323,2,0,L|358:178,1,120,0|0,0:0|0:0,0:0:0:0:
297,119,6936,2,0,P|281:143|273:172,1,60,4|4,0:0|0:0,0:0:0:0:
303,337,7548,1,0,0:0:0:0:
52,307,8160,5,4,0:0:0:0:
52,307,8364,2,0,P|71:241|45:177,1,120,0|4,0:0|0:0,0:0:0:0:
14,120,8976,2,0,L|8:51,2,60,8|8|8,0:0|0:0|0:0,0:0:0:0:
98,117,9589,6,0,P|158:83|277:103,1,180,4|2,0:0|0:0,0:0:0:0:
334,142,10405,2,0,L|328:270,1,120,4|0,0:0|0:0,0:0:0:0:
324,345,11017,1,4,0:0:0:0:
491,328,11425,6,0,L|493:268,1,60,12|8,0:0|0:3,0:0:0:0:
426,113,12038,1,0,0:0:0:0:
426,113,12242,2,0,L|424:173,1,60,12|8,0:0|0:0,0:0:0:0:
327,310,12854,6,0,P|263:340|162:284,1,180,4|8,0:0|0:3,0:0:0:0:
83,152,13874,2,0,L|7:160,1,60,2|0,0:0|0:0,0:0:0:0:
34,74,14283,2,0,L|93:67,1,60,8|0,0:0|0:0,0:0:0:0:
159,119,14691,6,0,P|217:125|270:99,1,120,4|8,0:0|0:0,0:0:0:0:
422,26,15507,2,0,L|496:32,2,60,2|0|8,0:0|0:0|0:0,0:0:0:0:
366,89,16119,2,0,P|348:145|367:200,1,120,0|0,0:0|0:0,0:0:0:0:
434,252,16732,1,8,0:0:0:0:
434,252,17140,2,0,L|441:319,2,60,2|8|8,0:0|0:0|0:0,0:0:0:0:
367,200,17752,1,0,0:0:0:0:
322,271,17956,6,0,P|272:302|214:294,1,120,4|8,0:0|0:0,0:0:0:0:
52,245,18772,2,0,L|3:289,2,60,2|0|8,0:0|0:0|0:0,0:0:0:0:
103,177,19385,2,0,P|105:118|74:68,1,120,0|0,0:0|0:0,0:0:0:0:
136,11,19997,2,0,L|258:28,1,120,8|2,0:0|0:0,0:0:0:0:
316,83,20609,2,0,P|330:58|335:23,1,60,8|8,0:0|0:0,0:0:0:0:
483,107,21221,6,0,P|453:158|473:233,2,120,4|8|2,0:0|0:0|0:0,0:0:0:0:
419,51,22242,2,0,L|342:59,1,60,0|8,0:0|0:0,0:0:0:0:
276,37,22650,2,0,P|220:20|163:43,1,120,0|0,0:0|0:0,0:0:0:0:
115,108,23262,1,8,0:0:0:0:
115,108,23670,2,0,L|41:101,2,60,4|8|8,0:0|0:0|0:0,0:0:0:0:
167,174,24283,1,8,0:0:0:0:
250,165,24487,6,0,B|251:242|174:283|112:238|112:238|51:247|40:313,1,300,4|2,0:0|0:3,0:0:0:0:
42,303,25915,1,2,0:3:0:0:
42,303,26323,2,0,L|48:363,1,60,4|4,0:0|0:0,0:0:0:0:
177,256,26936,2,0,L|165:136,1,120,4|8,0:0|0:0,0:0:0:0:
316,64,27752,6,0,P|374:73|428:48,2,120,12|8|8,0:0|0:0|0:0,0:0:0:0:
245,18,28772,2,0,L|181:23,1,60,0|8,0:0|0:0,0:0:0:0:
119,75,29181,2,0,P|139:131|121:187,1,120,0|0,0:0|0:0,0:0:0:0:
62,248,29793,2,0,L|-6:256,1,60,8|0,0:0|0:0,0:0:0:0:
32,333,30201,2,0,L|152:318,1,120,8|8,0:0|0:0,0:0:0:0:
317,336,31017,6,0,P|406:359|464:297,1,180,10|0,0:0|0:0,0:0:0:0:
381,278,31834,2,0,L|391:206,1,60,8|0,0:0|0:0,0:0:0:0:
473,213,32242,2,0,L|463:141,1,60,8|0,0:0|0:0,0:0:0:0:
426,78,32650,2,0,B|369:64|369:64|315:72|315:72|241:50,1,180,8|0,0:0|0:0,0:0:0:0:
209,125,33466,2,0,L|290:150,2,60,8|0|8,0:0|0:0|0:0,0:0:0:0:
129,97,34078,1,0,0:0:0:0:
49,124,34283,6,0,P|6:193|51:291,1,180,12|0,0:0|0:0,0:0:0:0:
113,315,35099,2,0,L|116:377,2,60,8|0|8,0:0|0:0|0:0,0:0:0:0:
190,283,35711,2,0,L|192:223,1,60,0|8,0:0|0:0,0:0:0:0:
265,71,36323,2,0,L|142:86,2,120,8|8|8,0:0|0:0|0:0,0:0:0:0:
295,150,37344,1,0,0:0:0:0:
359,204,37548,6,0,P|417:212|464:176,1,120,8|8,0:0|0:0,0:0:0:0:
419,14,38364,2,0,L|398:132,1,120,8|0,0:0|0:0,0:0:0:0:
420,213,38976,2,0,P|439:281|422:333,2,120,6|4|12,0:0|0:0|0:0,0:0:0:0:
339,239,39997,2,0,L|267:246,1,60,8|4,0:0|0:0,0:0:0:0:
199,217,40405,1,8,0:0:0:0:
199,217,40609,6,0,P|180:149|197:97,1,120,4|0,0:0|0:0,0:0:0:0:
137,39,41221,2,0,P|87:70|28:72,2,120,8|0|8,0:0|0:0|0:0,0:0:0:0:
190,104,42242,2,0,L|267:92,2,60,0|0|0,0:0|0:0|0:0,0:0:0:0:
148,174,42854,2,0,L|71:162,1,60,8|0,0:0|0:0,0:0:0:0:
22,218,43262,2,0,P|2:273|19:330,1,120,0|8,0:0|0:0,0:0:0:0:
185,308,44078,6,0,P|205:253|188:196,2,120,0|8|0,1:0|0:0|0:0,0:0:0:0:
239,372,45099,2,0,L|308:368,1,60,0|8,0:0|0:0,0:0:0:0:
378,340,45507,1,0,0:0:0:0:
378,340,45711,2,0,L|502:348,2,120,0|8|0,3:0|0:0|0:0,0:0:0:0:
327,272,46732,1,8,0:0:0:0:
327,272,46936,2,0,L|339:198,1,60,8|0,0:0|0:0,0:0:0:0:
415,187,47344,6,0,P|379:142|321:131,1,120,4|8,0:0|0:0,0:0:0:0:
246,172,47956,1,0,0:0:0:0:
189,234,48160,2,0,P|133:254|78:233,1,120,0|8,0:0|0:0,0:0:0:0:
30,164,48772,1,0,0:0:0:0:
87,102,48976,2,0,P|143:82|198:103,1,120,0|8,1:0|0:0,0:0:0:0:
272,253,49793,2,0,L|265:316,1,60,0|0,0:0|0:0,0:0:0:0:
349,316,50201,2,0,L|374:374,1,60,8|0,0:0|0:0,0:0:0:0:
454,351,50609,6,0,P|497:300|499:224,1,120,0|8,1:0|0:0,0:0:0:0:
481,82,51425,2,0,L|422:93,1,60,0|0,0:0|0:0,0:0:0:0:
347,132,51834,1,8,0:0:0:0:
347,132,52038,1,4,0:0:0:0:
204,43,52446,2,0,P|142:30|87:61,1,120,2|10,0:0|0:0,0:0:0:0:
83,137,53058,2,0,L|7:145,2,60,8|8|10,0:0|0:0|0:0,0:0:0:0:
244,187,53874,6,0,B|269:222|269:222|262:318,1,120,4|8,0:0|0:0,0:0:0:0:
107,362,54691,2,0,B|82:327|82:327|89:231,1,120,8|8,0:0|0:0,0:0:0:0:
143,187,55303,1,0,0:0:0:0:
143,187,55507,2,0,P|84:168|23:196,1,120,10|8,0:0|0:0,0:0:0:0:
147,66,56323,2,0,P|206:85|267:57,1,120,8|8,0:0|0:0,0:0:0:0:
319,6,56936,1,0,0:0:0:0:
319,6,57140,6,0,B|398:16|398:16|431:39,1,120,4|8,0:0|0:0,0:0:0:0:
470,202,57956,2,0,B|391:192|391:192|357:168,1,120,8|8,0:0|0:0,0:0:0:0:
316,96,58568,1,0,0:0:0:0:
316,96,58772,2,0,P|276:151|288:215,1,120,8|8,0:0|0:0,0:0:0:0:
249,365,59589,2,0,P|250:306|213:260,1,120,8|8,0:0|0:0,0:0:0:0:
142,214,60201,1,0,0:0:0:0:
84,274,60405,6,0,L|13:284,2,60,10|0|8,0:0|0:0|0:0,0:0:0:0:
204,156,61221,2,0,L|275:166,2,60,10|0|8,0:0|0:0|0:0,0:0:0:0:
289,300,62038,2,0,L|218:310,2,60,10|0|8,0:0|0:0|0:0,0:0:0:0:
409,182,62854,2,0,L|480:192,2,60,10|0|8,0:0|0:0|0:0,0:0:0:0:
351,120,63466,1,0,0:0:0:0:
400,52,63670,6,0,P|334:38|281:68,1,120,12|8,0:0|0:0,0:0:0:0:
225,116,64283,2,0,L|147:107,2,60,0|0|0,0:0|1:0|0:0,0:0:0:0:
254,194,64895,1,8,0:0:0:0:
225,272,65099,6,0,P|170:295|113:280,1,120,4|4,0:0|0:0,0:0:0:0:
50,224,65711,2,0,L|40:153,1,60,4|4,0:0|0:0,0:0:0:0:
124,177,66119,2,0,L|114:106,2,60,4|4|4,0:0|0:0|0:0,0:0:0:0:
207,190,66732,6,0,L|189:71,1,120,4|4,0:0|0:0,0:0:0:0:
293,202,67548,2,0,P|266:254|213:279,1,120,4|4,0:0|0:0,0:0:0:0:
465,272,68568,6,0,L|480:146,1,120,6|8,0:0|0:0,0:0:0:0:
455,72,69181,2,0,P|401:51|344:70,1,120,0|0,0:0|0:0,0:0:0:0:
314,148,69793,2,0,L|325:231,1,60,8|0,0:0|0:0,0:0:0:0:
297,287,70201,6,0,P|244:320|174:300,1,120,2|8,0:0|0:0,0:0:0:0:
143,240,70813,2,0,L|1:253,1,120,0|8,0:0|0:0,0:0:0:0:
38,168,71425,2,0,L|97:162,1,60,8|0,0:0|0:0,0:0:0:0:
174,125,71834,6,0,P|188:68|169:12,1,120,4|8,0:0|0:0,0:0:0:0:
308,107,72650,2,0,P|293:164|312:220,1,120,0|8,0:0|0:0,0:0:0:0:
385,262,73262,1,0,0:0:0:0:
385,262,73466,6,0,L|462:255,1,60,2|0,0:0|0:0,0:0:0:0:
479,333,73874,2,0,L|359:343,1,120,8|0,0:0|0:0,0:0:0:0:
279,368,74487,2,0,L|202:361,2,60,8|8|0,0:0|0:0|0:0,0:0:0:0:
289,283,75099,6,0,P|304:226|286:170,1,120,4|8,0:0|0:0,0:0:0:0:
217,122,75711,1,0,0:0:0:0:
237,40,75915,2,0,L|375:28,1,120,2|10,0:0|0:0,0:0:0:0:
422,81,76527,1,0,0:0:0:0:
389,158,76732,6,0,L|329:163,1,60,2|2,0:0|0:0,0:0:0:0:
280,231,77140,2,0,P|225:222|165:258,1,120,8|0,0:0|0:0,0:0:0:0:
116,316,77752,2,0,L|120:380,2,60,8|8|0,0:0|0:0|0:0,0:0:0:0:
41,277,78364,5,2,0:0:0:0:
34,109,78772,2,0,B|34:70|34:70|62:30|120:41,1,120,10|2,0:0|0:0,0:0:0:0:
176,83,79385,2,0,L|166:157,1,60,0|8,0:0|0:0,0:0:0:0:
110,203,79793,6,0,P|164:224|220:205,1,120,4|8,0:0|0:0,0:0:0:0:
302,187,80405,2,0,L|293:246,1,60,0|0,0:0|0:0,0:0:0:0:
245,315,80813,2,0,L|189:337,2,60,8|0|8,0:0|0:0|0:0,0:0:0:0:
328,326,81425,1,0,0:0:0:0:
380,260,81629,6,0,L|396:141,1,120,4|8,0:0|0:0,0:0:0:0:
472,106,82242,2,0,P|439:72|356:69,1,120,2|0,0:0|0:0,0:0:0:0:
304,117,82854,2,0,L|225:121,1,60,8|0,0:0|0:0,0:0:0:0:
169,159,83262,6,0,P|111:156|69:115,2,120,2|8|2,0:0|0:0|0:0,0:0:0:0:
244,120,84283,2,0,L|249:54,2,60,8|8|2,0:0|0:0|0:0,0:0:0:0:
294,186,84895,6,0,P|320:238|310:297,2,120,4|8|0,0:0|0:0|0:0,0:0:0:0:
219,224,85915,1,0,0:0:0:0:
154,170,86119,2,0,L|158:87,1,60,8|0,0:0|0:0,0:0:0:0:
201,39,86527,6,0,P|143:29|80:78,1,120,2|8,0:0|0:0,0:0:0:0:
84,226,87344,1,2,0:0:0:0:
14,272,87548,2,0,L|11:331,2,60,8|8|0,0:0|0:0|0:0,0:0:0:0:
84,226,88160,6,0,B|143:216|143:216|193:237|193:237|263:225,1,180,4|4,0:0|0:0,0:0:0:0:
353,364,89181,2,0,L|421:370,1,60,0|8,0:0|0:0,0:0:0:0:
471,310,89589,1,0,0:0:0:0:
471,310,89793,6,0,P|447:248|507:154,1,180,10|4,0:0|0:0,0:0:0:0:
372,48,90813,2,0,L|450:38,2,60,8|8|0,0:0|0:0|0:0,0:0:0:0:
295,82,91425,6,0,P|237:95|181:76,1,120,4|8,0:0|0:0,0:0:0:0:
29,147,92242,2,0,P|86:133|142:152,1,120,4|8,0:0|0:0,0:0:0:0:
205,207,92854,1,0,0:0:0:0:
268,261,93058,6,0,L|334:253,2,60,4|0|8,0:0|0:0|0:0,0:0:0:0:
220,329,93670,1,0,0:0:0:0:
155,275,93874,2,0,L|89:267,2,60,10|0|2,0:0|0:0|0:0,0:0:0:0:
205,207,94487,1,0,0:0:0:0:
169,131,94691,6,0,B|153:89|153:89|165:14,1,120,4|8,0:0|0:0,0:0:0:0:
288,128,95507,2,0,B|304:170|304:170|291:244,1,120,8|8,0:0|0:0,0:0:0:0:
149,334,96323,2,0,P|80:353|24:332,1,120,8|8,0:0|0:0,0:0:0:0:
106,186,97140,2,0,P|175:167|231:188,1,120,12|12,0:0|0:0,0:0:0:0:
353,282,97956,6,0,B|393:295|393:295|470:288,1,120,4|8,0:0|0:0,0:0:0:0:
491,121,98772,2,0,B|451:108|451:108|373:114,1,120,8|8,0:0|0:0,0:0:0:0:
205,136,99589,2,0,P|178:84|184:25,1,120,8|8,0:0|0:0,0:0:0:0:
46,121,100405,2,0,P|51:179|24:232,1,120,12|12,0:0|0:0,0:0:0:0:
142,350,101221,6,0,B|191:332|191:332|280:347,1,120,4|8,0:0|0:0,0:0:0:0:
408,268,102038,2,0,B|359:250|359:250|270:265,1,120,8|8,0:0|0:0,0:0:0:0:
142,186,102854,2,0,P|199:198|254:175,1,120,8|8,0:0|0:0,0:0:0:0:
294,102,103466,2,0,L|302:23,1,60,4|0,0:0|0:0,0:0:0:0:
377,9,103874,1,4,0:0:0:0:
448,53,104078,2,0,L|440:132,1,60,8|8,0:0|0:0,0:0:0:0:
366,150,104487,6,0,L|358:229,1,60,4|4,0:0|0:0,0:0:0:0:
481,325,105099,1,0,0:0:0:0:
481,325,105303,2,0,L|489:246,1,60,4|4,0:0|0:0,0:0:0:0:
365,150,105915,2,0,P|307:154|259:119,1,120,4|8,0:0|0:0,0:0:0:0:
210,51,106527,2,0,L|72:66,1,120,8|2,0:0|0:0,0:0:0:0:
22,218,107344,2,0,L|81:211,1,60,0|0,0:0|0:0,0:0:0:0:
144,155,107752,6,0,P|163:210|144:266,1,120,4|8,0:0|0:0,0:0:0:0:
297,336,108568,2,0,L|237:329,2,60,2|0|8,0:0|0:0|0:0,0:0:0:0:
377,361,109181,2,0,P|433:344|465:295,1,120,0|0,0:0|0:0,0:0:0:0:
472,211,109793,1,8,0:0:0:0:
472,211,110201,2,0,L|459:136,2,60,2|8|8,0:0|0:0|0:0,0:0:0:0:
397,250,110813,1,0,0:0:0:0:
333,194,111017,6,0,P|279:168|221:178,1,120,4|8,0:0|0:0,0:0:0:0:
109,304,111834,2,0,L|103:366,2,60,2|0|8,0:0|0:0|0:0,0:0:0:0:
149,230,112446,2,0,P|121:178|66:156,1,120,0|0,0:0|0:0,0:0:0:0:
26,82,113058,2,0,L|159:64,1,120,8|2,0:0|0:0,0:0:0:0:
220,100,113670,2,0,P|227:70|225:41,1,60,8|8,0:0|0:0,0:0:0:0:
388,83,114283,6,0,P|446:79|489:38,2,120,4|8|2,0:0|0:0|0:0,0:0:0:0:
319,33,115303,2,0,P|308:62|306:91,1,60,0|8,0:0|0:0,0:0:0:0:
355,160,115711,2,0,P|375:215|357:271,1,120,0|0,0:0|0:0,0:0:0:0:
293,326,116323,1,8,0:0:0:0:
293,326,116732,2,0,L|228:337,2,60,4|8|8,0:0|0:0|0:0,0:0:0:0:
357,271,117344,1,8,0:0:0:0:
293,217,117548,6,0,B|247:159|167:179|167:179|125:155|107:82|164:38,1,300,4|2,0:0|0:3,0:0:0:0:
159,42,118976,1,2,0:3:0:0:
159,42,119385,2,0,L|85:38,1,60,4|4,0:0|0:0,0:0:0:0:
31,193,119997,2,0,L|150:199,1,120,4|4,0:0|0:0,0:0:0:0:
348,356,121017,5,4,0:0:0:0:
490,267,121425,2,0,L|484:207,1,60,8|4,0:0|0:0,0:0:0:0:
322,160,122038,1,8,0:0:0:0:
322,160,122242,6,0,B|304:126|323:71|323:71|288:77|288:77|266:59|231:72|231:72|195:52|195:52|200:101|182:134,1,300,4|8,0:0|0:0,0:0:0:0:
