osu file format v13

[General]
AudioFilename: nekopara.mp3
AudioLeadIn: 0
PreviewTime: 68364
Countdown: 0
SampleSet: Soft
StackLeniency: 0.4
Mode: 0
LetterboxInBreaks: 0
WidescreenStoryboard: 0

[Editor]
Bookmarks: 66732
DistanceSpacing: 1.2
BeatDivisor: 4
GridSize: 8
TimelineZoom: 2.1

[Metadata]
Title:Taiyou Paradise
TitleUnicode:タイヨウパラダイス
Artist:nao
ArtistUnicode:nao
Creator:Minakami Yuki
Version:Neko
Source:ネコぱら vol.1 ソレイユ開店しました!
Tags:NEKO WORKs さより 雪仁 水城新人 KIZAWA Studio Sayori Yuki Jin Mizuki Shinjin Nekopara Soreiyu Kaiten Shimashita eroge VN galgame visual novel sun opening BeatofIke Moecho Fycho mtbbsben
BeatmapID:558765
BeatmapSetID:242019

[Difficulty]
HPDrainRate:7
CircleSize:4
OverallDifficulty:7.5
ApproachRate:8.5
SliderMultiplier:1.8
SliderTickRate:1

[Events]
//Background and Video events
0,0,"bg.jpg",0,0
//Break Periods
//Storyboard Layer 0 (Background)
//Storyboard Layer 1 (Fail)
//Storyboard Layer 2 (Pass)
//Storyboard Layer 3 (Foreground)
//Storyboard Sound Samples

[TimingPoints]
1630,408.163265306122,4,2,4,35,1,0
1630,-166.666666666667,4,2,4,35,0,0
8976,-100,4,2,2,45,0,0
9589,-100,4,2,2,60,0,0
14283,-100,4,2,0,60,0,0
14691,-100,4,2,2,60,0,0
17344,-100,4,2,0,60,0,0
17956,-100,4,2,2,60,0,0
20609,-100,4,2,0,60,0,0
21221,-100,4,2,2,60,0,0
23874,-100,4,2,0,60,0,0
23976,-100,4,2,2,45,0,0
24078,-100,4,2,0,60,0,0
24181,-100,4,2,2,60,0,0
24283,-100,4,2,2,35,0,0
24487,-125,4,2,2,60,0,0
24589,-125,4,2,2,35,0,0
26323,-100,4,2,2,60,0,0
27752,-100,4,2,3,45,0,0
38976,-100,4,2,3,60,0,0
40405,-100,4,2,2,60,0,0
53058,-100,4,2,3,60,0,0
53466,-100,4,2,2,60,0,0
60405,-100,4,2,3,60,0,0
60813,-66.6666666666667,4,2,2,60,0,0
61221,-100,4,2,3,60,0,0
61629,-60.2409638554217,4,2,2,60,0,0
62038,-100,4,2,3,60,0,0
62446,-54.6448087431694,4,2,2,60,0,0
62854,-100,4,2,3,60,0,0
63262,-50,4,2,2,60,0,0
63670,-100,4,2,2,60,0,0
65507,-100,4,2,2,70,0,0
67548,-100,4,2,2,75,0,0
67956,-100,4,2,2,80,0,0
68160,-100,4,2,2,60,0,0
68568,-100,4,2,2,70,0,1
71221,-100,4,2,0,70,0,1
71834,-100,4,2,2,70,0,1
74487,-100,4,2,0,70,0,1
75099,-100,4,2,2,70,0,1
77752,-100,4,2,0,70,0,1
78364,-100,4,2,2,70,0,1
84283,-100,4,2,0,70,0,1
84691,-100,4,2,2,70,0,1
87548,-100,4,2,0,70,0,1
88160,-100,4,2,2,70,0,1
90813,-100,4,2,0,70,0,1
91425,-100,4,2,2,70,0,1
94691,-100,4,2,2,80,0,1
97140,-100,4,2,0,80,0,1
97956,-100,4,2,2,80,0,1
100405,-100,4,2,0,80,0,1
101221,-100,4,2,2,80,0,1
103976,-100,4,2,3,60,0,1
104487,-100,4,2,2,80,0,1
105915,-100,4,2,3,60,0,1
107752,-100,4,2,2,60,0,0
110405,-100,4,2,0,60,0,0
111017,-100,4,2,2,60,0,0
113670,-100,4,2,0,60,0,0
114283,-100,4,2,2,60,0,0
116936,-100,4,2,0,60,0,0
117038,-100,4,2,2,45,0,0
117140,-100,4,2,0,60,0,0
117242,-100,4,2,2,60,0,0
117344,-100,4,2,2,35,0,0
117548,-125,4,2,2,60,0,0
117650,-125,4,2,2,35,0,0
119385,-125,4,2,2,60,0,0
119997,-100,4,2,2,60,0,0
121017,-100,4,2,2,70,0,0
121425,-100,4,2,2,35,0,0
121629,-100,4,2,2,75,0,0
122038,-100,4,2,2,35,0,0
122242,-100,4,2,2,80,0,0
122446,-100,4,2,4,80,0,0
123126,-100,4,2,3,45,0,0

[Colours]
Combo1 : 255,192,0
Combo2 : 255,128,128
Combo3 : 255,36,255
Combo4 : 255,128,255

[HitObjects]
196,302,1630,6,0,L|88:291,1,107.999996704102,6|0,0:0|0:0,0:0:0:0:
8,323,2242,2,0,P|2:277|37:222,1,107.999996704102,2|0,0:0|0:0,0:0:0:0:
259,358,3058,6,0,P|312:363|357:335,1,107.999996704102
381,252,3670,1,0,0:0:0:0:
381,252,3874,2,0,P|377:205|417:143,1,107.999996704102
487,126,4487,1,4,0:0:0:0:
293,29,4895,1,4,0:0:0:0:
163,202,5303,6,0,L|109:197,1,53.9999983520508,2|0,0:0|0:0,0:0:0:0:
22,192,5711,1,0,0:0:0:0:
192,283,5915,2,0,P|245:225|230:148,1,161.999995056153,2|0,0:0|0:0,0:0:0:0:
230,149,6936,6,0,L|239:81,1,53.9999983520508,4|4,0:0|0:0,0:0:0:0:
249,9,7548,1,2,0:0:0:0:
263,375,8160,5,4,0:0:0:0:
263,375,8364,2,0,P|273:313|259:270,1,107.999996704102,0|4,0:0|0:0,0:0:0:0:
109,331,8976,2,0,L|65:339,6,30,8|0|0|0|0|0|0,0:0|0:0|0:0|0:0|0:0|0:0|0:0,0:0:0:0:
62,175,9589,6,0,P|79:134|76:90,1,90,4|0,0:0|0:0,0:0:0:0:
30,13,9997,1,0,0:0:0:0:
205,51,10201,1,2,0:0:0:0:
62,175,10405,2,0,P|138:148|225:196,1,180,4|0,0:0|0:0,0:0:0:0:
434,163,11017,2,0,P|389:161|354:135,1,90,4|0,0:0|0:0,0:0:0:0:
446,24,11425,5,12,0:0:0:0:
422,302,11629,1,8,0:3:0:0:
434,163,12038,5,0,0:0:0:0:
434,163,12140,1,0,0:0:0:0:
434,163,12242,1,12,0:0:0:0:
221,191,12446,1,8,0:0:0:0:
384,86,12854,6,0,P|343:138|351:203,1,135,4|0,0:0|0:0,0:0:0:0:
379,239,13262,1,8,0:3:0:0:
258,351,13466,2,0,L|160:343,1,90,8|0,0:3|0:0,0:0:0:0:
94,185,13874,2,0,L|139:182,3,45,2|0|0|0,0:0|0:0|0:0|0:0,0:0:0:0:
182,168,14283,1,8,0:0:0:0:
211,134,14385,1,0,0:0:0:0:
222,91,14487,1,0,0:0:0:0:
214,47,14589,1,0,0:0:0:0:
191,8,14691,6,0,L|281:17,1,90,4|0,0:0|0:0,0:0:0:0:
379,239,15099,2,0,L|289:248,1,90,8|0,0:0|0:0,0:0:0:0:
434,163,15507,1,2,0:0:0:0:
408,323,15711,1,0,0:0:0:0:
199,257,15915,1,8,0:0:0:0:
379,239,16119,6,0,L|473:252,2,90,0|0|0,0:0|0:0|0:0,0:0:0:0:
228,341,16732,1,8,0:0:0:0:
254,181,16936,1,0,0:0:0:0:
408,323,17140,1,2,0:0:0:0:
199,257,17344,1,8,0:0:0:0:
199,257,17548,1,8,0:0:0:0:
434,163,17752,1,0,0:0:0:0:
263,33,17956,6,0,P|218:81|224:147,1,135,4|0,0:0|0:0,0:0:0:0:
254,181,18364,2,0,L|158:171,1,90,8|0,0:0|0:0,0:0:0:0:
7,209,18772,1,2,0:0:0:0:
130,86,18976,1,0,0:0:0:0:
199,257,19181,1,8,0:0:0:0:
51,130,19385,6,0,P|39:88|49:45,2,90,0|0|0,0:0|0:0|0:0,0:0:0:0:
254,181,19997,1,8,0:0:0:0:
62,285,20201,1,0,0:0:0:0:
130,86,20405,1,2,0:0:0:0:
199,257,20609,1,8,0:0:0:0:
199,257,20813,1,8,0:0:0:0:
51,130,21017,1,0,0:0:0:0:
254,181,21221,6,0,P|309:160|342:87,1,135,4|0,0:0|0:0,0:0:0:0:
328,51,21629,2,0,L|425:67,1,90,8|0,0:0|0:0,0:0:0:0:
328,51,22038,1,2,0:0:0:0:
387,220,22242,1,0,0:0:0:0:
505,84,22446,1,8,0:0:0:0:
328,137,22650,6,0,L|231:153,2,90,0|0|0,0:0|0:0|0:0,0:0:0:0:
505,170,23262,1,8,0:0:0:0:
328,51,23466,1,0,0:0:0:0:
387,220,23670,1,4,0:0:0:0:
239,151,23874,1,8,0:0:0:0:
203,178,23976,1,8,0:0:0:0:
183,218,24078,1,8,0:0:0:0:
183,263,24180,1,8,0:0:0:0:
202,303,24282,1,8,0:0:0:0:
236,331,24384,1,8,0:0:0:0:
280,341,24487,6,0,P|353:324|420:358,1,144,4|0,0:0|0:0,0:0:0:0:
487,294,25099,1,0,0:0:0:0:
490,265,25201,1,0,0:0:0:0:
493,236,25303,1,0,0:0:0:0:
448,161,25507,1,0,0:0:0:0:
458,75,25915,1,0,0:0:0:0:
487,294,26323,5,4,0:0:0:0:
458,75,26527,1,4,0:0:0:0:
413,351,26936,2,0,P|348:323|284:339,1,135,4|0,0:0|0:0,0:0:0:0:
249,360,27344,2,0,L|261:270,1,90,8|0,0:0|0:0,0:0:0:0:
244,91,27752,5,12,0:0:0:0:
311,31,27956,1,0,0:0:0:0:
244,91,28160,2,0,P|200:97|158:83,1,90,8|0,0:0|0:0,0:0:0:0:
72,112,28568,2,0,P|52:159|59:204,2,90,8|0|8,0:0|0:0|0:0,0:0:0:0:
157,82,29181,1,0,0:0:0:0:
317,122,29385,6,0,P|361:128|403:114,1,90,8|0,0:0|0:0,0:0:0:0:
512,199,29793,2,0,P|470:185|426:191,1,90,8|0,0:0|0:0,0:0:0:0:
368,247,30201,1,8,0:0:0:0:
403,113,30405,1,0,0:0:0:0:
462,263,30609,1,8,0:0:0:0:
274,231,30813,1,0,0:0:0:0:
426,190,31017,6,0,P|470:185|512:199,1,90,10|0,0:0|0:0,0:0:0:0:
403,113,31425,2,0,L|394:23,1,90,8|0,0:0|0:0,0:0:0:0:
368,247,31834,2,0,L|359:336,1,90,8|0,0:0|0:0,0:0:0:0:
337,172,32242,1,8,0:0:0:0:
462,263,32446,2,0,L|453:352,1,90,0|8,0:0|0:0,0:0:0:0:
337,172,32854,5,0,0:0:0:0:
481,133,33058,1,8,0:0:0:0:
368,247,33262,1,0,0:0:0:0:
306,96,33466,2,0,P|318:53|310:9,1,90,8|0,0:0|0:0,0:0:0:0:
201,9,33874,2,0,P|193:53|205:96,1,90,8|0,0:0|0:0,0:0:0:0:
340,200,34283,6,0,P|256:171|173:200,1,180,12|8,0:0|0:0,0:0:0:0:
256,360,34895,1,0,0:0:0:0:
301,282,35099,1,8,0:0:0:0:
211,282,35303,1,0,0:0:0:0:
346,360,35507,1,8,0:0:0:0:
166,360,35711,1,0,0:0:0:0:
256,204,35915,6,0,L|256:112,1,90,8|0,0:0|0:0,0:0:0:0:
211,282,36323,2,0,P|149:305|84:274,1,135,8|0,0:0|0:0,0:0:0:0:
56,246,36732,2,0,L|61:354,1,90,8|0,0:0|0:0,0:0:0:0:
152,215,37140,1,8,0:0:0:0:
156,125,37344,1,0,0:0:0:0:
88,279,37548,6,0,P|149:305|211:282,1,135,8|0,0:0|0:0,0:0:0:0:
243,250,37956,2,0,L|340:259,1,90,8|0,0:0|0:0,0:0:0:0:
427,366,38364,2,0,L|476:361,4,45,8|0|0|0|0,0:0|0:0|0:0|0:0|0:0,0:0:0:0:
372,177,38976,5,6,0:0:0:0:
403,73,39180,1,8,0:0:0:0:
253,137,39385,1,4,0:0:0:0:
247,29,39589,1,8,0:0:0:0:
134,145,39793,1,12,0:0:0:0:
134,145,39895,1,8,0:0:0:0:
134,145,39997,1,8,0:0:0:0:
91,46,40201,1,4,0:0:0:0:
253,137,40405,1,8,0:0:0:0:
403,73,40609,6,0,P|473:139|471:221,1,180,4|0,0:0|0:0,0:0:0:0:
336,301,41221,2,0,L|426:294,1,90,8|0,0:0|0:0,0:0:0:0:
336,301,41629,1,0,0:0:0:0:
372,177,41834,1,0,0:0:0:0:
248,308,42038,1,8,0:0:0:0:
253,137,42242,1,0,0:0:0:0:
111,200,42446,6,0,P|154:213|199:209,1,90,0|0,1:0|0:0,0:0:0:0:
336,301,42854,2,0,P|291:296|248:309,1,90,8|0,0:0|0:0,0:0:0:0:
253,137,43262,1,0,0:0:0:0:
149,289,43466,1,0,0:0:0:0:
294,216,43670,1,8,0:0:0:0:
164,125,43874,1,0,0:0:0:0:
149,289,44078,6,0,L|154:378,1,90,8|0,0:0|0:0,0:0:0:0:
294,216,44487,2,0,L|299:126,1,90,8|0,0:0|0:0,0:0:0:0:
221,251,44895,1,0,0:0:0:0:
374,227,45099,1,0,0:0:0:0:
299,126,45303,1,8,0:0:0:0:
447,192,45507,1,0,0:0:0:0:
447,192,45609,1,0,0:0:0:0:
447,192,45711,6,0,P|454:235|438:277,1,90,0|0,3:0|0:0,0:0:0:0:
402,305,46017,1,0,0:0:0:0:
402,305,46119,2,0,P|358:312|321:337,1,90,8|0,0:0|0:0,0:0:0:0:
152,209,46527,1,0,0:0:0:0:
152,209,46629,1,8,0:0:0:0:
152,209,46732,1,8,0:0:0:0:
298,126,46936,2,0,P|309:82|300:38,1,90,8|0,0:0|0:0,0:0:0:0:
85,11,47344,6,0,P|134:83|220:81,1,180,4|8,0:0|0:0,0:0:0:0:
175,3,47956,1,0,0:0:0:0:
27,80,48160,1,0,0:0:0:0:
81,242,48364,1,0,0:0:0:0:
249,203,48568,1,8,0:0:0:0:
135,83,48772,1,0,0:0:0:0:
170,246,48976,6,0,P|158:289|125:320,1,90,0|0,1:0|0:0,0:0:0:0:
249,203,49385,2,0,P|313:217|372:177,1,135,8|0,0:0|0:0,0:0:0:0:
388,141,49793,2,0,L|374:52,1,90
249,203,50201,1,8,0:0:0:0:
287,322,50405,1,0,0:0:0:0:
369,182,50609,6,0,P|314:217|249:203,1,135,0|0,1:0|0:0,0:0:0:0:
210,179,51017,2,0,L|105:190,1,90,8|0,0:0|0:0,0:0:0:0:
297,126,51425,1,0,0:0:0:0:
287,322,51629,1,0,0:0:0:0:
120,188,51834,1,8,0:0:0:0:
272,38,52038,6,0,P|356:59|386:140,1,180,4|2,0:0|0:0,0:0:0:0:
173,259,52650,1,8,0:0:0:0:
141,274,52752,1,0,0:0:0:0:
106,276,52854,1,2,0:0:0:0:
72,264,52956,1,0,0:0:0:0:
46,240,53058,1,8,0:0:0:0:
31,207,53160,1,8,0:0:0:0:
30,172,53262,1,8,0:0:0:0:
43,138,53364,1,8,0:0:0:0:
68,113,53466,2,0,P|112:118|153:101,1,90,10|0,0:0|0:0,0:0:0:0:
173,259,53874,6,0,L|166:348,1,90,4|0,0:0|0:0,0:0:0:0:
30,172,54283,2,0,L|36:261,1,90,8|0,0:0|0:0,0:0:0:0:
98,29,54691,1,8,0:0:0:0:
172,79,54895,1,0,0:0:0:0:
261,88,55099,1,8,0:0:0:0:
347,62,55303,1,0,0:0:0:0:
485,157,55507,6,0,P|467:116|432:89,1,90,10|0,0:0|0:0,0:0:0:0:
364,252,55915,2,0,P|390:216|397:172,1,90,8|0,0:0|0:0,0:0:0:0:
220,208,56323,1,8,0:0:0:0:
233,297,56527,1,0,0:0:0:0:
307,183,56732,1,8,0:0:0:0:
319,94,56936,1,0,0:0:0:0:
233,297,57140,6,0,L|133:316,1,90,4|0,0:0|0:0,0:0:0:0:
68,362,57548,1,8,0:0:0:0:
68,362,57752,1,0,0:0:0:0:
220,208,57956,2,0,L|308:224,1,90,8|0,0:0|0:0,0:0:0:0:
385,273,58364,1,8,0:0:0:0:
385,273,58568,1,0,0:0:0:0:
207,118,58772,6,0,P|146:114|105:50,1,135,8|0,0:0|0:0,0:0:0:0:
110,12,59181,2,0,L|3:30,1,90,8|0,0:0|0:0,0:0:0:0:
22,26,59487,1,0,0:0:0:0:
22,26,59589,1,8,0:0:0:0:
23,187,59793,1,0,0:0:0:0:
207,118,59997,1,8,0:0:0:0:
80,118,60201,1,0,0:0:0:0:
144,313,60405,5,10,0:0:0:0:
220,265,60609,1,0,0:0:0:0:
264,342,60813,2,0,P|198:351|144:313,1,135.000005149842,8|0,0:0|0:0,0:0:0:0:
207,118,61221,5,10,0:0:0:0:
119,97,61425,1,0,0:0:0:0:
90,183,61629,2,0,P|163:175|207:118,1,149.40000216568,8|0,0:0|0:0,0:0:0:0:
362,209,62038,5,10,0:0:0:0:
428,269,62242,1,0,0:0:0:0:
505,222,62446,2,0,P|436:180|362:208,1,164.699997047081,8|0,0:0|0:0,0:0:0:0:
212,308,62854,5,10,0:0:0:0:
143,366,63058,1,0,0:0:0:0:
60,328,63262,2,0,P|130:277|211:308,1,180,8|0,0:0|0:0,0:0:0:0:
428,269,63670,6,0,P|422:182|493:133,1,180,12|8,0:0|0:0,0:0:0:0:
383,347,64283,1,0,0:0:0:0:
383,347,64385,1,0,0:0:0:0:
383,347,64487,1,0,1:0:0:0:
249,226,64691,1,0,0:0:0:0:
314,58,64895,1,8,0:0:0:0:
505,222,65099,6,0,L|513:316,1,90,4|0,0:0|0:0,0:0:0:0:
276,331,65507,1,4,0:0:0:0:
226,120,65711,1,4,0:0:0:0:
432,182,65915,1,4,0:0:0:0:
172,303,66119,5,4,0:0:0:0:
314,58,66323,1,4,0:0:0:0:
455,304,66527,1,4,0:0:0:0:
265,355,66732,6,0,P|278:312|272:267,1,90,4|0,0:0|0:0,0:0:0:0:
41,62,67140,2,0,P|28:104|34:149,1,90,4|0,0:0|0:0,0:0:0:0:
172,303,67548,2,0,L|83:310,1,90,4|0,0:0|0:0,0:0:0:0:
137,113,67956,2,0,L|226:120,1,90,4|8,0:0|0:0,0:0:0:0:
271,121,68262,1,8,0:0:0:0:
310,100,68364,1,8,0:0:0:0:
333,63,68466,1,8,0:0:0:0:
334,18,68568,6,0,P|420:0|489:53,1,180,6|8,0:0|0:0,0:0:0:0:
452,221,69181,1,0,0:0:0:0:
452,221,69385,2,0,L|445:132,1,90
369,258,69793,1,8,0:0:0:0:
503,295,69997,1,0,0:0:0:0:
352,169,70201,6,0,P|313:188|284:226,1,90,2|0,0:0|0:0,0:0:0:0:
385,346,70609,1,8,0:0:0:0:
352,169,70813,2,0,L|249:163,1,90
95,228,71221,1,8,0:0:0:0:
95,228,71425,1,8,0:0:0:0:
262,163,71629,1,0,0:0:0:0:
111,18,71834,6,0,P|39:66|40:152,1,180,4|8,0:0|0:0,0:0:0:0:
179,196,72446,1,0,0:0:0:0:
123,313,72650,2,0,L|27:321,1,90
179,196,73058,2,0,L|275:204,1,90,8|0,0:0|0:0,0:0:0:0:
118,108,73466,5,2,0:0:0:0:
95,228,73670,1,0,0:0:0:0:
40,66,73874,1,8,0:0:0:0:
183,52,74078,1,0,0:0:0:0:
35,156,74283,1,0,0:0:0:0:
198,232,74487,1,8,0:0:0:0:
198,232,74691,1,8,0:0:0:0:
118,108,74895,1,0,0:0:0:0:
266,174,75099,6,0,P|287:237|259:297,1,135,4|0,0:0|0:0,0:0:0:0:
229,331,75507,2,0,L|331:321,1,90,8|0,0:0|0:0,0:0:0:0:
471,289,75915,1,2,0:0:0:0:
490,376,76119,1,0,0:0:0:0:
405,176,76323,1,10,0:0:0:0:
386,263,76527,1,0,0:0:0:0:
504,54,76732,6,0,P|467:80|424:89,1,90,2|2,0:0|0:0,0:0:0:0:
321,200,77140,2,0,P|359:179|404:175,1,90,8|2,0:0|0:0,0:0:0:0:
471,289,77548,1,0,0:0:0:0:
424,89,77752,1,8,0:0:0:0:
424,89,77956,1,8,0:0:0:0:
386,263,78160,1,0,0:0:0:0:
212,142,78364,5,4,0:0:0:0:
211,142,78772,2,0,P|170:160|125:154,1,90,10|0,0:0|0:0,0:0:0:0:
85,136,79078,1,0,0:0:0:0:
85,136,79181,1,2,0:0:0:0:
157,69,79385,1,0,0:0:0:0:
276,203,79589,1,8,0:0:0:0:
100,239,79793,6,0,L|10:228,1,90,4|0,0:0|0:0,0:0:0:0:
157,69,80201,1,8,0:0:0:0:
199,55,80303,1,0,0:0:0:0:
243,58,80405,1,0,0:0:0:0:
280,82,80507,1,0,0:0:0:0:
302,121,80609,1,0,0:0:0:0:
299,165,80711,1,0,0:0:0:0:
276,203,80813,6,0,L|283:254,1,45,8|0,0:0|0:0,0:0:0:0:
371,380,81017,2,0,L|364:329,1,45
212,292,81221,2,0,L|219:343,1,45,8|0,0:0|0:0,0:0:0:0:
435,291,81425,2,0,L|428:240,1,45
362,118,81629,6,0,P|292:169|210:141,1,180,4|8,0:0|0:0,0:0:0:0:
354,28,82242,2,0,L|453:18,1,90
280,82,82650,1,0,0:0:0:0:
371,208,82854,1,8,0:0:0:0:
471,104,83058,1,0,0:0:0:0:
289,171,83262,6,0,P|282:214|296:257,1,90
459,193,83670,1,8,0:0:0:0:
280,82,83874,2,0,L|181:92,1,90,2|0,0:0|0:0,0:0:0:0:
97,245,84283,1,8,0:0:0:0:
97,245,84487,1,8,0:0:0:0:
68,67,84691,1,2,0:0:0:0:
185,245,84895,6,0,P|141:319|49:321,1,180,4|8,0:0|0:0,0:0:0:0:
185,245,85507,2,0,L|275:251,1,90
131,151,85915,1,0,0:0:0:0:
131,151,86119,2,0,L|25:158,1,90,8|0,0:0|0:0,0:0:0:0:
196,65,86527,6,0,P|291:76|347:8,1,180,2|8,0:0|0:0,0:0:0:0:
494,93,87140,1,0,0:0:0:0:
333,174,87344,1,2,0:0:0:0:
433,28,87548,1,8,0:0:0:0:
433,28,87752,1,8,0:0:0:0:
417,207,87956,1,0,0:0:0:0:
249,141,88160,6,0,L|138:154,1,90,4|0,0:0|0:0,0:0:0:0:
103,243,88568,1,8,0:0:0:0:
318,326,88772,2,0,P|365:254|332:173,1,180,4|0,0:0|0:0,0:0:0:0:
103,243,89385,1,8,0:0:0:0:
228,315,89589,1,0,0:0:0:0:
228,315,89691,1,0,0:0:0:0:
228,315,89793,6,0,L|318:326,1,90,10|0,0:0|0:0,0:0:0:0:
417,207,90201,1,8,0:0:0:0:
255,60,90405,2,0,L|120:75,1,135,4|0,0:0|0:0,0:0:0:0:
76,82,90813,1,8,0:0:0:0:
76,82,91017,1,8,0:0:0:0:
35,220,91221,1,0,0:0:0:0:
97,366,91425,6,0,P|109:323|101:280,1,90,4|0,0:0|0:0,0:0:0:0:
4,136,91834,1,8,0:0:0:0:
134,197,92038,1,0,0:0:0:0:
134,197,92140,1,0,0:0:0:0:
134,197,92242,2,0,L|223:186,1,90,4|0,0:0|0:0,0:0:0:0:
417,207,92650,1,8,0:0:0:0:
287,304,92854,1,0,0:0:0:0:
256,55,93058,5,4,0:0:0:0:
328,223,93262,1,0,0:0:0:0:
328,223,93364,1,0,0:0:0:0:
328,223,93466,1,8,0:0:0:0:
458,126,93670,1,0,0:0:0:0:
467,82,93772,1,0,0:0:0:0:
476,38,93874,2,0,L|430:25,3,45,10|0|0|0,0:0|0:0|0:0|0:0,0:0:0:0:
374,95,94283,2,0,L|327:106,3,45,2|0|0|0,0:0|0:0|0:0|0:0,0:0:0:0:
256,55,94691,6,0,L|152:48,1,90,4|0,0:0|0:0,0:0:0:0:
66,226,95099,2,0,L|170:219,1,90,8|0,0:0|0:0,0:0:0:0:
290,145,95507,1,8,0:0:0:0:
200,138,95711,1,0,0:0:0:0:
32,316,95915,2,0,L|136:309,1,90,8|0,0:0|0:0,0:0:0:0:
294,231,96323,6,0,P|303:187|289:144,1,90,8|0,0:0|0:0,0:0:0:0:
84,10,96732,2,0,P|77:54|90:96,1,90,8|0,0:0|0:0,0:0:0:0:
211,304,97140,1,12,0:0:0:0:
290,145,97344,1,8,0:0:0:0:
90,96,97548,2,0,L|-4:107,1,90,12|0,0:0|0:0,0:0:0:0:
190,115,97956,6,0,P|197:70|184:28,1,90,4|0,0:0|0:0,0:0:0:0:
290,145,98364,2,0,P|317:109|328:66,1,90,8|0,0:0|0:0,0:0:0:0:
360,219,98772,2,0,P|401:203|432:170,1,90,8|0,0:0|0:0,0:0:0:0:
384,317,99181,2,0,P|428:324|470:310,1,90,8|0,0:0|0:0,0:0:0:0:
290,145,99589,5,8,0:0:0:0:
155,219,99793,1,0,0:0:0:0:
274,344,99997,1,8,0:0:0:0:
274,344,100099,2,0,P|283:300|274:257,1,90
246,223,100405,1,12,0:0:0:0:
64,215,100609,1,8,0:0:0:0:
166,39,100813,2,0,L|160:150,1,90,12|0,0:0|0:0,0:0:0:0:
147,326,101221,6,0,L|56:340,1,90,4|0,0:0|0:0,0:0:0:0:
196,230,101629,2,0,L|287:244,1,90,8|0,0:0|0:0,0:0:0:0:
161,128,102038,1,8,0:0:0:0:
72,141,102242,1,0,0:0:0:0:
210,33,102446,2,0,L|301:47,1,90,8|0,0:0|0:0,0:0:0:0:
455,225,102854,6,0,P|488:167|475:102,1,135,8|0,0:0|0:0,0:0:0:0:
441,74,103262,1,8,0:0:0:0:
373,259,103466,2,0,L|380:354,1,90,4|0,0:0|0:0,0:0:0:0:
401,154,103874,1,4,0:0:0:0:
356,149,103976,1,0,0:0:0:0:
314,164,104078,1,8,0:0:0:0:
281,194,104181,1,0,0:0:0:0:
276,238,104283,1,8,0:0:0:0:
252,276,104385,1,8,0:0:0:0:
214,298,104487,5,4,0:0:0:0:
2,262,104691,1,4,0:0:0:0:
297,85,105099,5,0,0:0:0:0:
297,85,105201,1,0,0:0:0:0:
297,85,105303,1,4,0:0:0:0:
510,122,105507,1,4,0:0:0:0:
214,298,105915,6,0,P|171:303|124:332,1,90,4|0,0:0|0:0,0:0:0:0:
2,262,106323,1,8,0:0:0:0:
42,86,106527,1,8,0:0:0:0:
42,86,106629,1,0,0:0:0:0:
42,86,106732,1,0,0:0:0:0:
42,86,106834,1,0,0:0:0:0:
42,86,106936,2,0,L|83:112,3,45,2|0|0|0,0:0|0:0|0:0|0:0,0:0:0:0:
168,93,107344,2,0,L|211:70,3,45,0|0|0|0,0:0|0:0|0:0|0:0,0:0:0:0:
295,85,107752,6,0,P|382:94|436:27,2,180,4|8|2,0:0|0:0|0:0,0:0:0:0:
348,12,108772,1,0,0:0:0:0:
499,92,108976,1,8,0:0:0:0:
371,220,109181,6,0,L|281:228,2,90,0|0|0,0:0|0:0|0:0,0:0:0:0:
295,85,109793,1,8,0:0:0:0:
191,237,109997,1,0,0:0:0:0:
419,295,110201,1,2,0:0:0:0:
281,228,110405,1,8,0:0:0:0:
281,228,110609,1,8,0:0:0:0:
161,323,110813,1,0,0:0:0:0:
50,181,111017,6,0,P|89:122|76:49,1,135,4|0,0:0|0:0,0:0:0:0:
52,27,111425,2,0,L|141:19,1,90,8|0,0:0|0:0,0:0:0:0:
2,101,111834,1,2,0:0:0:0:
142,181,112038,1,0,0:0:0:0:
141,19,112242,1,8,0:0:0:0:
49,181,112446,6,0,L|38:286,2,90,0|0|0,0:0|0:0|0:0,0:0:0:0:
141,19,113058,1,8,0:0:0:0:
230,174,113262,1,0,0:0:0:0:
93,98,113466,1,2,0:0:0:0:
39,270,113670,1,8,0:0:0:0:
39,270,113874,1,8,0:0:0:0:
2,101,114078,1,0,0:0:0:0:
229,173,114283,6,0,P|263:239|242:305,1,135,4|0,0:0|0:0,0:0:0:0:
222,333,114691,2,0,L|340:340,1,90,8|0,0:0|0:0,0:0:0:0:
331,160,115099,1,2,0:0:0:0:
173,246,115303,1,0,0:0:0:0:
176,67,115507,1,8,0:0:0:0:
330,159,115711,6,0,L|419:143,2,90,0|0|0,0:0|0:0|0:0,0:0:0:0:
136,159,116323,1,8,0:0:0:0:
283,63,116527,1,0,0:0:0:0:
277,305,116732,1,4,0:0:0:0:
424,209,116936,1,8,0:0:0:0:
437,166,117038,1,8,0:0:0:0:
431,122,117140,1,8,0:0:0:0:
407,84,117242,1,8,0:0:0:0:
370,59,117344,1,8,0:0:0:0:
326,52,117446,1,8,0:0:0:0:
283,63,117548,6,0,P|213:68|153:19,1,144,4|0,0:0|0:0,0:0:0:0:
75,71,118160,1,0,0:0:0:0:
78,99,118262,1,0,0:0:0:0:
81,127,118364,1,0,0:0:0:0:
43,212,118568,1,0,0:0:0:0:
53,297,118976,1,0,0:0:0:0:
75,71,119385,5,4,0:0:0:0:
53,297,119589,1,4,0:0:0:0:
6,129,119997,2,0,P|62:159|134:139,1,135,4|0,0:0|0:0,0:0:0:0:
159,111,120405,2,0,P|239:72|324:95,1,180,4|0,0:0|0:0,0:0:0:0:
506,255,121017,5,4,0:0:0:0:
429,302,121425,5,8,0:0:0:0:
447,87,121629,1,4,0:0:0:0:
352,349,122038,5,8,0:0:0:0:
258,115,122242,2,0,B|226:67|244:12|244:12|199:41|199:41|166:28|140:52|140:52|96:41|96:41|127:89|105:149,1,360,4|0,0:0|0:0,0:0:0:0:
94,143,123126,2,0,L|61:164,2,30,8|8|8,0:0|0:0|0:0,0:0:0:0:
