osu file format v10

[General]
AudioFilename: Synchro Shiyouyo(short ver).mp3
AudioLeadIn: 1000
PreviewTime: 67037
Countdown: 0
SampleSet: Soft
StackLeniency: 0.7
Mode: 0
LetterboxInBreaks: 0

[Editor]
DistanceSpacing: 1
BeatDivisor: 4
GridSize: 4

[Metadata]
Title:Synchro Shiyou yo (Short Ver.)
TitleUnicode:Synchro Shiyou yo (Short Ver.)
Artist:nao
ArtistUnicode:nao
Creator:kajiyatta
Version:Insane
Source:Chaos;Head Love Chu*Chu!
Tags:Nitroplus 5pb. opening Chiyomaru Shikura Kenji Arai psp visual novel -_t_e_n_n_y_a_- hibarirailwayz
BeatmapID:182510
BeatmapSetID:51055

[Difficulty]
HPDrainRate:7
CircleSize:4
OverallDifficulty:7
ApproachRate:8
SliderMultiplier:1.6
SliderTickRate:1

[Events]
//Background and Video events
0,0,"BG1.jpg"
Video,0,"op.avi"
//Break Periods
2,22647,26943
//Storyboard Layer 0 (Background)
//Storyboard Layer 1 (Fail)
//Storyboard Layer 2 (Pass)
//Storyboard Layer 3 (Foreground)
//Storyboard Sound Samples
//Background Colour Transformations
3,100,163,162,255

[TimingPoints]
1464,327.868852459016,4,2,1,90,1,0
3431,-100,4,1,0,50,0,0
4086,-100,4,2,1,90,0,0
6054,-100,4,1,0,50,0,0
6709,-100,4,2,1,90,0,0
9004,-100,4,2,0,90,0,0
11300,-100,4,2,0,70,0,0
11463,-100,4,2,0,90,0,0
12119,-100,4,1,0,60,0,0
22447,-100,4,2,0,90,0,0
32939,-100,4,2,1,90,0,0
33759,-100,4,1,0,50,0,0
35234,-100,4,2,0,80,0,0
43431,-100,4,2,0,90,0,0
46054,-133.333333333333,4,2,0,80,0,0
50972,-133.333333333333,4,2,0,70,0,0
51300,-133.333333333333,4,2,1,80,0,0
61791,-100,4,2,0,90,0,0
67037,-100,4,2,0,90,0,1
87857,-100,4,2,0,90,0,0
88021,-100,4,1,0,60,0,0
97857,-100,4,2,0,70,0,0
98185,-100,4,2,0,90,0,0
98513,-100,4,2,1,90,0,0
100475,-100,4,1,0,50,0,0
101136,-100,4,2,1,90,0,0
104086,-100,4,2,0,90,0,0

[Colours]
Combo1 : 255,128,0
Combo2 : 30,230,19
Combo3 : 102,102,255
Combo4 : 236,0,0

[HitObjects]
192,48,1464,1,8,0:0:0
256,192,1627,1,8,0:0:0
112,256,1955,1,8,0:0:0
256,192,2119,1,8,0:0:0
320,336,2447,1,8,0:0:0
256,192,2611,1,8,0:0:0
400,128,2939,1,8,0:0:0
256,192,3103,1,8,0:0:0
256,192,3431,6,0,B|256:80,2,80,2|0|2,0:0|0:0|0:0,0:0:0
360,312,4086,6,0,B|416:264|416:264|416:176,1,160,8|0,0:0|0:0,0:0:0
312,56,4578,2,0,B|256:104|256:104|256:192,1,160,8|0,0:0|0:0,0:0:0
148,312,5070,2,0,B|92:264|92:264|92:176,1,160,8|0,0:0|0:0,0:0:0
200,56,5562,2,0,B|256:104|256:104|256:192,1,160,8|0,0:0|0:0,0:0:0
336,196,6054,5,2,0:0:0
256,264,6218,1,0,0:0:0
176,196,6382,1,2,0:0:0
256,264,6545,1,0,0:0:0
256,344,6709,6,0,B|172:344,2,80,8|8|0,0:0|0:0|0:0,0:0:0
256,264,7201,2,0,B|352:264,2,80,8|8|0,0:0|0:0|0:0,0:0:0
176,196,7693,2,0,B|156:156|176:120,1,80,8|8,0:0|0:0,0:0:0
256,60,8021,1,0,0:0:0
336,120,8185,2,0,B|356:156|336:196,1,80,8|8,0:0|0:0,0:0:0
256,264,8513,1,0,0:0:0
256,264,8677,6,0,B|256:352,1,80,8|0,0:0|0:0,0:0:0
104,52,9168,6,0,B|176:100|256:60,1,160,4|0,0:0|0:0,0:0:0
312,120,9660,1,8,0:0:0
344,192,9824,2,0,B|304:264,1,80,0|0,0:0|0:0,0:0:0
256,324,10152,2,0,B|168:324,1,80,0|8,0:0|0:0,0:0:0
88,192,10480,2,0,B|168:144|168:48,1,160,4|0,0:0|0:0,0:0:0
248,64,10972,2,0,B|328:64,2,80,8|0|4,0:0|0:0|0:0,0:0:0
248,144,11463,1,4,0:0:0
248,224,11627,2,0,B|152:224,1,80,0|4,0:0|0:0,0:0:0
336,280,12119,6,0,B|372:300|412:280,1,80,0|8,0:0|0:0,0:0:0
456,208,12447,1,0,0:0:0
376,208,12611,1,0,0:0:0
412,280,12775,1,0,0:0:0
416,140,12939,2,0,B|376:120|336:140,1,80,8|0,0:0|0:0,0:0:0
260,140,13267,2,0,B|243:100|192:83,1,80,0|0,0:0|0:0,0:0:0
176,164,13595,2,0,B|136:180|119:231,1,80,8|0,0:0|0:0,0:0:0
200,244,13923,2,0,B|216:283|267:300,1,80
288,224,14250,2,0,B|327:207|344:156,1,80,8|0,0:0|0:0,0:0:0
256,64,14578,6,0,B|176:32|100:64,1,160,2|8,0:0|0:0,0:0:0
52,128,15070,1,0,0:0:0
100,192,15234,2,0,B|180:224|256:192,1,160,2|8,0:0|0:0,0:0:0
312,248,15726,2,0,B|256:312,2,80,0|2|0,0:0|0:0|0:0,0:0:0
392,248,16218,2,0,B|392:168,1,80,8|0,0:0|0:0,0:0:0
312,168,16545,2,0,B|256:104,2,80,2|0|8,0:0|0:0|0:0,0:0:0
312,248,17037,1,0,0:0:0
172,168,17201,1,0,0:0:0
264,36,17365,6,0,B|184:36,2,80,0|8|0,0:0|0:0|0:0,0:0:0
400,136,17857,2,0,B|424:172|400:212,1,80,0|0,0:0|0:0,0:0:0
248,256,18185,2,0,B|224:220|248:180,1,80,8|0,0:0|0:0,0:0:0
92,136,18513,2,0,B|52:160|52:208,1,80
76,280,18841,1,8,0:0:0
140,328,19004,1,0,0:0:0
220,332,19168,2,0,B|260:308|260:260,1,80
236,188,19496,1,8,0:0:0
172,140,19660,1,0,0:0:0
316,68,19824,6,0,B|236:36|160:68,2,160,2|8|2,0:0|0:0|0:0,0:0:0
292,144,20644,1,0,0:0:0
268,228,20808,1,8,0:0:0
244,308,20972,1,0,0:0:0
244,308,21136,2,0,B|324:340|400:308,1,160,2|8,0:0|0:0,0:0:0
400,148,21627,1,0,0:0:0
400,148,21791,2,0,B|320:116|244:148,1,160,2|8,0:0|0:0,0:0:0
104,228,22283,1,0,0:0:0
244,308,22447,5,4,0:0:0
120,72,27693,6,0,B|32:72,2,80,4|0|8,0:0|0:0|0:0,0:0:0
120,152,28185,2,0,B|96:192|120:232,1,80,0|0,0:0|0:0,0:0:0
192,192,28513,1,0,0:0:0
192,192,28677,1,8,0:0:0
264,232,28841,2,0,B|288:192|264:152,1,80,4|0,0:0|0:0,0:0:0
332,112,29168,2,0,B|404:69,2,80,0|8|0,0:0|0:0|0:0,0:0:0
344,192,29660,2,0,B|416:234,2,80,0|0|8,0:0|0:0|0:0,0:0:0
264,232,30152,1,0,0:0:0
264,152,30316,5,4,0:0:0
264,72,30480,1,0,0:0:0
184,72,30644,2,0,B|160:108|184:148,1,80,8|0,0:0|0:0,0:0:0
264,152,30972,1,0,0:0:0
264,152,31136,1,0,0:0:0
344,148,31300,2,0,B|368:188|344:224,1,80,8|4,0:0|0:0,0:0:0
296,288,31627,2,0,B|360:352,2,80,0|0|8,0:0|0:0|0:0,0:0:0
216,288,32119,2,0,B|152:352,2,80,0|0|0,0:0|0:0|0:0,0:0:0
256,220,32611,2,0,B|256:180,2,40,8|0|0,0:0|0:0|0:0,0:0:0
140,192,32939,5,8,0:0:0
196,84,33103,1,8,0:0:0
316,84,33267,1,8,0:0:0
372,192,33431,1,8,0:0:0
32,192,33759,5,2,0:0:0
480,192,34086,1,2,0:0:0
256,192,34250,12,8,35234,0:0:0
80,88,35562,6,0,B|156:48|236:88,2,160,4|2|0,0:0|0:0|0:0,0:0:0
64,168,36382,1,0,0:0:0
140,196,36545,1,2,0:0:0
216,224,36709,2,0,B|200:264|216:304,1,80
288,264,37037,1,0,0:0:0
288,264,37119,1,0,0:0:0
288,264,37201,1,2,0:0:0
356,304,37365,2,0,B|372:264|356:224,1,80
400,160,37693,2,0,B|456:96,2,80,0|2|0,0:0|0:0|0:0,0:0:0
256,100,38185,6,0,B|224:52|152:52|120:100,1,160,0|2,0:0|0:0,0:0:0
188,144,38677,1,0,0:0:0
188,144,38841,2,0,B|140:176|140:248|188:280,1,160,0|2,0:0|0:0,0:0:0
228,212,39332,2,0,B|396:212,1,160
468,212,39824,1,2,0:0:0
468,212,39988,2,0,B|488:172|468:136,1,80
336,44,40316,1,0,0:0:0
256,192,40480,1,2,0:0:0
96,192,40808,6,0,B|44:268|96:344,1,160,4|2,0:0|0:0,0:0:0
176,344,41300,1,0,0:0:0
176,344,41463,1,0,0:0:0
256,344,41627,2,0,B|344:344,2,80,0|2|0,0:0|0:0|0:0,0:0:0
256,264,42119,2,0,B|276:224|256:184,1,80
176,188,42447,2,0,B|156:228|176:268,1,80,2|0,0:0|0:0,0:0:0
216,116,42775,2,0,B|201:73|156:64,1,80
44,176,43103,2,0,B|58:218|102:230,1,80,4|0,0:0|0:0,0:0:0
256,264,43431,5,4,0:0:0
256,264,43595,1,0,0:0:0
396,184,43759,1,2,0:0:0
396,184,43923,1,0,0:0:0
256,108,44086,2,0,B|244:68|204:48,1,80,4|0,0:0|0:0,0:0:0
168,120,44414,1,2,0:0:0
88,108,44578,1,4,0:0:0
44,176,44742,1,0,0:0:0
100,236,44906,1,0,0:0:0
172,200,45070,2,0,B|184:240|224:260,1,80,2|0,0:0|0:0,0:0:0
256,332,45398,5,0,0:0:0
274,323,45479,1,0,0:0:0
292,315,45561,1,0,0:0:0
310,307,45643,1,0,0:0:0
329,299,45726,1,2,0:0:0
347,291,45807,1,0,0:0:0
365,282,45889,1,0,0:0:0
383,274,45971,1,0,0:0:0
402,267,46054,6,0,B|434:207|402:151,1,119.999996423721,4|2,0:0|0:0,0:0:0
356,96,46545,1,0,0:0:0
300,52,46709,2,0,B|240:20|184:52,1,119.999996423721,0|2,0:0|0:0,0:0:0
176,124,47201,1,0,0:0:0
168,196,47365,2,0,B|108:228|52:196,1,119.999996423721,0|2,0:0|0:0,0:0:0
36,268,47857,2,0,B|56:324,1,59.9999982118607
128,320,48185,2,0,B|152:384,2,59.9999982118607,0|2|0,0:0|0:0|0:0,0:0:0
256,232,48677,6,0,B|312:272|368:232,2,119.999996423721,0|2|0,0:0|0:0|0:0,0:0:0
216,168,49496,1,0,0:0:0
216,168,49660,2,0,B|164:200,1,60.0000022888184,2|0,0:0|0:0,0:0:0
56,216,49988,2,0,B|108:248,1,60.0000022888184
164,296,50316,2,0,B|220:328|280:296,2,119.999996423721,2|0|4,0:0|0:0|0:0,0:0:0
428,188,51300,6,0,B|460:128|428:72,2,119.999996423721,0|2|0,0:0|0:0|0:0,0:0:0
356,188,52119,1,0,0:0:0
284,188,52283,1,2,0:0:0
212,188,52447,2,0,B|180:128|212:72,1,119.999996423721
284,188,52939,2,0,B|284:256,1,59.9999982118607,2|0,0:0|0:0,0:0:0
256,316,53267,2,0,B|200:356|140:316,1,119.999996423721,0|2,0:0|0:0,0:0:0
188,260,53759,1,0,0:0:0
188,260,53923,6,0,B|120:248|104:180,1,119.999996423721,0|2,0:0|0:0,0:0:0
176,172,54414,1,0,0:0:0
176,172,54578,2,0,B|187:104|256:92,1,119.999996423721,0|2,0:0|0:0,0:0:0
328,92,55070,2,0,B|376:136|436:136,1,119.999996423721,4|0,0:0|0:0,0:0:0
416,204,55562,2,0,B|380:256,1,59.9999982118607,2|0,0:0|0:0,0:0:0
308,256,55890,2,0,B|244:256,1,59.9999982118607
176,256,56218,2,0,B|144:204,1,59.9999982118607,2|0,0:0|0:0,0:0:0
40,184,56545,6,0,B|12:124|40:64,1,119.999996423721,4|2,0:0|0:0,0:0:0
104,128,57037,1,0,0:0:0
168,64,57201,2,0,B|192:124|168:184,1,119.999996423721,0|2,0:0|0:0,0:0:0
152,272,57693,1,0,0:0:0
152,272,57857,2,0,B|176:296|216:296,1,59.9999982118607
360,272,58185,1,2,0:0:0
360,272,58349,2,0,B|336:296|296:296,1,59.9999982118607
256,212,58677,2,0,B|256:152,2,59.9999982118607,0|2|0,0:0|0:0|0:0,0:0:0
128,152,59168,6,0,B|152:88|220:88,1,119.999996423721,0|2,0:0|0:0,0:0:0
256,152,59660,1,0,0:0:0
384,152,59824,2,0,B|360:88|292:88,1,119.999996423721,0|2,0:0|0:0,0:0:0
256,152,60316,1,0,0:0:0
312,196,60480,2,0,B|328:228|312:260,1,59.9999982118607,0|0,0:0|0:0,0:0:0
197,254,60808,2,0,B|184:228|200:196,1,59.9999982118607,2|0,0:0|0:0,0:0:0
256,296,61136,2,0,B|256:360,2,59.9999982118607,0|0|2,0:0|0:0|0:0,0:0:0
132,196,61791,6,0,B|36:196|12:104,1,160,4|2,0:0|0:0,0:0:0
380,196,62447,2,0,B|476:196|500:104,1,160,0|2,0:0|0:0,0:0:0
448,44,62939,2,0,B|352:44|328:136,1,160,0|0,0:0|0:0,0:0:0
276,192,63431,2,0,B|188:192,1,80,2|0,0:0|0:0,0:0:0
120,224,63759,2,0,B|100:184|120:148,1,80
276,192,64086,2,0,B|296:232|276:268,1,80,2|0,0:0|0:0,0:0:0
268,348,64414,6,0,B|344:388|424:348,1,160,4|2,0:0|0:0,0:0:0
428,192,64906,2,0,B|352:152|272:192,1,160,4|0,0:0|0:0,0:0:0
276,268,65398,2,0,B|188:268,2,80,2|0|4,0:0|0:0|0:0,0:0:0
256,36,66054,5,2,0:0:0
216,156,66218,1,0,0:0:0
320,80,66382,1,2,0:0:0
192,80,66545,1,0,0:0:0
296,156,66709,1,2,0:0:0
256,328,67037,6,0,B|176:288|88:288,1,160,4|8,0:0|0:0,0:0:0
48,224,67529,1,0,0:0:0
116,184,67693,2,0,B|156:112,1,80,0|0,0:0|0:0,0:0:0
236,112,68021,2,0,B|272:92|312:112,1,80,8|0,0:0|0:0,0:0:0
272,184,68349,1,0,0:0:0
272,184,68431,1,0,0:0:0
272,184,68513,1,2,0:0:0
312,256,68677,2,0,B|276:276|236:256,1,80,8|2,0:0|0:0,0:0:0
184,316,69004,2,0,B|104:316,2,80,0|8|8,0:0|0:0|0:0,0:0:0
272,184,69496,1,0,0:0:0
448,192,69660,6,0,B|496:256,2,80,4|0|8,0:0|0:0|0:0,0:0:0
400,264,70152,2,0,B|368:320|320:320,1,80
288,264,70480,1,0,0:0:0
288,264,70644,1,8,0:0:0
232,320,70808,2,0,B|156:360|76:320,2,160,0|2|2,0:0|0:0|0:0,0:0:0
176,264,71627,2,0,B|156:224|176:188,1,80,0|8,0:0|0:0,0:0:0
336,188,71955,2,0,B|356:228|336:264,1,80,8|0,0:0|0:0,0:0:0
368,104,72283,6,0,B|456:136|456:232,1,160,4|8,0:0|0:0,0:0:0
144,296,72939,2,0,B|56:264|56:168,1,160,0|8,0:0|0:0,0:0:0
128,144,73431,1,0,0:0:0
152,136,73513,1,0,0:0:0
176,128,73595,2,0,B|224:136|256:104,1,80
268,188,73923,2,0,B|244:220|244:268,1,80,8|0,0:0|0:0,0:0:0
332,128,74250,2,0,B|356:96|356:48,1,80
268,188,74578,1,8,0:0:0
428,188,74742,1,0,0:0:0
428,188,74906,6,0,B|404:292|316:292,1,160,4|8,0:0|0:0,0:0:0
244,284,75398,2,0,B|228:236|180:228,1,80
64,128,75726,1,0,0:0:0
63,128,75890,2,0,B|71:175|112:184,1,80,8|0,0:0|0:0,0:0:0
224,68,76218,2,0,B|312:44|372:108,1,160,4|8,0:0|0:0,0:0:0
416,176,76709,1,0,0:0:0
416,176,76791,1,0,0:0:0
416,176,76873,2,0,B|416:224|384:264,1,80,0|8,0:0|0:0,0:0:0
256,328,77201,2,0,B|256:280|288:240,1,80,8|0,0:0|0:0,0:0:0
128,192,77529,6,0,B|72:248,2,80,4|0|8,0:0|0:0|0:0,0:0:0
208,192,78021,1,0,0:0:0
172,120,78185,2,0,B|152:80|172:44,1,80
248,76,78513,1,8,0:0:0
320,44,78677,2,0,B|340:80|320:120,1,80
288,192,79004,1,0,0:0:0
208,192,79168,2,0,B|160:260,2,80,8|0|0,0:0|0:0|0:0,0:0:0
48,192,79660,1,8,0:0:0
132,56,79824,1,12,0:0:0
360,56,80152,6,0,B|416:120|416:208,1,160,0|8,0:0|0:0,0:0:0
304,320,80644,1,0,0:0:0
304,320,80808,2,0,B|248:256|248:168,1,160,0|8,0:0|0:0,0:0:0
128,64,81300,1,0,0:0:0
128,64,81627,2,0,B|88:132,1,80,0|8,0:0|0:0,0:0:0
144,192,81955,2,0,B|120:232|144:272,1,80
224,272,82283,2,0,B|248:232|224:192,1,80,8|8,0:0|0:0,0:0:0
388,192,82611,5,0,0:0:0
388,192,82775,2,0,B|436:112|388:40,1,160,4|8,0:0|0:0,0:0:0
328,104,83267,2,0,B|275:26|189:39,1,160
192,120,83759,2,0,B|152:120|104:152,1,80,8|0,0:0|0:0,0:0:0
56,200,84086,2,0,B|108:277|194:264,1,160,4|8,0:0|0:0,0:0:0
272,264,84578,2,0,B|272:360,2,80
352,264,85070,2,0,B|384:240|392:192,1,80,8|0,0:0|0:0,0:0:0
256,112,85398,6,0,B|239:72|199:55,1,80,4|0,0:0|0:0,0:0:0
184,136,85726,2,0,B|144:152|127:192,1,80,8|0,0:0|0:0,0:0:0
208,208,86054,2,0,B|224:247|264:264,1,80
284,184,86382,1,8,0:0:0
320,168,86463,1,0,0:0:0
340,132,86545,1,4,0:0:0
256,344,86873,2,0,B|360:344,2,80,4|8|0,0:0|0:0|0:0,0:0:0
128,248,87365,1,4,0:0:0
128,248,87529,2,0,B|184:168|184:80,1,160,4|4,0:0|0:0,0:0:0
256,68,88021,5,0,0:0:0
256,68,88185,2,0,B|336:68,1,80,0|8,0:0|0:0,0:0:0
416,68,88513,1,0,0:0:0
472,128,88677,2,0,B|448:168|472:204,1,80
416,264,89004,2,0,B|472:320,2,80,8|0|0,0:0|0:0|0:0,0:0:0
336,264,89496,2,0,B|280:320,2,80,0|8|0,0:0|0:0|0:0,0:0:0
300,192,89988,2,0,B|324:156|300:116,1,80
168,24,90316,2,0,B|144:60|168:100,1,80,8|0,0:0|0:0,0:0:0
32,192,90644,6,0,B|32:288|136:288,2,160,2|8|2,0:0|0:0|0:0,0:0:0
96,140,91463,1,0,0:0:0
156,192,91627,1,8,0:0:0
216,140,91791,1,0,0:0:0
479,189,91955,2,0,B|480:96|376:96,2,160,2|8|2,0:0|0:0|0:0,0:0:0
416,244,92775,1,0,0:0:0
356,192,92939,1,8,0:0:0
296,244,93103,1,0,0:0:0
296,244,93185,1,0,0:0:0
296,244,93267,1,0,0:0:0
168,328,93431,6,0,B|248:328,2,80,0|8|0,0:0|0:0|0:0,0:0:0
88,328,93923,2,0,B|68:288|88:248,1,80
152,204,94250,1,8,0:0:0
152,204,94414,1,0,0:0:0
232,204,94578,2,0,B|320:204,2,80,0|0|8,0:0|0:0|0:0,0:0:0
192,136,95070,2,0,B|262:69,2,80
152,204,95562,1,8,0:0:0
152,204,95726,1,0,0:0:0
112,272,95890,6,0,B|72:292|36:272,1,80,2|0,0:0|0:0,0:0:0
72,200,96218,1,8,0:0:0
72,200,96382,1,0,0:0:0
32,132,96545,2,0,B|72:112|108:132,1,80,2|0,0:0|0:0,0:0:0
152,204,96873,2,0,B|220:248,1,80,8|0,0:0|0:0,0:0:0
300,248,97201,2,0,B|368:204,2,80,2|0|8,0:0|0:0|0:0,0:0:0
260,180,97693,1,0,0:0:0
284,104,97857,5,4,0:0:0
284,104,97939,1,0,0:0:0
284,104,98021,1,0,0:0:0
284,104,98103,1,0,0:0:0
284,104,98185,1,4,0:0:0
284,104,98267,1,0,0:0:0
284,104,98349,1,0,0:0:0
440,160,98513,5,8,0:0:0
352,288,98677,1,0,0:0:0
72,224,99004,1,8,0:0:0
160,96,99168,1,0,0:0:0
160,96,99496,6,0,B|186:62|233:57,1,80,8|0,0:0|0:0,0:0:0
230,138,99824,1,0,0:0:0
301,180,99988,2,0,B|274:213|227:218,1,80,8|0,0:0|0:0,0:0:0
256,296,100316,1,0,0:0:0
256,296,100398,1,0,0:0:0
256,296,100480,2,0,B|360:296,2,80,2|0|2,0:0|0:0|0:0,0:0:0
256,96,101136,5,8,0:0:0
384,192,101300,2,0,B|480:192,1,80
384,328,101627,2,0,B|304:328,1,80,8|0,0:0|0:0,0:0:0
144,328,101955,1,0,0:0:0
144,328,102119,2,0,B|104:308|104:264,1,80,8|0,0:0|0:0,0:0:0
248,192,102447,1,0,0:0:0
248,192,102611,2,0,B|288:172|288:128,1,80,8|0,0:0|0:0,0:0:0
440,192,103103,5,8,0:0:0
72,192,103431,1,8,0:0:0
256,24,104086,5,4,0:0:0
