osu file format v10

[General]
AudioFilename: Synchro Shiyouyo(short ver).mp3
AudioLeadIn: 1000
PreviewTime: 67037
Countdown: 0
SampleSet: Soft
StackLeniency: 0.7
Mode: 0
LetterboxInBreaks: 0

[Editor]
DistanceSpacing: 1
BeatDivisor: 4
GridSize: 4

[Metadata]
Title:Synchro Shiyou yo (Short Ver.)
TitleUnicode:Synchro Shiyou yo (Short Ver.)
Artist:nao
ArtistUnicode:nao
Creator:kajiyatta
Version:Hard
Source:Chaos;Head Love Chu*Chu!
Tags:Nitroplus 5pb. opening Chiyomaru Shikura Kenji Arai psp visual novel -_t_e_n_n_y_a_- hibarirailwayz
BeatmapID:182508
BeatmapSetID:51055

[Difficulty]
HPDrainRate:6
CircleSize:4
OverallDifficulty:6
ApproachRate:7
SliderMultiplier:1.3
SliderTickRate:1

[Events]
//Background and Video events
0,0,"BG1.jpg"
Video,0,"op.avi"
//Break Periods
2,22646,26793
//Storyboard Layer 0 (Background)
//Storyboard Layer 1 (Fail)
//Storyboard Layer 2 (Pass)
//Storyboard Layer 3 (Foreground)
//Storyboard Sound Samples
//Background Colour Transformations
3,100,163,162,255

[TimingPoints]
1464,327.868852459016,4,2,1,90,1,0
3431,-100,4,1,0,50,0,0
4086,-100,4,2,1,90,0,0
6054,-100,4,1,0,50,0,0
6709,-100,4,2,1,90,0,0
9004,-100,4,2,0,90,0,0
11300,-100,4,2,0,70,0,0
11463,-100,4,2,0,90,0,0
12119,-100,4,1,0,60,0,0
22447,-100,4,2,0,90,0,0
32939,-100,4,2,1,90,0,0
33759,-100,4,1,0,50,0,0
35234,-100,4,2,0,80,0,0
43431,-100,4,2,0,90,0,0
46054,-133.333333333333,4,2,0,80,0,0
50972,-133.333333333333,4,2,0,70,0,0
51300,-133.333333333333,4,2,1,80,0,0
61791,-100,4,2,0,90,0,0
67037,-100,4,2,0,90,0,1
86709,-100,4,2,0,70,0,1
87037,-100,4,2,0,60,0,1
87365,-100,4,2,0,50,0,1
87693,-100,4,2,0,40,0,1
87857,-100,4,2,0,90,0,0
88021,-100,4,1,0,60,0,0
98513,-100,4,2,1,90,0,0
100480,-100,4,1,0,50,0,0
101136,-100,4,2,1,90,0,0
104086,-100,4,2,0,90,0,0

[Colours]
Combo1 : 255,128,0
Combo2 : 30,230,19
Combo3 : 102,102,255
Combo4 : 236,0,0

[HitObjects]
84,160,1464,2,0,B|32:104,2,65,8|8|0,0:0|0:0|0:0,0:0:0
156,164,1955,2,8,B|220:164,1,65
428,160,2447,2,0,B|480:104,2,65,8|8|0,0:0|0:0|0:0,0:0:0
356,164,2939,2,8,B|292:164,1,65
256,304,3431,5,2,0:0:0
124,252,3759,1,2,0:0:0
12,200,4086,6,0,B|24:128|100:112,1,130,8|0,0:0|0:0,0:0:0
168,108,4578,2,0,B|236:108,1,65,8|0,0:0|0:0,0:0:0
348,192,5070,2,0,B|416:192,2,65,8|0|0,0:0|0:0|0:0,0:0:0
276,192,5562,2,0,B|276:256,1,65,8|0,0:0|0:0,0:0:0
152,328,6054,5,2,0:0:0
28,256,6382,1,2,0:0:0
144,176,6709,6,0,B|184:240|252:240,1,130,8|0,0:0|0:0,0:0:0
324,240,7201,2,0,B|396:240,1,65,8|0,0:0|0:0,0:0:0
424,100,7693,2,0,B|376:36|312:36,1,130,8|0,0:0|0:0,0:0:0
244,36,8185,2,0,B|172:36,1,65,8|0,0:0|0:0,0:0:0
84,144,8677,6,0,B|156:144,1,65,8|0,0:0|0:0,0:0:0
212,272,9168,6,0,B|272:320|332:272,1,130,4|0,0:0|0:0,0:0:0
380,220,9660,2,0,B|460:220,2,65,8|0|0,0:0|0:0|0:0,0:0:0
284,112,10316,1,8,0:0:0
212,112,10480,2,0,B|152:64|92:112,1,130,4|0,0:0|0:0,0:0:0
40,160,10972,2,0,B|24:188|40:224,1,65,8|0,0:0|0:0,0:0:0
168,288,11300,2,0,B|184:260|168:225,1,65,4|4,0:0|0:0,0:0:0
420,288,11791,6,0,B|484:256|496:184,1,130,4|0,0:0|0:0,0:0:0
424,184,12283,2,0,B|446:116|404:56,1,130,8|0,0:0|0:0,0:0:0
264,80,12939,1,8,0:0:0
124,112,13267,2,0,B|58:137|32:200,1,130,0|8,0:0|0:0,0:0:0
164,244,13923,2,0,B|136:308|164:372,1,130,0|8,0:0|0:0,0:0:0
308,368,14578,6,0,B|336:304|308:240,1,130,2|8,0:0|0:0,0:0:0
376,216,15070,1,0,0:0:0
444,188,15234,2,0,B|420:125|356:96,1,130,2|8,0:0|0:0,0:0:0
308,40,15726,1,0,0:0:0
236,40,15890,2,0,B|92:40,2,130,2|8|2,0:0|0:0|0:0,0:0:0
308,40,16709,2,0,B|380:40,2,65,0|8|0,0:0|0:0|0:0,0:0:0
276,104,17201,6,0,B|276:168,1,65,0|0,0:0|0:0,0:0:0
204,168,17529,1,8,0:0:0
60,168,17857,1,0,0:0:0
132,292,18185,1,8,0:0:0
276,292,18513,2,0,B|336:324|400:292,2,130,0|8|0,0:0|0:0|0:0,0:0:0
336,164,19496,1,8,0:0:0
128,48,19824,6,0,B|48:48,1,65,2|0,0:0|0:0,0:0:0
128,120,20152,2,0,B|58:160,1,65,8|0,0:0|0:0,0:0:0
168,176,20480,2,0,B|136:240,1,65,2|0,0:0|0:0,0:0:0
232,200,20808,2,0,B|232:280,1,65,8|0,0:0|0:0,0:0:0
260,332,21136,2,0,B|324:364|388:332,1,130,2|8,0:0|0:0,0:0:0
428,196,21791,2,0,B|364:164|300:196,1,130,2|8,0:0|0:0,0:0:0
232,200,22283,6,0,B|184:152,1,65,0|4,0:0|0:0,0:0:0
48,112,27693,6,0,B|112:144|112:216,1,130,4|8,0:0|0:0,0:0:0
184,216,28185,2,0,B|184:280,2,65
256,216,28677,1,8,0:0:0
328,216,28841,2,0,B|364:152|328:88,1,130,4|0,0:0|0:0,0:0:0
260,88,29332,2,0,B|196:88,2,65,8|0|0,0:0|0:0|0:0,0:0:0
184,216,29988,1,8,0:0:0
60,144,30316,6,0,B|20:204|60:268,2,130,4|8|0,0:0|0:0|0:0,0:0:0
128,124,31136,2,0,B|208:124,1,65,0|8,0:0|0:0,0:0:0
216,192,31463,2,0,B|264:240,1,65,4|0,0:0|0:0,0:0:0
328,264,31791,1,0,0:0:0
396,236,31955,1,8,0:0:0
432,176,32119,1,0,0:0:0
432,104,32283,2,0,B|520:104,2,65,0|0|8,0:0|0:0|0:0,0:0:0
256,304,32939,6,0,B|188:304,1,65,8|8,0:0|0:0,0:0:0
256,192,33267,2,0,B|336:192,1,65,8|8,0:0|0:0,0:0:0
60,192,33759,1,2,0:0:0
256,24,34086,1,2,0:0:0
256,192,34250,12,8,35234,0:0:0
256,312,35562,5,4,0:0:0
352,224,35890,1,2,0:0:0
448,136,36218,1,0,0:0:0
352,48,36545,1,2,0:0:0
280,48,36709,2,0,B|232:104|152:104,1,130,0|2,0:0|0:0,0:0:0
52,192,37365,1,0,0:0:0
124,192,37529,2,0,B|172:248|252:248,1,130,0|2,0:0|0:0,0:0:0
368,192,38185,6,0,B|408:132|368:68,2,130,0|2|0,0:0|0:0|0:0,0:0:0
296,192,39004,2,0,B|264:212|256:252,1,65,0|2,0:0|0:0,0:0:0
276,312,39332,2,0,B|212:344|148:312,1,130
84,292,39824,1,2,0:0:0
28,248,39988,2,0,B|4:228|4:188,2,65
28,248,40480,1,2,0:0:0
152,64,40808,6,0,B|212:32|276:64,1,130,4|2,0:0|0:0,0:0:0
276,208,41463,2,0,B|216:240|152:208,1,130,0|2,0:0|0:0,0:0:0
84,184,41955,2,0,B|36:232|36:304,2,130,0|2|0,0:0|0:0|0:0,0:0:0
152,208,42775,2,0,B|200:160|200:88,1,130,0|4,0:0|0:0,0:0:0
344,88,43431,6,0,B|399:56,2,65,4|0|2,0:0|0:0|0:0,0:0:0
380,152,43923,1,0,0:0:0
344,212,44086,2,0,B|399:244,2,65,4|0|2,0:0|0:0|0:0,0:0:0
272,212,44578,2,0,B|212:180|148:212,2,130,4|0|0,0:0|0:0|0:0,0:0:0
308,272,45398,2,0,B|308:344,2,65,0|0|2,0:0|0:0|0:0,0:0:0
424,80,46054,6,0,B|380:104|328:80,1,97.50000371933,4|2,0:0|0:0,0:0:0
280,80,46545,2,0,B|212:80,1,48.7499985471368
132,80,47037,1,2,0:0:0
84,80,47201,1,0,0:0:0
36,80,47365,2,0,B|64:128|36:172,1,97.50000371933,0|2,0:0|0:0,0:0:0
80,192,47857,1,0,0:0:0
124,212,48021,2,0,B|92:260|124:304,1,97.4999970942737,0|2,0:0|0:0,0:0:0
220,256,48677,6,0,B|316:256,1,97.4999970942737,0|2,0:0|0:0,0:0:0
404,300,49332,2,0,B|436:252|404:208,1,97.4999970942737,0|2,0:0|0:0,0:0:0
408,112,49988,2,0,B|480:40,2,97.4999970942737,0|2|0,0:0|0:0|0:0,0:0:0
360,112,50808,2,0,B|296:112,1,48.7499985471368,0|4,0:0|0:0,0:0:0
212,112,51300,6,0,B|180:72|120:72,1,97.50000371933,0|2,0:0|0:0,0:0:0
76,72,51791,2,0,B|12:72,2,48.750001859665
100,116,52283,2,0,B|100:164,1,48.750001859665,2|0,0:0|0:0,0:0:0
312,336,52939,2,0,B|216:336,2,97.4999970942737,2|0|2,0:0|0:0|0:0,0:0:0
360,336,53759,1,0,0:0:0
408,336,53923,6,0,B|456:312|456:256,1,97.4999970942737,0|2,0:0|0:0,0:0:0
420,224,54414,1,0,0:0:0
384,192,54578,2,0,B|336:168|336:96,1,97.4999970942737,0|2,0:0|0:0,0:0:0
288,112,55070,2,0,B|192:112,1,97.4999970942737,4|0,0:0|0:0,0:0:0
144,112,55562,2,0,B|88:112,1,48.7499985471368,2|0,0:0|0:0,0:0:0
88,184,55890,2,0,B|44:228,1,48.750001859665
124,248,56218,2,0,B|124:312,1,48.7499985471368,2|0,0:0|0:0,0:0:0
164,328,56545,6,0,B|256:368|356:328,1,194.999994188547,4|0,0:0|0:0,0:0:0
436,280,57529,1,2,0:0:0
440,232,57693,1,0,0:0:0
416,192,57857,2,0,B|376:152|320:152,1,97.4999970942737,0|2,0:0|0:0,0:0:0
280,152,58349,2,0,B|224:152,1,48.7499985471368
256,56,58841,1,2,0:0:0
160,56,59168,6,0,B|56:56,2,97.4999970942737,0|2|0,0:0|0:0|0:0,0:0:0
160,152,60152,2,0,B|128:196|160:244,1,97.4999970942737,2|0,0:0|0:0,0:0:0
256,248,60808,2,0,B|256:308,2,48.750001859665,2|0|0,0:0|0:0|0:0,0:0:0
352,248,61463,2,0,B|408:248,1,48.7499985471368,2|0,0:0|0:0,0:0:0
472,248,61791,5,4,0:0:0
472,104,62119,1,2,0:0:0
328,104,62447,2,0,B|373:58,2,65,0|0|2,0:0|0:0|0:0,0:0:0
256,104,62939,2,0,B|192:64|132:104,1,130
60,104,63431,2,0,B|11:55,2,65,2|0|0,0:0|0:0|0:0,0:0:0
60,248,64086,1,2,0:0:0
60,248,64250,1,0,0:0:0
60,248,64414,6,0,B|120:284|184:248,1,130,4|2,0:0|0:0,0:0:0
244,208,64906,2,0,B|308:172|368:208,1,130,4|2,0:0|0:0,0:0:0
440,204,65398,2,0,B|492:148,2,65,2|0|4,0:0|0:0|0:0,0:0:0
228,52,66054,5,2,0:0:0
228,52,66218,1,0,0:0:0
104,88,66382,1,2,0:0:0
104,88,66545,1,0,0:0:0
40,200,66709,1,2,0:0:0
40,200,66873,1,0,0:0:0
108,312,67037,6,0,B|168:348|232:312,1,130,4|8,0:0|0:0,0:0:0
260,244,67529,1,0,0:0:0
280,176,67693,2,0,B|340:140|404:176,1,130,0|8,0:0|0:0,0:0:0
476,184,68185,2,0,B|496:164|496:124,1,65
448,72,68513,2,0,B|498:21,2,65,2|8|2,0:0|0:0|0:0,0:0:0
380,44,69004,2,0,B|316:8|256:44,1,130,0|8,0:0|0:0,0:0:0
184,44,69496,2,0,B|120:44,1,65,0|4,0:0|0:0,0:0:0
148,188,69988,5,8,0:0:0
256,92,70316,1,0,0:0:0
364,188,70644,1,8,0:0:0
436,188,70808,2,0,B|472:252|432:316,2,130,0|2|2,0:0|0:0|0:0,0:0:0
364,188,71627,2,0,B|300:188,1,65,0|8,0:0|0:0,0:0:0
280,256,71955,2,0,B|212:256,1,65,8|0,0:0|0:0,0:0:0
104,192,72283,6,8,B|68:128|108:64,2,130,4|8|0,0:0|0:0|0:0,0:0:0
176,192,73103,2,0,B|212:244,1,65,0|8,0:0|0:0,0:0:0
244,312,73431,1,0,0:0:0
284,252,73595,2,0,B|332:212|412:212,1,130,0|8,0:0|0:0,0:0:0
476,212,74086,1,0,0:0:0
440,152,74250,2,0,B|440:84|384:40,1,130,0|8,0:0|0:0,0:0:0
128,40,74906,6,0,B|72:84|72:152,1,130,4|8,0:0|0:0,0:0:0
132,192,75398,2,0,B|196:192,1,65
256,324,75890,1,8,0:0:0
324,304,76054,1,0,0:0:0
392,284,76218,2,0,B|444:240|444:168,1,130,4|8,0:0|0:0,0:0:0
428,100,76709,1,0,0:0:0
376,48,76873,2,0,B|348:32|312:32,2,65,0|8|8,0:0|0:0|0:0,0:0:0
28,244,77529,6,0,B|100:244|140:188,1,130,4|8,0:0|0:0,0:0:0
180,128,78021,1,0,0:0:0
220,68,78185,2,0,B|280:40|348:68,1,130,0|8,0:0|0:0,0:0:0
348,212,78677,1,0,0:0:0
348,212,78841,2,0,B|288:240|220:212,2,130,0|8|0,0:0|0:0|0:0,0:0:0
420,200,79660,2,0,B|504:176,2,65,8|12|0,0:0|0:0|0:0,0:0:0
396,268,80152,6,0,B|408:300|396:332,1,65
328,312,80480,1,8,0:0:0
260,292,80644,1,0,0:0:0
192,272,80808,2,0,B|180:240|192:208,1,65
124,180,81136,2,0,B|138:148|169:134,1,65,8|0,0:0|0:0,0:0:0
296,72,81627,2,0,B|360:48|360:48|420:72,1,130,0|0,0:0|0:0,0:0:0
380,136,82119,2,0,B|320:160|320:160|256:136,1,130,0|8,0:0|0:0,0:0:0
224,72,82611,1,0,0:0:0
224,72,82775,6,0,B|160:40|100:72,1,130,4|8,0:0|0:0,0:0:0
44,120,83267,1,0,0:0:0
12,184,83431,1,0,0:0:0
44,248,83595,1,0,0:0:0
100,292,83759,2,0,B|164:324|224:292,1,130,8|4,0:0|0:0,0:0:0
348,220,84414,1,8,0:0:0
480,164,84742,2,0,B|448:100|376:100,1,130,0|8,0:0|0:0,0:0:0
256,192,85398,12,4,87857,0:0:0
128,112,88185,5,0,0:0:0
128,112,88349,1,8,0:0:0
128,112,88513,1,0,0:0:0
128,112,88677,2,0,B|144:180|220:192,1,130,0|8,0:0|0:0,0:0:0
331,149,89332,2,0,B|256:128|220:192,1,130,0|8,0:0|0:0,0:0:0
203,310,89988,2,0,B|256:260|220:188,1,130,0|8,0:0|0:0,0:0:0
344,224,90644,6,0,B|416:264|488:264,2,130,2|8|2,0:0|0:0|0:0,0:0:0
364,156,91463,1,0,0:0:0
336,92,91627,1,8,0:0:0
268,72,91791,1,0,0:0:0
208,112,91955,2,0,B|136:152|64:152,2,130,2|8|2,0:0|0:0|0:0,0:0:0
236,176,92775,2,0,B|292:216,1,65,0|8,0:0|0:0,0:0:0
244,268,93103,2,0,B|188:308,1,65,0|0,0:0|0:0,0:0:0
48,300,93595,6,0,B|16:236|48:172,1,130,8|0,0:0|0:0,0:0:0
164,92,94250,2,0,B|228:60|292:92,1,130,8|0,0:0|0:0,0:0:0
408,172,94906,2,0,B|440:236|408:300,2,130,8|0|8,0:0|0:0|0:0,0:0:0
280,236,95890,6,0,B|248:248|216:236,1,65,2|0,0:0|0:0,0:0:0
244,168,96218,2,0,B|217:146|212:112,1,65,8|0,0:0|0:0,0:0:0
284,104,96545,2,0,B|289:70|316:48,1,65,2|0,0:0|0:0,0:0:0
356,108,96873,2,0,B|388:96|420:108,1,65,8|0,0:0|0:0,0:0:0
460,168,97201,2,0,B|488:228|460:296,2,130,2|8|2,0:0|0:0|0:0,0:0:0
388,172,98021,1,0,0:0:0
356,236,98185,1,2,0:0:0
328,300,98349,1,0,0:0:0
328,300,98513,6,0,B|263:300,1,65,8|0,0:0|0:0,0:0:0
120,300,99004,2,0,B|185:300,1,65,8|0,0:0|0:0,0:0:0
88,192,99496,2,0,B|168:192,2,65,8|0|0,0:0|0:0|0:0,0:0:0
52,128,99988,2,0,B|52:56,1,65,8|0,0:0|0:0,0:0:0
312,40,100480,5,2,0:0:0
312,40,100808,1,2,0:0:0
460,256,101136,6,0,B|512:200,2,65,8|8|0,0:0|0:0|0:0,0:0:0
392,276,101627,2,0,B|328:276,1,65,8|8,0:0|0:0,0:0:0
52,256,102119,2,0,B|0:200,2,65,8|8|0,0:0|0:0|0:0,0:0:0
120,276,102611,2,0,B|184:276,1,65,8|8,0:0|0:0,0:0:0
260,152,103103,5,8,0:0:0
260,152,103431,1,8,0:0:0
260,152,104086,5,4,0:0:0
