osu file format v10

[General]
AudioFilename: Synchro Shiyouyo(short ver).mp3
AudioLeadIn: 1000
PreviewTime: 67037
Countdown: 0
SampleSet: Soft
StackLeniency: 0.7
Mode: 0
LetterboxInBreaks: 0

[Editor]
DistanceSpacing: 1
BeatDivisor: 4
GridSize: 4

[Metadata]
Title:Synchro Shiyou yo (Short Ver.)
TitleUnicode:Synchro Shiyou yo (Short Ver.)
Artist:nao
ArtistUnicode:nao
Creator:kajiyatta
Version:Easy
Source:Chaos;Head Love Chu*Chu!
Tags:Nitroplus 5pb. opening Chiyomaru Shikura Kenji Arai psp visual novel -_t_e_n_n_y_a_- hibarirailwayz
BeatmapID:182507
BeatmapSetID:51055

[Difficulty]
HPDrainRate:2
CircleSize:3
OverallDifficulty:2
ApproachRate:3
SliderMultiplier:0.8
SliderTickRate:1

[Events]
//Background and Video events
0,0,"BG1.jpg"
Video,0,"op.avi"
//Break Periods
2,22646,26253
//Storyboard Layer 0 (Background)
//Storyboard Layer 1 (Fail)
//Storyboard Layer 2 (Pass)
//Storyboard Layer 3 (Foreground)
//Storyboard Sound Samples
//Background Colour Transformations
3,100,163,162,255

[TimingPoints]
1464,327.868852459016,4,2,1,90,1,0
1791,-100,4,2,0,90,0,0
2119,-100,4,2,1,90,0,0
2775,-100,4,2,0,90,0,0
3431,-100,4,1,0,50,0,0
4086,-100,4,2,1,90,0,0
4414,-100,4,2,0,90,0,0
4732,-100,4,2,1,90,0,0
5398,-100,4,2,0,90,0,0
6054,-100,4,1,0,50,0,0
6709,-100,4,2,1,90,0,0
7037,-100,4,2,0,90,0,0
7365,-100,4,2,1,90,0,0
8021,-100,4,2,0,90,0,0
8677,-100,4,2,1,90,0,0
9004,-100,4,2,0,90,0,0
11300,-100,4,2,0,70,0,0
11463,-100,4,2,0,90,0,0
12119,-100,4,1,1,60,0,0
22447,-100,4,2,2,90,0,0
29168,-100,4,2,0,90,0,0
29332,-100,4,2,2,90,0,0
31791,-100,4,2,0,90,0,0
31955,-100,4,2,2,90,0,0
32939,-100,4,2,1,90,0,0
34742,-100,4,2,0,90,0,0
35234,-100,4,2,1,80,0,0
43431,-100,4,2,1,90,0,0
46054,-100,4,2,0,80,0,0
48677,-100,4,2,1,80,0,0
50644,-100,4,2,0,80,0,0
50972,-100,4,2,0,70,0,0
51300,-100,4,2,1,80,0,0
61791,-100,4,2,1,90,0,0
67037,-100,4,2,1,90,0,1
68349,-100,4,2,0,90,0,1
72939,-100,4,2,1,90,0,1
73595,-100,4,2,0,90,0,1
75234,-100,4,2,1,90,0,1
75398,-100,4,2,0,90,0,1
76545,-100,4,2,1,90,0,1
76709,-100,4,2,0,90,0,1
78841,-100,4,2,1,90,0,1
79824,-100,4,2,0,90,0,1
80152,-100,4,2,1,90,0,1
83596,-100,4,2,0,90,0,1
86709,-100,4,2,0,70,0,1
87037,-100,4,2,0,60,0,1
87365,-100,4,2,0,50,0,1
87697,-100,4,2,0,40,0,1
87857,-100,4,2,0,90,0,0
88021,-100,4,1,1,60,0,0
98513,-100,4,2,1,90,0,0
99332,-100,4,2,0,90,0,0
99496,-100,4,2,1,90,0,0
100480,-100,4,1,0,50,0,0
101136,-100,4,2,1,90,0,0
101955,-100,4,2,0,90,0,0
102119,-100,4,2,1,90,0,0
104086,-100,4,2,0,90,0,0

[Colours]
Combo1 : 255,128,0
Combo2 : 30,230,19
Combo3 : 102,102,255
Combo4 : 236,0,0

[HitObjects]
152,232,1464,2,0,B|192:304|192:304|268:304,1,160,8|0,0:0|0:0,0:0:0
324,248,2447,2,0,B|284:176|284:176|208:176,1,160,8|0,0:0|0:0,0:0:0
132,152,3431,2,0,B|117:110|149:78,1,80,2|2,0:0|0:0,0:0:0
228,60,4086,6,0,B|300:20|300:20|368:60,1,160,8|0,0:0|0:0,0:0:0
368,140,5070,2,0,B|296:180|296:180|228:140,1,160,8|0,0:0|0:0,0:0:0
160,100,6054,2,0,B|120:100|85:123,1,80,2|2,0:0|0:0,0:0:0
44,192,6709,6,0,B|44:280|128:320,1,160,8|0,0:0|0:0,0:0:0
204,320,7693,2,0,B|284:280|284:192,1,160,8|0,0:0|0:0,0:0:0
364,192,8677,1,8,0:0:0
324,80,9168,6,0,B|268:40|184:40|136:80,1,200,4|8,0:0|0:0,0:0:0
136,200,10480,2,0,B|192:240|268:240|328:200,1,200,4|8,0:0|0:0,0:0:0
444,200,11791,1,4,0:0:0
256,268,12611,6,0,B|180:316|104:268,1,160,0|0,0:0|0:0,0:0:0
64,200,13595,2,0,B|28:128,1,80,8|0,0:0|0:0,0:0:0
100,92,14250,2,0,B|144:24,1,80,8|2,0:0|0:0,0:0:0
256,140,15234,5,2,0:0:0
380,240,15890,1,2,0:0:0
256,340,16545,2,0,B|176:340,1,80,2|8,0:0|0:0,0:0:0
96,340,17201,1,4,0:0:0
32,192,17857,6,0,B|108:144|184:192,1,160,0|0,0:0|0:0,0:0:0
260,216,18841,2,0,B|308:284,1,80,8|0,0:0|0:0,0:0:0
388,284,19496,2,0,B|434:218,1,80,8|2,0:0|0:0,0:0:0
364,76,20480,6,0,B|328:52|288:76,1,80,2|8,0:0|0:0,0:0:0
260,152,21136,2,0,B|224:176|184:152,1,80,2|8,0:0|0:0,0:0:0
156,76,21791,2,0,B|120:52|80:76,2,80,2|8|4,0:0|0:0|0:0,0:0:0
56,192,27693,6,0,B|144:192|188:112,1,160,4|0,0:0|0:0,0:0:0
304,112,28841,2,0,B|424:112,1,120,4|8,0:0|0:0,0:0:0
424,192,29660,2,0,B|464:212|484:244,1,80,0|8,0:0|0:0,0:0:0
420,288,30316,6,0,B|344:336|268:288,1,160,4|0,0:0|0:0,0:0:0
164,232,31463,2,0,B|112:124,1,120,4|8,0:0|0:0,0:0:0
184,88,32283,2,0,B|268:88,1,80,0|8,0:0|0:0,0:0:0
344,88,32939,5,8,0:0:0
416,124,33267,1,8,0:0:0
416,244,33759,2,0,B|416:324,1,80,2|2,0:0|0:0,0:0:0
256,324,34742,6,0,B|136:324,1,120,2|8,0:0|0:0,0:0:0
112,248,35562,6,0,B|64:176|64:96,2,160,4|0|0,0:0|0:0|0:0,0:0:0
256,320,37529,1,0,0:0:0
336,324,37857,1,2,0:0:0
300,252,38185,6,0,B|356:188|444:188,1,160,0|0,0:0|0:0,0:0:0
348,112,39332,2,0,B|287:53|199:61,1,160,0|0,0:0|0:0,0:0:0
128,96,40316,2,0,B|128:152,1,40,0|2,0:0|0:0,0:0:0
200,176,40808,6,0,B|184:216|200:256,1,80,4|2,0:0|0:0,0:0:0
264,304,41463,2,0,B|304:320|344:304,1,80,0|2,0:0|0:0,0:0:0
416,264,42119,2,0,B|472:208|472:112,1,160,0|0,0:0|0:0,0:0:0
400,72,43103,1,4,0:0:0
328,32,43431,6,0,B|244:32|180:84,1,160,4|4,0:0|0:0,0:0:0
64,120,44578,2,0,B|75:159|116:176,1,80,2|2,0:0|0:0,0:0:0
236,172,45398,1,2,0:0:0
316,172,45726,1,2,0:0:0
276,240,46054,6,0,B|212:296|128:296,1,160,4|2,0:0|0:0,0:0:0
124,140,47365,2,0,B|188:84|272:84,1,160,2|2,0:0|0:0,0:0:0
432,84,48677,6,0,B|488:156|432:236,2,160,0|0|0,0:0|0:0|0:0,0:0:0
352,84,50316,2,0,B|296:156|352:236,1,160,2|4,0:0|0:0,0:0:0
392,300,51300,6,0,B|319:360|248:300,1,160,0|0,0:0|0:0,0:0:0
168,300,52283,2,0,B|88:300,1,80,2|0,0:0|0:0,0:0:0
48,232,52939,2,0,B|2:152,2,80,2|0|2,0:0|0:0|0:0,0:0:0
256,192,53923,12,0,55890,0:0:0
364,192,56545,6,0,B|416:251,2,80,4|2|0,0:0|0:0|0:0,0:0:0
284,192,57529,1,2,0:0:0
204,192,57857,2,0,B|151:132,2,80,0|2|0,0:0|0:0|0:0,0:0:0
128,332,59168,6,0,B|204:380|280:332,1,160,0|0,0:0|0:0,0:0:0
356,312,60152,1,2,0:0:0
432,292,60480,2,0,B|480:216|432:140,1,160,0|0,0:0|0:0,0:0:0
356,120,61463,1,2,0:0:0
280,100,61791,6,0,B|204:68|124:100,2,160,4|0|0,0:0|0:0|0:0,0:0:0
280,180,63431,2,0,B|228:184|210:225,1,80,2|0,0:0|0:0,0:0:0
284,260,64086,1,2,0:0:0
352,216,64414,6,0,B|432:244|508:216,2,160,4|4|4,0:0|0:0|0:0,0:0:0
280,180,66054,5,2,0:0:0
208,144,66382,1,2,0:0:0
136,108,66709,1,2,0:0:0
64,72,67037,6,0,B|16:148|64:224,1,160,4|0,0:0|0:0,0:0:0
144,236,68021,2,0,B|200:260|260:236,1,120,2|2,0:0|0:0,0:0:0
268,156,68841,2,0,B|324:132|388:156,1,120,2|2,0:0|0:0,0:0:0
388,236,69660,6,0,B|460:292,2,80,4|2|0,0:0|0:0|0:0,0:0:0
308,236,70644,2,0,B|252:236,1,40,2|0,0:0|0:0,0:0:0
188,236,71136,2,0,B|116:292,1,80,2|2,0:0|0:0,0:0:0
312,328,72283,6,0,B|397:305,1,80,4|2,0:0|0:0,0:0:0
448,256,72939,2,0,B|481:132,2,120,0|0|2,0:0|0:0|0:0,0:0:0
376,232,74250,2,0,B|336:208|336:160,1,80,0|2,0:0|0:0,0:0:0
256,168,74906,6,0,B|232:88|160:88,2,120,4|4|2,0:0|0:0|0:0,0:0:0
256,248,76218,2,0,B|280:328|352:328,2,120,4|4|2,0:0|0:0|0:0,0:0:0
192,200,77529,6,0,B|144:168|104:168,1,80,4|2,0:0|0:0,0:0:0
64,224,78185,1,0,0:0:0
112,288,78513,1,2,0:0:0
192,288,78841,2,0,B|248:256|320:256,1,120,0|0,0:0|0:0,0:0:0
424,240,79824,1,12,0:0:0
452,164,80152,6,0,B|424:88,1,80,0|2,0:0|0:0,0:0:0
344,80,80808,2,0,B|264:80,1,80,0|2,0:0|0:0,0:0:0
184,80,81463,2,0,B|128:144|128:228,2,160,0|0|4,0:0|0:0|0:0,0:0:0
304,80,83267,6,0,B|348:132|348:188,1,120,2|2,0:0|0:0,0:0:0
384,260,84086,2,0,B|348:280|306:258,1,80,4|2,0:0|0:0,0:0:0
268,188,84742,2,0,B|228:168|188:188,1,80,0|2,0:0|0:0,0:0:0
256,192,85398,12,4,87857,0:0:0
40,160,88677,6,0,B|76:120|144:120|184:160,1,160,0|0,0:0|0:0,0:0:0
204,236,89660,1,8,0:0:0
224,312,89988,2,0,B|264:328|304:312,1,80,0|8,0:0|0:0,0:0:0
384,312,90644,6,0,B|448:248|448:168,1,160,2|2,0:0|0:0,0:0:0
368,168,91627,1,8,0:0:0
288,168,91955,2,0,B|288:89|224:24,1,160,2|2,0:0|0:0,0:0:0
152,60,92939,1,8,0:0:0
92,112,93267,5,0,0:0:0
92,192,93595,2,0,B|64:228|16:226,2,80,8|0|8,0:0|0:0|0:0,0:0:0
172,192,94578,2,0,B|200:228|248:226,1,80,0|8,0:0|0:0,0:0:0
241,145,95234,2,0,B|277:117|275:71,1,80,0|8,0:0|0:0,0:0:0
192,80,95890,6,0,B|112:40|112:40|32:40,2,160,2|2|2,0:0|0:0|0:0,0:0:0
256,128,97529,1,8,0:0:0
320,80,97857,2,0,B|408:80,2,80,2|2|8,0:0|0:0|0:0,0:0:0
360,192,99004,6,0,B|360:252|304:296,1,120,8|8,0:0|0:0,0:0:0
184,292,99988,1,8,0:0:0
116,192,100480,2,0,B|36:192,2,80,2|2|8,0:0|0:0|0:0,0:0:0
236,196,101627,6,0,B|236:136|292:92,1,120,8|8,0:0|0:0,0:0:0
412,92,102611,1,8,0:0:0
412,212,103103,2,0,B|412:296,1,80,8|8,0:0|0:0,0:0:0
256,336,104086,5,4,0:0:0
