osu file format v12

[General]
AudioFilename: nao - SLG Datte Hoshii Mon! (Short Ver.).mp3
AudioLeadIn: 0
PreviewTime: 57982
Countdown: 0
SampleSet: None
StackLeniency: 0.7
Mode: 0
LetterboxInBreaks: 0

[Editor]
Bookmarks: 5949,17075,29791,42506,48843,58400,65929,71115,73579,87009,94539,107671
DistanceSpacing: 0.4
BeatDivisor: 4
GridSize: 4

[Metadata]
Title:SLG Datte Hoshii Mon! (Short Ver.)
TitleUnicode:SLGだって欲しいもん!(Short Ver.)
Artist:nao
ArtistUnicode:nao
Creator:Nyar
Version:Nya AR9
Source:LOあんぐる!!
Tags:Lo-angle!
BeatmapID:271380
BeatmapSetID:102810

[Difficulty]
HPDrainRate:8
CircleSize:4
OverallDifficulty:7
ApproachRate:9
SliderMultiplier:2.08
SliderTickRate:1

[Events]
//Background and Video events
0,0,"bg.jpg",0,0
Video,0,"video.avi"
//Break Periods
//Storyboard Layer 0 (Background)
//Storyboard Layer 1 (Fail)
//Storyboard Layer 2 (Pass)
//Storyboard Layer 3 (Foreground)
//Storyboard Sound Samples
//Background Colour Transformations
3,100,163,162,255

[TimingPoints]
5930,397.350993377483,4,1,1,80,1,0

[HitObjects]
256,192,14671,12,4,16459,3:0:0:0:
256,192,16658,5,4,3:0:0:0:
30,167,17055,6,0,P|109:160|184:148,1,156,4|0,1:0|0:0,0:0:0:0:
235,95,17453,1,8,0:3:0:0:
117,53,17651,1,0,0:0:0:0:
122,240,17850,2,0,P|177:288|249:262,1,156
300,212,18247,2,0,P|302:156|299:108,1,104,8|0,0:3|0:0,0:0:0:0:
227,32,18645,5,0,0:0:0:0:
161,184,18843,1,2,2:0:0:0:
9,113,19042,2,0,P|62:102|113:97,1,104,0|2,0:0|2:0,0:0:0:0:
0,258,19439,1,0,0:0:0:0:
88,312,19638,2,0,L|85:352,3,34.6666666666667,2|0|0|0,2:0|2:0|2:0|0:0,0:0:0:0:
190,292,20035,1,2,2:0:0:0:
403,327,20234,6,0,P|329:364|261:345,1,156,4|0,1:0|0:0,0:0:0:0:
206,298,20631,2,0,P|202:249|207:194,1,104,8|0,0:3|0:0,0:0:0:0:
399,171,21029,2,0,P|325:193|273:144,1,156
265,71,21426,1,8,0:3:0:0:
371,6,21625,1,0,0:0:0:0:
399,171,21824,5,0,0:0:0:0:
497,138,22022,1,2,3:0:0:0:
454,43,22221,1,0,0:0:0:0:
359,1,22420,1,2,3:0:0:0:
259,27,22618,1,0,0:0:0:0:
196,110,22817,2,0,L|140:102,3,34.6666666666667,2|0|0|0,3:0|3:0|3:0|1:0,0:0:0:0:
217,211,23214,1,2,3:0:0:0:
70,274,23413,6,0,P|122:326|194:302,1,156,4|0,1:0|0:0,0:0:0:0:
233,242,23810,1,8,0:3:0:0:
218,117,24009,1,0,0:0:0:0:
436,138,24208,2,0,P|363:119|300:161,1,156
273,228,24605,2,0,P|279:282|293:329,1,104,8|0,0:3|0:0,0:0:0:0:
381,384,25002,5,0,0:0:0:0:
459,315,25201,1,2,2:0:0:0:
293,225,25400,1,0,0:0:0:0:
293,329,25598,1,2,2:0:0:0:
442,191,25797,1,0,0:0:0:0:
352,139,25996,2,0,L|353:99,3,34.6666666666667,2|0|0|0,2:0|2:0|2:0|0:0,0:0:0:0:
268,200,26393,1,2,2:0:0:0:
33,175,26592,6,0,L|189:171,1,156,4|0,1:0|0:0,0:0:0:0:
261,170,26989,2,0,P|284:125|269:77,1,104,8|0,0:3|0:0,0:0:0:0:
303,241,27386,2,0,P|378:251|438:205,1,156,4|0,1:0|0:0,0:0:0:0:
462,136,27784,1,8,0:3:0:0:
374,48,27982,1,0,0:0:0:0:
257,181,28181,5,4,2:0:0:0:
261,264,28579,1,4,2:0:0:0:
265,348,28976,1,4,2:0:0:0:
426,307,29373,5,2,2:0:0:0:
183,330,29771,6,0,P|133:274|156:203,1,156,4|0,1:0|0:0,0:0:0:0:
209,155,30168,2,8,P|260:147|312:145,1,104,8|0,0:3|0:0,3:0:0:0:
389,230,30565,1,0,0:0:0:0:
443,45,30764,2,0,P|517:107|475:193,1,208,0|0,0:0|0:0,0:0:0:0:
307,276,31360,6,0,P|304:198|309:120,1,156,0|0,0:0|0:0,0:0:0:0:
323,49,31757,1,8,0:3:0:0:
415,95,31956,1,0,0:0:0:0:
218,140,32155,2,0,P|211:84|207:36,1,104
207,36,32751,5,0,0:0:0:0:
138,223,32949,2,0,P|100:158|132:91,1,156,4|0,1:0|0:0,0:0:0:0:
193,129,33347,1,8,0:3:0:0:
280,56,33545,1,0,0:0:0:0:
347,271,33744,6,0,P|396:216|378:142,1,156,4|0,1:0|0:0,0:0:0:0:
311,113,34141,2,0,P|258:115|201:124,1,104,8|0,0:3|0:0,0:0:0:0:
184,341,34539,6,0,P|134:283|140:207,1,156,4|0,1:0|0:0,0:0:0:0:
196,161,34936,1,8,0:3:0:0:
295,236,35135,1,0,0:0:0:0:
473,174,35333,2,0,P|422:176|370:181,1,104,4|8,1:0|0:2,0:0:0:0:
369,181,35631,1,0,0:0:0:0:
369,181,35731,1,8,0:2:0:0:
298,319,35929,1,0,0:0:0:0:
105,283,36128,6,0,P|179:305|237:261,1,156,4|0,1:0|0:0,0:0:0:0:
264,192,36526,2,0,P|263:139|255:89,1,104,8|0,0:3|0:0,0:0:0:0:
359,20,36923,1,0,0:0:0:0:
424,212,37122,2,0,P|505:158|474:67,1,208
260,187,37718,6,0,P|219:126|237:51,1,156,0|0,0:0|0:0,0:0:0:0:
307,35,38115,1,8,0:3:0:0:
142,145,38314,1,0,0:0:0:0:
259,291,38512,2,0,P|262:241|260:187,1,104
260,187,39108,5,0,0:0:0:0:
466,160,39307,2,0,P|389:178|328:139,1,156,4|0,1:0|0:0,1:0:0:0:
292,75,39704,2,0,P|241:75|188:81,1,104,8|0,0:3|0:0,0:0:0:0:
70,227,40102,6,0,P|135:266|209:249,1,156,4|0,1:0|0:0,0:0:0:0:
255,192,40499,2,0,P|306:190|358:194,1,104,8|0,0:3|0:0,0:0:0:0:
433,355,40896,5,4,2:0:0:0:
349,359,41294,1,4,2:0:0:0:
265,363,41691,1,4,2:0:0:0:
154,238,42088,5,2,2:0:0:0:
314,151,42287,5,2,0:3:0:0:
314,151,42386,1,2,0:3:0:0:
314,151,42486,2,0,P|318:98|317:47,1,104,4|2,1:0|0:3,0:0:0:0:
224,204,42883,1,8,0:3:0:0:
119,156,43082,1,2,0:3:0:0:
50,330,43280,2,0,P|44:279|43:227,1,104,0|2,0:0|0:3,0:0:0:0:
134,372,43678,1,8,0:3:0:0:
336,329,43877,5,2,0:3:0:0:
336,329,43976,1,2,0:3:0:0:
336,329,44075,2,0,P|288:335|233:339,1,104,0|2,0:0|0:3,0:0:0:0:
185,245,44473,1,8,0:3:0:0:
359,186,44671,1,2,0:3:0:0:
216,51,44870,2,0,P|212:104|211:155,1,104,0|2,0:0|0:3,0:0:0:0:
326,17,45267,1,8,0:3:0:0:
382,207,45466,5,2,0:3:0:0:
382,207,45565,1,2,0:3:0:0:
382,208,45665,2,0,P|463:155|429:65,1,208,4|8,1:0|0:3,0:0:0:0:
321,23,46261,1,2,0:3:0:0:
230,122,46459,1,0,0:0:0:0:
52,69,46658,2,0,P|108:64|156:63,1,104,0|8,0:0|0:3,0:0:0:0:
16,178,47055,1,2,0:3:0:0:
204,247,47254,2,0,P|110:225|54:307,1,208,0|8,0:0|0:3,0:0:0:0:
144,377,47850,1,2,0:3:0:0:
244,200,48049,2,0,P|240:251|238:303,1,104,0|2,0:0|0:3,0:0:0:0:
452,355,48446,5,2,0:2:0:0:
423,364,48545,1,0,0:0:0:0:
394,370,48645,1,2,0:3:0:0:
362,373,48744,1,2,0:3:0:0:
334,369,48843,2,0,P|326:318|324:266,1,104,4|2,0:0|0:3,0:0:0:0:
332,77,49241,1,8,0:3:0:0:
233,194,49439,1,2,0:3:0:0:
427,157,49638,2,0,P|425:210|419:260,1,104,0|2,0:0|0:3,0:0:0:0:
320,320,50035,1,8,0:3:0:0:
219,292,50234,5,2,0:3:0:0:
219,292,50333,1,2,0:3:0:0:
219,291,50433,2,0,P|210:242|205:188,1,104,0|2,0:0|0:3,0:0:0:0:
287,93,50830,1,8,0:3:0:0:
205,188,51029,1,2,0:3:0:0:
121,27,51228,2,0,P|111:75|105:130,1,104,0|2,0:0|0:3,0:0:0:0:
95,234,51625,1,8,0:3:0:0:
250,129,51824,5,2,0:3:0:0:
250,129,51923,1,2,0:3:0:0:
250,129,52022,2,0,P|220:204|262:258,1,156,4|2,0:0|0:3,0:0:0:0:
334,269,52420,2,0,P|385:266|437:257,1,104,8|2,0:3|0:3,0:0:0:0:
508,181,52817,1,4,1:0:0:0:
394,85,53016,1,2,0:3:0:0:
424,87,53115,1,0,0:0:0:0:
455,90,53214,1,8,0:3:0:0:
315,195,53413,1,2,0:3:0:0:
239,3,53612,6,0,P|234:81|228:158,1,156,4|2,0:0|0:3,0:0:0:0:
185,217,54009,2,0,P|132:227|90:203,1,104,8|2,0:3|0:3,0:0:0:0:
59,103,54406,1,4,1:0:0:0:
188,21,54605,1,2,0:3:0:0:
157,23,54704,1,0,0:0:0:0:
127,24,54804,1,8,0:3:0:0:
254,126,55002,1,2,0:3:0:0:
155,247,55201,1,4,0:0:0:0:
154,236,55300,1,0,0:0:0:0:
153,225,55400,1,2,0:3:0:0:
153,214,55499,1,0,0:0:0:0:
152,203,55598,1,8,0:3:0:0:
152,192,55698,1,0,0:0:0:0:
151,181,55797,1,2,0:3:0:0:
150,170,55896,1,2,0:3:0:0:
150,159,55996,5,4,0:0:0:0:
100,174,56095,1,0,0:0:0:0:
71,216,56194,1,2,0:3:0:0:
66,268,56294,5,0,0:0:0:0:
92,312,56393,1,8,0:3:0:0:
138,335,56492,1,0,0:0:0:0:
190,331,56592,5,2,0:3:0:0:
230,298,56691,1,2,0:3:0:0:
245,248,56790,1,4,2:0:0:0:
240,164,57188,1,4,2:0:0:0:
236,80,57585,1,4,2:0:0:0:
382,1,57982,5,2,2:0:0:0:
154,45,58181,5,2,0:3:0:0:
154,45,58280,1,2,0:3:0:0:
154,45,58380,2,0,P|155:99|159:148,1,104,4|2,1:0|0:3,0:0:0:0:
248,0,58777,1,8,0:3:0:0:
324,124,58976,1,2,0:3:0:0:
493,57,59175,2,0,P|441:59|390:65,1,104,0|2,0:0|0:3,0:0:0:0:
329,228,59572,1,8,0:3:0:0:
143,175,59771,5,2,0:3:0:0:
143,175,59870,1,2,0:3:0:0:
143,175,59969,2,4,P|200:176|247:181,1,104,0|2,0:0|0:3,0:0:0:0:
339,353,60367,1,8,0:3:0:0:
241,296,60565,1,2,0:3:0:0:
423,275,60764,2,0,P|413:221|403:172,1,104,0|2,0:0|0:3,0:0:0:0:
337,305,61161,1,8,0:3:0:0:
251,114,61360,5,2,0:3:0:0:
251,114,61459,1,2,0:3:0:0:
251,114,61559,2,0,P|294:204|220:258,1,208,4|8,1:0|0:3,0:0:0:0:
139,191,62155,1,2,0:3:0:0:
57,348,62353,2,0,P|51:295|50:245,1,104,0|0,0:0|0:0,0:0:0:0:
47,140,62751,1,8,0:3:0:0:
164,258,62949,6,0,P|123:170|189:96,1,208,2|0,0:3|0:0,0:0:0:0:
392,242,63545,2,0,L|383:139,1,104,8|2,0:3|0:3,0:0:0:0:
220,314,63943,2,0,P|272:319|323:320,1,104,0|2,0:0|0:3,0:0:0:0:
155,252,64340,5,2,2:0:0:0:
144,253,64439,1,0,0:0:0:0:
133,255,64539,1,2,0:3:0:0:
122,256,64638,1,2,0:3:0:0:
111,258,64737,2,0,P|112:204|117:154,1,104,4|2,1:0|0:3,0:0:0:0:
132,50,65135,1,8,0:3:0:0:
27,125,65333,1,2,0:3:0:0:
224,116,65532,2,0,P|229:167|233:219,1,104,0|2,0:0|0:3,0:0:0:0:
327,175,65929,1,8,0:3:0:0:
337,278,66128,1,2,0:3:0:0:
415,44,66327,6,0,P|477:113|427:202,1,208,0|8,0:0|0:3,0:0:0:0:
319,84,66923,1,2,0:3:0:0:
220,179,67122,2,0,L|215:76,1,104
115,248,67519,1,8,0:3:0:0:
49,24,67718,5,2,0:3:0:0:
49,24,67817,1,2,0:3:0:0:
49,24,67916,2,0,P|38:75|32:126,1,104,4|2,1:0|0:3,0:0:0:0:
230,78,68314,1,8,0:3:0:0:
128,84,68512,1,2,0:3:0:0:
188,275,68711,2,0,P|191:223|185:172,1,104,0|2,0:0|0:3,0:0:0:0:
275,332,69108,1,8,0:3:0:0:
367,134,69307,6,0,P|426:202|370:289,1,208,2|2,0:3|0:3,0:0:0:0:
188,193,69903,2,0,L|292:190,1,104,8|2,0:3|0:3,0:0:0:0:
107,278,70300,2,0,P|99:223|96:175,1,104,0|2,0:0|0:3,0:3:0:0:
321,111,70698,5,2,2:0:0:0:
321,111,70797,1,0,0:0:0:0:
321,111,70896,1,2,0:3:0:0:
321,111,70996,1,2,0:3:0:0:
321,111,71095,2,0,P|320:166|316:214,1,104,4|2,1:0|0:3,0:3:0:0:
105,269,71492,1,8,0:3:0:0:
160,181,71691,1,2,0:3:0:0:
242,360,71890,2,0,P|236:308|232:257,1,104,0|2,0:0|0:3,0:0:0:0:
278,86,72287,1,8,0:3:0:0:
430,181,72486,5,2,0:3:0:0:
430,181,72585,1,2,0:3:0:0:
430,181,72684,2,0,P|379:180|327:177,1,104,0|2,0:0|0:3,0:0:0:0:
245,257,73082,1,8,0:3:0:0:
145,62,73280,1,2,0:3:0:0:
82,221,73479,2,0,P|67:171|59:121,1,104,0|2,0:0|0:3,0:0:0:0:
10,298,73877,1,8,0:3:0:0:
183,357,74075,5,2,0:3:0:0:
183,357,74175,1,2,0:3:0:0:
183,357,74274,2,0,P|248:284|203:198,1,208,4|8,1:0|0:3,0:0:0:0:
106,259,74870,1,2,0:3:0:0:
26,95,75069,2,0,P|21:147|20:199,1,104
157,57,75466,1,8,0:3:0:0:
106,259,75665,6,0,P|174:190|253:244,1,208,2|0,0:3|0:0,0:0:0:0:
416,121,76261,2,0,L|313:112,1,104,8|2,0:3|0:3,0:0:0:0:
65,163,76658,2,0,P|59:112|57:59,1,104,0|2,0:0|0:3,0:0:0:0:
168,212,77055,1,8,0:3:0:0:
243,125,77254,6,0,L|450:137,1,208,2|2,0:3|0:3,0:0:0:0:
481,247,77850,1,8,0:3:0:0:
360,317,78049,1,2,0:3:0:0:
255,270,78247,2,0,L|152:275,1,104,0|2,0:0|0:3,0:0:0:0:
74,345,78645,1,8,0:3:0:0:
28,127,78843,6,0,P|91:203|179:166,1,208,2|2,0:3|0:3,0:0:0:0:
308,16,79439,1,8,0:3:0:0:
153,77,79638,1,2,0:3:0:0:
292,243,79837,2,0,P|295:193|299:140,1,104,0|2,0:0|0:3,0:0:0:0:
199,310,80234,1,8,0:3:0:0:
29,252,80433,5,2,0:3:0:0:
29,252,80532,1,2,0:3:0:0:
29,252,80631,2,0,P|84:245|133:243,1,104,4|2,1:0|0:3,0:0:0:0:
294,339,81029,1,8,0:3:0:0:
203,180,81228,1,2,0:3:0:0:
400,230,81426,2,0,P|348:228|297:223,1,104,0|2,0:0|0:3,0:0:0:0:
451,126,81824,1,8,0:3:0:0:
266,63,82022,6,0,P|329:-7|425:25,1,208,2|2,0:3|0:3,0:0:0:0:
357,177,82618,1,8,0:3:0:0:
252,171,82817,1,2,0:3:0:0:
148,166,83016,1,0,0:0:0:0:
327,34,83214,1,2,0:3:0:0:
180,51,83413,1,8,0:3:0:0:
357,177,83612,1,2,0:3:0:0:
244,303,83810,5,4,1:0:0:0:
223,304,83910,1,0,0:0:0:0:
202,305,84009,2,0,L|205:254,1,52,2|0,0:3|0:0,0:0:0:0:
113,360,84208,5,8,0:3:0:0:
92,312,84307,1,0,0:0:0:0:
83,260,84406,1,2,0:3:0:0:
84,207,84506,1,2,0:3:0:0:
94,156,84605,2,0,L|145:149,1,52,4|0,1:0|0:0,0:0:0:0:
239,105,84804,5,2,0:3:0:0:
243,74,84903,1,0,0:0:0:0:
248,43,85002,2,0,L|184:44,1,52,8|0,0:3|0:0,0:0:0:0:
17,101,85201,5,2,0:3:0:0:
17,101,85300,1,2,0:3:0:0:
17,101,85400,1,4,2:0:0:0:
21,183,85797,1,4,2:0:0:0:
25,266,86194,1,4,2:0:0:0:
256,192,86592,5,2,2:0:0:0:
336,312,86989,6,0,P|346:234|354:158,1,156,4|0,1:0|0:0,0:0:0:0:
418,123,87386,2,0,P|433:170|446:223,1,104,8|0,0:3|0:0,0:0:0:0:
302,67,87784,2,0,P|235:108|164:88,1,156
101,123,88181,2,0,P|93:70|89:19,1,104,8|0,0:3|0:0,0:0:0:0:
31,201,88579,5,0,0:0:0:0:
188,279,88777,1,2,2:0:0:0:
64,319,88976,1,0,0:0:0:0:
181,159,89175,1,2,2:0:0:0:
272,357,89373,1,0,0:0:0:0:
389,313,89572,2,0,L|434:311,3,34.6666666666667,2|0|0|0,2:0|2:0|2:0|0:0,0:0:0:0:
356,170,89969,1,2,2:0:0:0:
189,53,90168,6,0,P|184:132|183:209,1,156,4|0,1:0|0:0,0:0:0:0:
180,281,90565,1,8,0:3:0:0:
89,160,90764,1,0,0:0:0:0:
300,101,90963,2,0,P|267:172|303:234,1,156
368,266,91360,2,0,P|419:268|471:261,1,104,8|0,0:3|0:0,0:0:0:0:
510,153,91757,5,0,0:0:0:0:
424,353,91956,1,2,0:3:0:0:
303,219,92155,1,0,0:0:0:0:
435,209,92353,1,2,0:3:0:0:
241,313,92552,1,0,0:0:0:0:
200,119,92751,2,0,L|165:121,3,34.6666666666667,2|0|0|0,0:3|0:3|0:3|0:0,0:0:0:0:
303,50,93148,1,2,0:3:0:0:
67,9,93347,6,0,P|144:2|223:0,1,156,4|0,1:0|1:0,0:0:0:0:
261,61,93744,2,0,L|151:56,1,104,8|0,0:3|0:0,0:0:0:0:
95,212,94141,2,0,P|154:170|227:194,1,156
258,260,94539,1,8,0:3:0:0:
83,336,94737,1,0,0:0:0:0:
176,384,94936,5,0,0:0:0:0:
370,350,95135,1,2,2:0:0:0:
193,292,95333,1,0,0:0:0:0:
193,197,95532,1,2,2:0:0:0:
382,145,95731,1,0,0:0:0:0:
256,4,95930,2,0,L|290:1,3,34.6666666666667,2|0|0|0,2:0|2:0|2:0|0:0,0:0:0:0:
147,115,96327,1,2,2:0:0:0:
323,206,96526,6,0,P|260:167|191:197,1,156,4|0,1:0|0:0,0:0:0:0:
164,350,96923,1,8,0:3:0:0:
353,323,97122,1,0,0:0:0:0:
195,194,97320,2,0,P|264:164|327:203,1,156,4|0,1:0|0:0,0:0:0:0:
340,370,97718,1,8,0:3:0:0:
154,297,97916,1,0,0:0:0:0:
337,220,98115,5,4,2:0:0:0:
419,224,98512,1,4,2:0:0:0:
502,228,98910,1,4,2:0:0:0:
256,267,99307,5,2,2:0:0:0:
256,350,99704,5,4,1:0:0:0:
256,192,99804,12,0,107651,0:0:0:0:
