osu file format v14

[General]
AudioFilename: nao - .mp3
AudioLeadIn: 0
PreviewTime: 64679
Countdown: 1
SampleSet: None
StackLeniency: 0.7
Mode: 0
LetterboxInBreaks: 1
WidescreenStoryboard: 1

[Editor]
Bookmarks: 5018,93314,158768,179564
DistanceSpacing: 0.8
BeatDivisor: 4
GridSize: 4
TimelineZoom: 1

[Metadata]
Title:Miracle!Portable*Mission
TitleUnicode:ミラクル!ぽーたぶる☆ミッション
Artist:nao
ArtistUnicode:nao
Creator:Rotte
Version:Timing and SB Design
Source:超次次元ゲイム ネプテューヌ Re;Birth1
Tags:Choujijigen Game Neptune
BeatmapID:754087
BeatmapSetID:340972

[Difficulty]
HPDrainRate:7
CircleSize:4.5
OverallDifficulty:8
ApproachRate:9
SliderMultiplier:1.6
SliderTickRate:1

[Events]
//Background and Video events
0,0,"bg.jpg",0,0
//Break Periods
2,17152,21807
//Storyboard Layer 0 (Background)
//Storyboard Layer 1 (Fail)
//Storyboard Layer 2 (Pass)
//Storyboard Layer 3 (Foreground)
//Storyboard Sound Samples

[TimingPoints]
589,340.909090909091,4,2,0,100,1,0
5020,-100,4,2,0,100,0,0
6043,-133.333333333333,4,2,0,100,0,0
11327,-100,4,2,0,100,0,0
22407,-133.333333333333,4,2,0,100,0,0
66041,-90.9090909090909,4,2,0,100,0,1
87859,-100,4,2,0,100,0,0
93314,-125,4,2,0,100,0,0
98768,-100,4,2,0,100,0,0
115132,-100,4,2,0,100,0,0
126041,-125,4,2,0,100,0,0
131496,-111.111111111111,4,2,0,100,0,0
136950,-90.9090909090909,4,2,0,100,0,1
158768,-100,4,2,0,100,0,0
179564,-105.263157894737,4,2,0,100,0,0
180587,-133.333333333333,4,2,0,100,0,0
186041,-117.647058823529,4,2,0,100,0,0
191496,-100,4,2,0,100,0,1
202319,-100,4,2,0,100,0,0
202405,-90.9090909090909,4,2,0,100,0,1
213229,-90.9090909090909,4,2,0,100,0,0
213314,-90.9090909090909,4,2,0,100,0,1
224223,-90.9090909090909,4,2,0,100,0,0

[Colours]
Combo1 : 0,255,255
Combo2 : 255,128,255
Combo3 : 18,124,255
Combo4 : 255,128,192

[HitObjects]
164,240,5020,6,0,B|240:296|312:244|312:244|260:256|216:228,1,260
104,136,5702,2,0,L|96:160,4,20
212,28,6043,6,0,B|268:28|288:76|288:76|248:72|230:104|230:104|248:116,1,180.000006866455
352,168,6725,2,0,B|384:176|412:160,2,60.0000022888184
396,52,7194,2,0,P|468:52|512:116,1,150.000005722046
468,272,7748,2,0,B|456:320|423:346|423:346|456:340,1,120.000004577637
340,320,8259,1,0,0:0:0:0:
512,204,8429,1,0,0:0:0:0:
256,328,8770,6,0,P|212:324|180:304,1,60.0000022888184
88,320,9111,2,0,P|59:330|30:330,2,60.0000022888184
200,192,9623,1,0,0:0:0:0:
100,56,9793,1,0,0:0:0:0:
0,192,9964,2,0,P|48:232|104:224,1,120.000004577637
208,188,10475,2,0,L|280:188,1,60.0000022888184
328,60,10816,2,0,L|264:48,2,60.0000022888184
472,52,11327,5,0,0:0:0:0:
444,68,11412,1,0,0:0:0:0:
424,92,11498,2,0,P|412:140|420:176,1,80
480,304,11839,2,0,P|452:274|416:259,1,80,0|0,0:3|0:3,0:3:0:0:
272,248,12179,2,0,P|310:239|342:215,2,80,0|0|0,0:3|0:3|0:3,0:3:0:0:
133,217,12691,1,0,0:0:0:0:
104,226,12776,1,0,0:0:0:0:
75,240,12862,5,0,0:0:0:0:
107,58,13032,1,0,0:0:0:0:
248,177,13203,1,0,0:0:0:0:
211,76,13544,5,0,0:0:0:0:
178,258,13714,1,0,0:0:0:0:
38,139,13884,1,0,0:0:0:0:
36,172,13969,1,0,0:0:0:0:
32,204,14054,1,0,0:0:0:0:
28,236,14140,1,0,0:0:0:0:
24,268,14225,2,0,P|56:288|100:288,1,80
268,204,14566,2,0,L|280:116,1,80
456,28,14907,1,0,0:0:0:0:
484,48,14992,1,0,0:0:0:0:
500,76,15077,1,0,0:0:0:0:
508,108,15162,1,0,0:0:0:0:
504,140,15248,1,0,0:0:0:0:
492,168,15333,1,0,0:0:0:0:
468,188,15418,1,0,0:0:0:0:
344,248,15759,5,0,0:0:0:0:
224,220,15929,2,0,L|140:236,1,80
16,148,16270,1,0,0:0:0:0:
44,160,16355,1,0,0:0:0:0:
76,160,16440,1,0,0:0:0:0:
104,144,16526,1,0,0:0:0:0:
128,124,16611,2,0,P|140:104|144:76,1,40
196,40,16782,2,0,P|184:64|180:84,1,40
192,152,16952,1,0,0:0:0:0:
188,216,22407,6,0,P|244:224|304:200,1,120.000004577637
