osu file format v13

[General]
AudioFilename: 21.mp3
AudioLeadIn: 0
PreviewTime: 66491
Countdown: 0
SampleSet: Soft
StackLeniency: 0.7
Mode: 0
LetterboxInBreaks: 0
WidescreenStoryboard: 0

[Editor]
DistanceSpacing: 1
BeatDivisor: 4
GridSize: 4
TimelineZoom: 1

[Metadata]
Title:Miracle! Portable*Mission
TitleUnicode:ミラクル! ぽーたぶる☆ミッション
Artist:nao
ArtistUnicode:nao
Creator:kajiyatta
Version:Normal
Source:Choujijigen Game Neptune Re;Birth1
Tags:opening compile heart visual novel
BeatmapID:556270
BeatmapSetID:240734

[Difficulty]
HPDrainRate:4
CircleSize:3
OverallDifficulty:4
ApproachRate:5
SliderMultiplier:1
SliderTickRate:1

[Events]
//Background and Video events
0,0,"top2.jpg",0,0
Video,0,"21.avi"
//Break Periods
//Storyboard Layer 0 (Background)
//Storyboard Layer 1 (Fail)
//Storyboard Layer 2 (Pass)
//Storyboard Layer 3 (Foreground)
//Storyboard Sound Samples

[TimingPoints]
2062,340.909090909091,4,2,1,50,1,0
7516,-100,4,2,1,60,0,0
8368,-100,4,2,1,40,0,0
8709,-100,4,2,1,60,0,0
11096,-100,4,2,2,60,0,0
11437,-100,4,2,1,60,0,0
12289,-100,4,2,2,60,0,0
12630,-100,4,2,1,60,0,0
16380,-100,4,2,1,50,0,0
16891,-100,4,2,1,70,0,0
17402,-100,4,2,2,70,0,0
17914,-100,4,2,1,70,0,0
18425,-100,4,2,1,70,0,1
18510,-100,4,2,1,70,0,0
19959,-100,4,2,6,60,0,0
20130,-100,4,2,1,70,0,0
23198,-100,4,2,1,50,0,0
23880,-100,4,2,1,60,0,0
24221,-100,4,2,1,50,0,0
27459,-100,4,2,1,40,0,0
27971,-100,4,2,1,50,0,0
34789,-100,4,2,1,60,0,0
35812,-100,4,2,7,50,0,0
35982,-100,4,2,1,60,0,0
44505,-100,4,2,7,60,0,0
46721,-100,4,2,3,60,0,0
46891,-100,4,2,1,60,0,0
47914,-100,4,2,3,60,0,0
48425,-100,4,2,1,60,0,0
52005,-100,4,2,3,60,0,0
52346,-100,4,2,1,60,0,0
53368,-100,4,2,3,60,0,0
53880,-100,4,2,1,60,0,0
54221,-100,4,2,7,50,0,0
54562,-100,4,2,1,60,0,0
56607,-100,4,2,1,60,0,0
57630,-100,4,2,3,60,0,0
57800,-100,4,2,1,60,0,0
58823,-100,4,2,3,60,0,0
59164,-100,4,2,1,60,0,0
60357,-100,4,2,3,60,0,0
60527,-100,4,2,1,60,0,0
61721,-100,4,2,3,60,0,0
62062,-100,4,2,1,60,0,0
65812,-100,4,2,7,70,0,0
65982,-100,4,2,2,80,0,0
66834,-100,4,2,1,50,0,0
67516,-100,4,2,4,80,0,1
73312,-100,4,2,8,70,0,1
73652,-100,4,2,4,80,0,1
75187,-100,4,2,3,80,0,1
75527,-100,4,2,4,80,0,1
76039,-100,4,2,8,70,0,1
76380,-100,4,2,4,80,0,1
76806,-100,4,2,4,80,0,0
76891,-100,4,2,4,80,0,1
76976,-100,4,2,5,80,0,0
77743,-100,4,2,4,40,0,0
78084,-100,4,2,4,60,0,0
78425,-100,4,2,4,80,0,1
87289,-100,4,2,4,60,0,1
87715,-100,4,2,4,50,0,0
87800,-100,4,2,4,80,0,1
87885,-100,4,2,4,80,0,0
88141,-100,4,2,2,60,0,0
89164,-100,4,2,1,70,0,0
90527,-100,4,2,2,80,0,1
90613,-100,4,2,1,80,0,0

[Colours]
Combo1 : 45,255,244
Combo2 : 155,48,252
Combo3 : 185,185,255

[HitObjects]
256,192,2062,12,4,6152,0:0:0:0:
204,192,7516,5,4,0:0:0:0:
308,192,7857,1,0,0:0:0:0:
384,128,8198,2,0,L|424:92,2,50,0|8|8,0:0|0:0|0:0,0:0:0:0:
412,172,8709,2,0,B|460:240|412:312,1,150
324,356,9562,1,0,0:0:0:0:
224,356,9902,1,0,0:0:0:0:
132,312,10243,6,0,B|84:288|72:236,1,100,12|0,0:0|0:0,0:0:0:0:
44,140,10925,2,0,L|4:108,2,50,0|2|2,0:0|0:0|0:0,0:0:0:0:
92,128,11437,2,0,B|160:96|240:128,1,150,8|0,0:0|0:0,0:0:0:0:
292,212,12289,2,0,B|340:232|392:212,1,100,2|8,3:0|0:0,0:0:0:0:
444,128,12971,6,0,L|376:52,2,100,8|8|8,0:0|0:0|0:0,0:0:0:0:
496,212,13993,1,8,0:0:0:0:
444,296,14334,2,0,L|480:332,2,50,8|8|8,0:0|0:0|0:0,0:0:0:0:
344,296,15016,1,8,0:0:0:0:
292,212,15357,1,4,0:0:0:0:
344,128,15698,6,0,B|312:84|256:84,1,100,8|8,0:0|0:0,0:0:0:0:
176,140,16380,1,8,0:0:0:0:
76,140,16721,2,0,L|40:176,1,50,8|4,0:0|0:0,0:0:0:0:
24,272,17232,1,0,0:0:0:0:
24,272,17402,2,0,B|77:271|109:315,1,100,8|8,0:0|0:0,0:0:0:0:
196,272,18084,2,0,L|240:240,1,50,8|8,0:0|0:0,0:0:0:0:
280,216,18425,6,0,B|328:192|376:216,1,100,6|10,0:0|0:0,0:0:0:0:
460,272,19107,2,0,B|508:244|508:184,1,100,10|8,0:0|0:0,0:0:0:0:
476,152,19618,2,0,B|404:132|372:52,1,150,2|8,0:0|0:0,0:0:0:0:
272,32,20471,2,0,B|240:68|180:68,1,100,10|10,0:0|0:0,0:0:0:0:
88,32,21152,6,0,B|36:44|12:92,1,100,6|10,0:0|0:0,0:0:0:0:
80,168,21834,2,0,L|80:220,1,50,2|2,0:0|0:0,0:0:0:0:
128,308,22346,2,0,B|80:332|32:308,2,100,2|2|2,0:0|0:0|0:0,0:0:0:0:
168,280,23198,2,0,B|204:244|260:244,1,100,8|8,0:0|0:0,0:0:0:0:
348,288,23880,5,4,0:0:0:0:
440,244,24221,2,0,B|488:176|440:104,1,150
364,40,25073,2,0,B|284:40|232:104,1,150,8|0,0:0|0:0,0:0:0:0:
204,196,25925,2,0,B|152:188|132:132,1,100,0|8,0:0|0:0,0:0:0:0:
76,52,26607,6,0,B|28:80|28:136,1,100,8|0,0:0|0:0,0:0:0:0:
48,180,27118,2,0,B|84:216|84:272,1,100,0|10,0:0|0:0,0:0:0:0:
92,320,27630,2,0,L|140:340,1,50,10|10,0:0|0:0,0:0:0:0:
256,244,28312,2,0,L|256:144,2,100,0|0|0,0:0|0:0|1:0,0:0:0:0:
328,312,29334,6,0,B|364:344|424:344,1,100,4|8,0:0|0:0,0:0:0:0:
444,248,30016,2,0,B|408:216|348:216,1,100,8|8,0:0|0:0,0:0:0:0:
256,244,30698,2,0,L|156:244,1,100,8|8,0:0|0:0,0:0:0:0:
68,192,31380,2,0,B|28:156|40:100,1,100,8|8,0:0|0:0,0:0:0:0:
120,44,32062,6,0,B|136:20|188:0|240:20|256:44,2,150,8|8|0,0:0|0:0|1:0,0:0:0:0:
188,120,33425,2,0,B|188:172|236:208,1,100,10|10,0:0|0:0,0:0:0:0:
320,160,34107,2,0,B|368:136|416:160,1,100,10|10,0:0|0:0,0:0:0:0:
484,236,34789,5,4,0:0:0:0:
448,328,35130,1,8,0:0:0:0:
348,328,35471,2,0,B|296:264|216:264,1,150,8|8,0:0|0:0,0:0:0:0:
68,264,36493,2,0,B|20:232|20:180,1,100,8|8,0:0|0:0,0:0:0:0:
72,96,37175,1,8,0:0:0:0:
156,40,37516,6,0,B|204:16|252:40,1,100,8|8,0:0|0:0,0:0:0:0:
284,80,38027,2,0,B|320:148|408:148,1,150,0|8,0:0|0:0,0:0:0:0:
456,132,38709,2,0,B|520:184|492:268,1,150,8|8,0:0|0:0,0:0:0:0:
412,324,39562,1,8,0:0:0:0:
328,268,39902,1,8,0:0:0:0:
256,196,40243,6,0,B|224:156|168:156,1,100,4|8,0:0|0:0,0:0:0:0:
104,232,40925,2,0,B|48:232|16:192,1,100,8|8,0:0|0:0,0:0:0:0:
0,144,41437,2,0,B|0:64|88:32,1,150,8|8,0:0|0:0,0:0:0:0:
184,52,42289,2,0,B|216:96|272:96,1,100,8|8,0:0|0:0,0:0:0:0:
356,48,42971,5,10,0:0:0:0:
444,96,43312,1,10,0:0:0:0:
400,184,43652,2,0,B|348:208|348:264,1,100,10|8,0:0|0:0,0:0:0:0:
380,304,44164,2,0,B|344:372|256:372,1,150,4|8,0:0|0:0,0:0:0:0:
200,288,45016,1,8,0:0:0:0:
104,256,45357,1,8,0:0:0:0:
16,304,45698,6,0,B|-8:256|16:208,1,100,4|8,0:0|0:0,0:0:0:0:
104,156,46380,2,0,B|156:148|180:96,1,100,0|8,0:0|0:0,0:0:0:0:
216,64,46891,2,0,B|252:24|304:24,2,100,4|8|8,0:0|0:0|0:0,0:0:0:0:
300,120,47914,2,0,L|328:164,1,50,8|8,0:0|0:0,0:0:0:0:
380,248,48425,5,2,0:0:0:0:
328,332,48766,1,8,0:0:0:0:
228,332,49107,2,0,B|196:284|144:284,1,100,8|8,0:0|0:0,0:0:0:0:
44,292,49789,2,0,B|0:260|8:204,1,100,8|8,0:0|0:0,0:0:0:0:
100,164,50471,2,0,B|148:136|148:80,1,100,8|8,0:0|0:0,0:0:0:0:
236,32,51152,5,4,0:0:0:0:
324,80,51493,1,8,0:0:0:0:
424,80,51834,2,0,B|468:112|468:168,1,100,8|8,0:0|0:0,0:0:0:0:
432,204,52346,2,0,B|384:224|368:276,1,100,4|8,0:0|0:0,0:0:0:0:
304,352,53027,2,0,B|256:376|208:352,1,100,8|8,0:0|0:0,0:0:0:0:
168,320,53539,1,8,0:0:0:0:
88,260,53880,6,0,B|16:168|88:76,1,200,2|8,0:0|0:0,0:0:0:0:
176,32,54902,1,8,0:0:0:0:
256,96,55243,1,8,0:0:0:0:
336,32,55584,2,0,L|436:32,2,100,10|10|10,0:0|0:0|0:0,0:0:0:0:
256,96,56607,6,0,B|256:196,1,100,4|0,0:0|0:0,0:0:0:0:
204,284,57289,2,0,B|152:284|124:228,2,100,8|8|10,0:0|0:0|0:0,0:0:0:0:
304,284,58312,1,0,0:0:0:0:
392,236,58652,2,0,B|440:212|488:236,1,100,8|8,0:0|0:0,0:0:0:0:
488,336,59334,6,0,B|440:360|392:336,1,100,2|8,0:0|0:0,0:0:0:0:
304,284,60016,2,0,L|204:284,2,100,8|8|10,0:0|0:0|0:0,0:0:0:0:
392,236,61039,1,0,0:0:0:0:
444,152,61380,2,0,B|432:100|380:76,1,100,8|10,0:0|0:0,0:0:0:0:
296,124,62062,6,0,B|252:148|200:124,1,100,4|8,0:0|0:0,0:0:0:0:
128,56,62743,2,0,B|164:20|220:28,2,100,8|8|8,0:0|0:0|0:0,0:0:0:0:
52,124,63766,1,8,0:0:0:0:
88,216,64107,2,0,B|136:244|136:300,1,100,8|8,0:0|0:0,0:0:0:0:
220,352,64789,6,0,B|268:332|320:352,1,100,4|8,0:0|0:0,0:0:0:0:
404,304,65471,2,0,B|484:272|484:188,1,150,8|8,0:0|0:0,0:0:0:0:
388,76,66493,2,0,B|420:32|476:36,2,100,2|8|8,0:0|0:0|0:0,0:0:0:0:
300,128,67516,6,0,B|256:152|204:128,1,100,4|8,0:0|0:0,0:0:0:0:
116,76,68198,2,0,B|68:52|20:76,1,100,2|8,0:0|0:0,0:0:0:0:
68,164,68880,2,0,B|40:208|68:260,2,100,2|8|2,0:0|0:0|0:0,0:0:0:0:
116,76,69902,1,8,0:0:0:0:
204,24,70243,6,0,B|248:0|300:24,1,100,4|8,0:0|0:0,0:0:0:0:
388,76,70925,1,2,0:0:0:0:
452,152,71266,1,8,0:0:0:0:
388,232,71607,2,0,L|456:304,2,100,2|8|2,0:0|0:0|0:0,0:0:0:0:
288,232,72630,1,8,0:0:0:0:
228,152,72971,6,0,B|136:96|36:152,1,200,4|2,0:0|0:0,0:0:0:0:
0,244,73993,1,8,0:0:0:0:
36,336,74334,2,0,B|72:368|128:368,1,100,2|8,0:0|0:0,0:0:0:0:
220,324,75016,2,0,B|256:288|312:288,1,100,2|8,0:0|0:0,0:0:0:0:
396,336,75698,6,0,B|504:296|504:184,1,200,4|2,0:0|0:0,0:0:0:0:
432,112,76721,2,0,L|388:84,1,50,8|4,0:0|0:0,0:0:0:0:
344,64,77062,2,0,B|296:40|248:64,1,100,8|8,0:0|0:0,0:0:0:0:
160,112,77743,1,8,0:0:0:0:
96,192,78084,1,8,0:0:0:0:
160,268,78425,6,0,L|88:336,2,100,4|8|2,0:0|0:0|0:0,0:0:0:0:
256,236,79448,1,8,0:0:0:0:
352,268,79789,2,0,L|424:336,2,100,2|8|2,0:0|0:0|0:0,0:0:0:0:
256,236,80812,1,8,0:0:0:0:
208,148,81152,6,0,B|256:124|304:148,1,100,4|8,0:0|0:0,0:0:0:0:
396,192,81834,2,0,B|448:192|484:148,1,100,2|8,0:0|0:0,0:0:0:0:
428,64,82516,2,0,B|393:21|341:21,1,100,2|8,0:0|0:0,0:0:0:0:
256,84,83198,2,0,B|208:108|160:84,1,100,2|8,0:0|0:0,0:0:0:0:
72,40,83880,6,0,B|20:64|20:120,1,100,4|2,0:0|0:0,0:0:0:0:
108,168,84562,2,0,L|108:268,1,100,2|2,0:0|0:0,0:0:0:0:
56,352,85243,2,0,L|12:324,2,50,2|2|2,0:0|0:0|0:0,0:0:0:0:
160,352,85925,2,0,B|212:352|252:316,1,100,2|2,0:0|0:0,0:0:0:0:
332,256,86607,5,4,0:0:0:0:
412,316,86948,1,2,0:0:0:0:
492,256,87289,1,2,0:0:0:0:
492,156,87630,2,0,L|448:120,1,50,2|4,0:0|0:0,0:0:0:0:
372,68,88141,1,0,0:0:0:0:
372,68,88312,2,0,L|284:124,1,100,8|8,0:0|0:0,0:0:0:0:
200,168,88993,1,8,0:0:0:0:
200,168,89164,6,0,B|156:228|68:228,1,150,4|8,0:0|0:0,0:0:0:0:
20,140,90016,2,0,B|64:80|152:80,1,150,4|12,0:0|0:0,0:0:0:0:
