osu file format v13

[General]
AudioFilename: 21.mp3
AudioLeadIn: 0
PreviewTime: 66491
Countdown: 0
SampleSet: Soft
StackLeniency: 0.7
Mode: 0
LetterboxInBreaks: 0
WidescreenStoryboard: 0

[Editor]
DistanceSpacing: 1.3
BeatDivisor: 4
GridSize: 4
TimelineZoom: 1.8

[Metadata]
Title:Miracle! Portable*Mission
TitleUnicode:ミラクル! ぽーたぶる☆ミッション
Artist:nao
ArtistUnicode:nao
Creator:kajiyatta
Version:Insane
Source:Choujijigen Game Neptune Re;Birth1
Tags:opening compile heart visual novel
BeatmapID:556269
BeatmapSetID:240734

[Difficulty]
HPDrainRate:7
CircleSize:4
OverallDifficulty:7
ApproachRate:9
SliderMultiplier:1.8
SliderTickRate:2

[Events]
//Background and Video events
0,0,"top2.jpg",0,0
Video,0,"21.avi"
//Break Periods
//Storyboard Layer 0 (Background)
//Storyboard Layer 1 (Fail)
//Storyboard Layer 2 (Pass)
//Storyboard Layer 3 (Foreground)
//Storyboard Sound Samples

[TimingPoints]
2062,340.909090909091,4,2,1,50,1,0
6493,-133.333333333333,4,2,2,80,0,0
7175,-100,4,2,2,80,0,0
7516,-133.333333333333,4,2,1,60,0,0
8368,-133.333333333333,4,2,1,40,0,0
8709,-133.333333333333,4,2,1,60,0,0
11096,-133.333333333333,4,2,2,60,0,0
11437,-133.333333333333,4,2,1,60,0,0
16380,-133.333333333333,4,2,1,50,0,0
16891,-133.333333333333,4,2,1,70,0,0
17232,-200,4,2,2,70,0,0
17829,-200,4,2,1,50,0,0
18084,-200,4,2,2,50,0,0
18169,-200,4,2,1,50,0,0
18425,-100,4,2,1,70,0,1
18510,-100,4,2,1,70,0,0
20641,-100,4,2,3,70,0,0
20982,-100,4,2,1,70,0,0
23198,-100,4,2,1,50,0,0
23880,-133.333333333333,4,2,1,60,0,0
24221,-133.333333333333,4,2,1,50,0,0
27459,-133.333333333333,4,2,1,40,0,0
27971,-133.333333333333,4,2,1,50,0,0
34789,-100,4,2,1,60,0,0
46721,-100,4,2,3,60,0,0
46891,-100,4,2,1,60,0,0
47914,-100,4,2,3,60,0,0
48425,-100,4,2,1,60,0,0
52005,-100,4,2,3,60,0,0
52346,-100,4,2,1,60,0,0
53368,-100,4,2,3,60,0,0
53880,-100,4,2,1,60,0,0
56607,-133.333333333333,4,2,1,60,0,0
57630,-133.333333333333,4,2,3,60,0,0
57800,-133.333333333333,4,2,1,60,0,0
58823,-133.333333333333,4,2,3,60,0,0
59164,-133.333333333333,4,2,1,60,0,0
60357,-133.333333333333,4,2,3,60,0,0
60527,-133.333333333333,4,2,1,60,0,0
61550,-133.333333333333,4,2,3,60,0,0
61721,-80,4,2,3,60,0,0
62062,-100,4,2,1,60,0,0
65812,-100,4,2,1,80,0,0
65982,-100,4,2,2,80,0,0
66493,-200,4,2,1,50,0,0
66834,-100,4,2,1,50,0,0
67516,-100,4,2,4,80,0,1
69732,-100,4,2,3,80,0,1
69902,-100,4,2,4,80,0,1
71437,-100,4,2,1,80,0,1
71607,-100,4,2,4,80,0,1
72459,-100,4,2,3,80,0,1
72630,-100,4,2,4,80,0,1
75187,-100,4,2,3,80,0,1
75527,-100,4,2,4,80,0,1
76806,-100,4,2,4,80,0,0
76891,-100,4,2,4,80,0,1
76976,-100,4,2,5,80,0,0
77743,-100,4,2,4,40,0,0
78084,-100,4,2,4,60,0,0
78425,-100,4,2,4,80,0,1
81323,-100,4,2,4,60,0,1
81493,-100,4,2,4,80,0,1
81664,-100,4,2,4,60,0,1
81834,-100,4,2,4,80,0,1
81919,-100,4,2,4,60,0,1
82175,-100,4,2,4,80,0,1
82346,-100,4,2,1,80,0,1
82516,-100,4,2,4,80,0,1
83368,-100,4,2,3,80,0,1
83539,-100,4,2,4,80,0,1
87289,-100,4,2,4,60,0,1
87715,-100,4,2,4,50,0,0
87800,-100,4,2,4,80,0,1
87885,-100,4,2,4,80,0,0
88141,-200,4,2,2,60,0,0
88652,-66.6666666666667,4,2,2,60,0,0
89164,-100,4,2,1,70,0,0
90527,-100,4,2,2,80,0,1
90613,-100,4,2,1,80,0,0

[Colours]
Combo1 : 45,255,244
Combo2 : 155,48,252
Combo3 : 185,185,255

[HitObjects]
256,192,2062,12,4,6152,2:0:0:0:
152,144,6493,6,0,B|128:192|152:244,1,101.250003862381,8|0,0:0|0:0,0:0:0:0:
224,240,6834,2,0,B|248:192|224:140,1,101.250003862381,8|0,0:0|0:0,0:0:0:0:
80,128,7175,6,0,B|40:192|80:256,1,135,8|0,0:0|0:0,0:0:0:0:
152,324,7516,6,0,B|212:360|280:324,1,135.000005149842,4|0,0:0|0:0,0:0:0:0:
348,268,8027,1,0,0:0:0:0:
420,316,8198,1,0,0:0:0:0:
348,180,8368,1,8,0:0:0:0:
496,268,8539,1,8,0:0:0:0:
420,116,8709,6,0,B|360:68|288:108,1,135.000005149842,0|0,0:0|0:0,0:0:0:0:
232,180,9221,1,0,0:0:0:0:
232,180,9562,2,0,B|200:192|164:180,1,67.5000025749208,0|8,0:0|0:0,0:0:0:0:
24,232,9902,2,0,B|58:220|90:232,1,67.5000025749208,0|0,0:0|0:0,0:0:0:0:
192,320,10243,5,12,0:0:0:0:
116,364,10414,1,0,0:0:0:0:
320,320,10584,1,0,0:0:0:0:
396,364,10755,1,0,0:0:0:0:
256,248,10925,1,0,0:0:0:0:
192,176,11096,1,2,0:0:0:0:
320,176,11266,1,2,0:0:0:0:
124,248,11437,6,0,B|52:248|12:184,1,135.000005149842,8|0,0:0|0:0,0:0:0:0:
100,100,11948,1,0,0:0:0:0:
100,100,12289,2,0,B|112:60|168:32|212:48,1,135.000005149842,2|8,3:0|0:0,0:0:0:0:
256,120,12800,1,0,0:0:0:0:
412,100,12971,6,0,B|400:60|344:32|300:48,1,135.000005149842,8|8,0:0|0:0,0:0:0:0:
200,320,13652,2,0,B|208:340|256:372|308:340|316:320,1,135.000005149842,8|8,0:0|0:0,0:0:0:0:
380,260,14164,1,2,3:0:0:0:
256,176,14334,5,8,0:0:0:0:
420,176,14505,1,8,0:0:0:0:
216,92,14675,2,0,B|180:100|156:120,1,67.5000025749208,8|0,0:0|0:0,0:0:0:0:
56,188,15016,1,8,0:0:0:0:
184,228,15187,1,8,0:0:0:0:
48,288,15357,1,4,0:0:0:0:
64,320,15442,1,0,0:0:0:0:
92,340,15527,1,0,0:0:0:0:
124,348,15613,1,0,0:0:0:0:
156,344,15698,5,8,0:0:0:0:
356,300,15868,1,8,0:0:0:0:
156,128,16039,1,8,0:0:0:0:
356,172,16209,1,8,0:0:0:0:
80,236,16380,5,8,0:0:0:0:
32,216,16465,1,8,0:0:0:0:
0,176,16550,1,8,0:0:0:0:
0,124,16635,1,8,0:0:0:0:
20,76,16721,1,8,0:0:0:0:
64,48,16806,1,8,0:0:0:0:
116,44,16891,1,4,0:0:0:0:
116,44,17232,6,0,L|160:44,1,45,0|8,0:0|0:0,0:0:0:0:
264,124,17573,2,0,L|220:124,1,45,2|8,0:0|0:0,0:0:0:0:
184,124,17829,1,2,3:0:0:0:
184,124,17914,1,8,0:0:0:0:
292,48,18084,1,8,0:0:0:0:
324,48,18169,1,8,0:0:0:0:
356,48,18255,1,8,0:0:0:0:
388,48,18340,1,8,0:0:0:0:
420,48,18425,6,0,B|464:76|464:124,1,90,6|0,0:0|0:0,0:0:0:0:
375,254,18766,2,0,B|352:208|376:168,1,90,10|0,0:0|0:0,0:0:0:0:
460,304,19107,1,10,0:0:0:0:
276,284,19277,1,2,0:0:0:0:
392,368,19448,1,8,0:0:0:0:
208,348,19618,6,0,B|160:348|128:312,1,90,2|8,0:0|0:0,0:0:0:0:
0,176,19959,2,0,B|0:224|40:252,1,90,2|8,0:0|0:0,0:0:0:0:
136,220,20300,1,2,0:0:0:0:
32,348,20471,1,10,0:0:0:0:
80,140,20641,1,8,0:0:0:0:
228,252,20812,2,0,L|316:220,1,90,10|0,0:0|0:0,0:0:0:0:
460,112,21152,6,0,L|375:142,1,90,6|0,0:0|0:0,0:0:0:0:
420,232,21493,2,0,B|456:264|456:312,1,90,10|0,0:0|0:0,0:0:0:0:
268,128,21834,2,0,B|232:96|232:48,1,90,10|2,0:0|0:0,0:0:0:0:
332,56,22175,1,8,0:0:0:0:
208,192,22346,6,0,B|160:192|125:160,1,90,2|8,0:0|0:0,0:0:0:0:
8,48,22687,1,10,0:0:0:0:
0,204,22857,1,2,0:0:0:0:
96,76,23027,1,10,0:0:0:0:
0,204,23198,5,8,0:0:0:0:
24,240,23283,1,8,0:0:0:0:
60,264,23368,1,8,0:0:0:0:
104,272,23454,1,8,0:0:0:0:
148,264,23539,1,8,0:0:0:0:
188,244,23624,1,8,0:0:0:0:
232,236,23709,1,8,0:0:0:0:
276,244,23794,1,8,0:0:0:0:
316,264,23880,5,4,0:0:0:0:
468,108,24221,2,0,B|432:40|360:40,1,135.000005149842,0|0,0:0|0:0,0:0:0:0:
300,104,24732,1,0,0:0:0:0:
224,148,24902,1,8,0:0:0:0:
44,108,25073,6,0,B|80:40|152:40,1,135.000005149842,8|0,0:0|0:0,0:0:0:0:
116,184,25584,2,0,B|92:212|56:212,1,67.5000025749208,0|0,0:0|0:0,0:0:0:0:
0,316,25925,2,0,B|24:344|60:344,1,67.5000025749208,0|0,0:0|0:0,0:0:0:0:
184,256,26266,1,8,0:0:0:0:
148,336,26437,1,8,0:0:0:0:
272,256,26607,6,0,B|336:224|404:256,1,135.000005149842,8|0,0:0|0:0,0:0:0:0:
408,128,27118,2,0,B|344:160|276:128,1,135.000005149842,0|10,0:0|0:0,0:0:0:0:
312,48,27630,1,10,0:0:0:0:
192,148,27800,1,10,0:0:0:0:
112,112,27971,6,0,B|80:96|64:64,1,67.5000025749208,0|0,0:0|0:0,0:0:0:0:
68,192,28312,2,0,L|0:192,1,67.5000025749208
112,272,28652,2,0,B|80:288|64:320,1,67.5000025749208,0|0,0:0|0:0,0:0:0:0:
188,324,28993,1,0,1:0:0:0:
204,236,29164,1,8,0:0:0:0:
336,324,29334,6,0,B|368:324|396:296,1,67.5000025749208,4|0,0:0|0:0,0:0:0:0:
440,220,29675,2,0,B|476:220|504:240,1,67.5000025749208,8|0,0:0|0:0,0:0:0:0:
352,220,30016,1,8,0:0:0:0:
308,96,30187,1,0,0:0:0:0:
268,240,30357,1,8,0:0:0:0:
392,116,30527,1,0,0:0:0:0:
224,68,30698,6,0,B|188:72|160:52,1,67.5000025749208,8|0,0:0|0:0,0:0:0:0:
12,72,31039,2,0,B|48:72|76:92,1,67.5000025749208,8|0,0:0|0:0,0:0:0:0:
28,164,31380,1,8,0:0:0:0:
148,148,31550,1,0,0:0:0:0:
188,324,31721,1,8,0:0:0:0:
188,324,32062,6,0,B|252:356|320:324,1,135.000005149842,8|0,0:0|0:0,0:0:0:0:
442,259,32573,2,0,B|408:248|376:260,1,67.5000025749208,8|8,0:0|0:0,0:0:0:0:
492,336,32914,1,0,0:0:0:0:
408,176,33084,1,0,1:0:0:0:
408,360,33255,1,8,0:0:0:0:
492,176,33425,6,0,B|500:120|464:80,1,101.250003862381,10|0,0:0|0:0,0:0:0:0:
436,64,33766,2,0,L|372:92,1,67.5000025749208,10|8,0:0|0:0,0:0:0:0:
276,192,34107,1,10,0:0:0:0:
276,192,34192,1,8,0:0:0:0:
276,192,34277,1,8,0:0:0:0:
196,152,34448,1,10,0:0:0:0:
164,72,34618,1,8,0:0:0:0:
4,149,34789,6,0,B|16:200|56:220,1,90,4|0,0:0|0:0,0:0:0:0:
204,252,35130,1,8,0:0:0:0:
196,152,35300,1,0,0:0:0:0:
360,152,35471,1,8,0:0:0:0:
360,152,35556,1,0,0:0:0:0:
360,152,35641,2,0,B|405:152|440:192,1,90,0|8,0:0|0:0,0:0:0:0:
452,320,35982,6,0,B|368:372|280:320,1,180,8|0,0:0|0:0,0:0:0:0:
148,176,36493,2,0,B|124:136|148:88,1,90,8|0,0:0|0:0,0:0:0:0:
256,36,36834,1,8,0:0:0:0:
256,36,36919,2,0,B|268:80|320:96,1,90,8|0,0:0|0:0,0:0:0:0:
352,80,37175,2,0,B|392:52|444:72,1,90,8|0,0:0|0:0,0:0:0:0:
480,200,37516,5,8,0:0:0:0:
328,312,37687,1,0,0:0:0:0:
440,312,37857,1,8,0:0:0:0:
288,200,38027,1,0,0:0:0:0:
288,200,38113,1,0,0:0:0:0:
288,200,38198,2,0,B|244:200|208:236,1,90,8|0,0:0|0:0,0:0:0:0:
144,312,38539,1,8,0:0:0:0:
24,192,38709,1,8,0:0:0:0:
24,192,39050,5,0,0:0:0:0:
144,156,39221,1,8,0:0:0:0:
112,264,39391,1,0,0:0:0:0:
60,92,39562,1,8,0:0:0:0:
60,92,39647,1,0,0:0:0:0:
60,92,39732,1,8,0:0:0:0:
152,60,39902,2,0,B|196:40|240:60,1,90,8|0,0:0|0:0,0:0:0:0:
420,192,40243,6,0,B|376:212|332:192,1,90,4|0,0:0|0:0,0:0:0:0:
432,52,40584,1,8,0:0:0:0:
452,80,40669,1,0,0:0:0:0:
464,112,40755,1,0,0:0:0:0:
280,268,40925,2,0,B|240:239|236:191,1,90,8|0,0:0|0:0,0:0:0:0:
284,108,41266,1,8,0:0:0:0:
360,324,41437,6,0,P|284:364|204:324,1,180,8|0,0:0|0:0,0:0:0:0:
124,268,41948,1,8,0:0:0:0:
44,324,42118,1,0,0:0:0:0:
4,160,42289,2,0,B|4:116|44:84,1,90,8|0,0:0|0:0,0:0:0:0:
176,184,42630,1,8,0:0:0:0:
124,268,42800,1,0,0:0:0:0:
148,88,42971,6,0,B|179:56|230:62,1,90,10|0,0:0|0:0,0:0:0:0:
384,160,43312,2,0,B|352:192|300:192,1,90,10|0,0:0|0:0,0:0:0:0:
408,72,43652,1,10,0:0:0:0:
436,84,43738,1,0,0:0:0:0:
460,104,43823,2,0,B|488:144|476:192,1,90,2|8,0:0|0:0,0:0:0:0:
380,340,44164,6,0,B|328:340|296:308,1,90,4|8,0:0|0:0,0:0:0:0:
224,244,44505,1,8,0:0:0:0:
148,88,44675,1,8,0:0:0:0:
320,192,44846,1,8,0:0:0:0:
132,192,45016,1,8,0:0:0:0:
224,244,45187,1,8,0:0:0:0:
132,284,45357,1,8,0:0:0:0:
108,304,45442,1,0,0:0:0:0:
84,324,45527,1,8,0:0:0:0:
60,344,45613,1,0,0:0:0:0:
36,364,45698,6,0,B|-16:332|-32:260|8:204,1,180,4|8,0:0|0:0,0:0:0:0:
60,124,46209,1,8,0:0:0:0:
132,192,46380,1,8,0:0:0:0:
256,64,46550,1,2,3:0:0:0:
172,12,46721,1,8,0:0:0:0:
256,192,46891,6,0,B|300:212|344:192,1,90,4|0,0:0|0:0,0:0:0:0:
508,104,47232,2,0,B|464:84|420:104,1,90,8|0,0:0|0:0,0:0:0:0:
428,292,47573,1,8,0:0:0:0:
452,272,47658,1,0,0:0:0:0:
476,252,47743,1,8,0:0:0:0:
320,344,47914,1,8,0:0:0:0:
256,192,48084,1,8,0:0:0:0:
256,192,48425,6,0,B|208:180|184:136,1,90,2|0,0:0|0:0,0:0:0:0:
76,32,48766,1,8,0:0:0:0:
20,116,48937,1,0,0:0:0:0:
180,32,49107,1,8,0:0:0:0:
180,32,49192,1,0,0:0:0:0:
180,32,49277,1,0,0:0:0:0:
76,200,49448,2,0,L|20:272,1,90,8|0,0:0|0:0,0:0:0:0:
256,192,49789,6,0,L|312:120,1,90,8|0,0:0|0:0,0:0:0:0:
344,240,50130,1,8,0:0:0:0:
404,64,50300,1,0,0:0:0:0:
404,64,50385,1,0,0:0:0:0:
404,64,50471,2,0,B|376:24|328:24,1,90,8|0,0:0|0:0,0:0:0:0:
436,156,50812,1,8,0:0:0:0:
504,84,50982,1,0,0:0:0:0:
452,260,51152,6,0,B|436:304|396:332,1,90,4|0,0:0|0:0,0:0:0:0:
256,256,51493,1,8,0:0:0:0:
204,340,51664,1,8,0:0:0:0:
304,340,51834,1,8,0:0:0:0:
204,184,52005,1,8,0:0:0:0:
120,364,52175,1,8,0:0:0:0:
304,184,52346,6,0,B|324:148|372:128,1,90,4|0,0:0|0:0,0:0:0:0:
204,184,52687,2,0,B|184:220|136:240,1,90,8|0,0:0|0:0,0:0:0:0:
32,104,53027,1,8,0:0:0:0:
56,84,53113,1,0,0:0:0:0:
80,64,53198,1,8,0:0:0:0:
32,212,53368,1,8,0:0:0:0:
200,64,53539,1,8,0:0:0:0:
200,64,53880,6,0,B|252:112|328:88,1,135,2|0,0:0|0:0,0:0:0:0:
356,76,54221,2,0,L|432:128,1,90,8|0,0:0|0:0,0:0:0:0:
484,272,54562,1,8,0:0:0:0:
484,272,54647,2,0,B|460:312|416:328,1,90,8|0,0:0|0:0,0:0:0:0:
392,308,54902,2,0,B|356:276|308:280,1,90,8|0,0:0|0:0,0:0:0:0:
152,344,55243,5,8,0:0:0:0:
80,276,55414,1,0,0:0:0:0:
256,176,55584,1,10,0:0:0:0:
188,248,55755,1,8,0:0:0:0:
24,172,55925,1,10,0:0:0:0:
44,148,56010,1,0,0:0:0:0:
64,124,56096,1,8,0:0:0:0:
296,128,56266,1,10,0:0:0:0:
276,152,56351,1,8,0:0:0:0:
256,176,56437,1,0,0:0:0:0:
236,48,56607,6,0,B|268:16|328:16|360:48,1,135.000005149842,4|0,0:0|0:0,0:0:0:0:
428,104,57118,1,8,0:0:0:0:
496,228,57289,2,0,B|484:260|452:276,1,67.5000025749208,8|8,0:0|2:0,0:0:0:0:
428,104,57630,2,0,B|440:72|472:56,1,67.5000025749208,8|0,0:0|0:0,0:0:0:0:
348,228,57971,6,0,B|308:284|228:280,1,135.000005149842,10|0,0:0|0:0,0:0:0:0:
152,236,58482,1,8,0:0:0:0:
256,364,58652,1,8,0:0:0:0:
232,184,58823,1,8,0:0:0:0:
88,300,58993,2,0,B|56:300|28:272,1,67.5000025749208,8|0,0:0|0:0,0:0:0:0:
88,92,59334,6,0,B|112:116|112:156,1,67.5000025749208,10|0,0:0|0:0,0:0:0:0:
24,152,59675,1,0,0:0:0:0:
24,152,59846,1,8,0:0:0:0:
148,28,60016,2,0,L|224:28,1,67.5000025749208,8|0,0:0|0:0,0:0:0:0:
300,184,60357,2,0,L|232:184,1,67.5000025749208,8|0,0:0|0:0,0:0:0:0:
388,128,60698,6,0,B|420:160|420:220|388:252,1,135.000005149842,10|0,0:0|0:0,0:0:0:0:
328,316,61209,1,8,0:0:0:0:
160,260,61380,1,8,0:0:0:0:
256,368,61550,1,8,0:0:0:0:
160,260,61721,6,0,P|80:248|52:172,1,168.75,10|0,0:0|0:0,0:0:0:0:
96,112,62062,6,0,B|132:136|132:192,1,90,4|0,0:0|0:0,0:0:0:0:
20,48,62402,2,0,B|52:16|104:16,1,90,8|0,0:0|0:0,0:0:0:0:
256,104,62743,1,8,0:0:0:0:
308,180,62914,2,0,B|356:180|392:148,2,90,0|8|2,0:0|0:0|0:0,0:0:0:0:
84,200,63425,5,8,0:0:0:0:
258,299,63596,1,8,0:0:0:0:
256,104,63766,1,8,0:0:0:0:
256,104,63937,1,0,0:0:0:0:
156,264,64107,1,8,0:0:0:0:
356,264,64277,1,8,0:0:0:0:
256,104,64448,1,8,0:0:0:0:
252,72,64533,1,0,0:0:0:0:
232,48,64618,1,8,0:0:0:0:
204,36,64704,1,0,0:0:0:0:
172,36,64789,6,0,L|80:36,1,90,4|8,0:0|0:0,0:0:0:0:
0,192,65130,2,0,L|92:192,1,90,8|8,0:0|0:0,0:0:0:0:
256,248,65471,1,8,0:0:0:0:
256,280,65556,1,8,0:0:0:0:
256,312,65641,1,8,0:0:0:0:
256,344,65726,1,8,0:0:0:0:
256,376,65812,1,8,0:0:0:0:
420,192,65982,1,8,0:0:0:0:
420,192,66493,6,0,B|420:156|396:128,1,67.5,2|0,0:0|0:0,0:0:0:0:
344,76,66834,5,8,0:0:0:0:
324,64,66919,1,8,0:0:0:0:
304,52,67005,1,8,0:0:0:0:
284,44,67090,1,8,0:0:0:0:
240,36,67175,5,8,0:0:0:0:
196,48,67260,1,8,0:0:0:0:
152,56,67346,1,8,0:0:0:0:
108,48,67431,1,8,0:0:0:0:
64,36,67516,6,0,B|20:60|20:112,1,90,4|0,0:0|0:0,0:0:0:0:
152,344,67857,2,0,B|176:304|152:256,1,90,8|0,0:0|0:0,0:0:0:0:
60,292,68198,1,2,0:0:0:0:
220,192,68368,1,0,0:0:0:0:
152,344,68539,1,8,0:0:0:0:
120,180,68709,6,0,B|119:115|195:71|252:100,1,180,0|0,0:0|0:0,0:0:0:0:
406,161,69221,2,0,B|368:192|324:192,1,90,8|0,0:0|0:0,0:0:0:0:
440,60,69562,1,2,0:0:0:0:
504,136,69732,1,8,0:0:0:0:
408,288,69902,1,8,0:0:0:0:
472,364,70073,1,2,0:0:0:0:
304,304,70243,5,4,0:0:0:0:
120,180,70414,1,0,0:0:0:0:
212,340,70584,1,8,0:0:0:0:
212,140,70755,1,0,0:0:0:0:
120,300,70925,1,2,0:0:0:0:
304,180,71096,1,0,0:0:0:0:
212,240,71266,1,8,0:0:0:0:
36,120,71437,6,0,B|92:40|188:40,1,180,2|0,0:0|0:0,0:0:0:0:
380,140,71948,2,0,B|352:180|304:180,1,90,8|0,0:0|0:0,0:0:0:0:
380,48,72289,1,2,0:0:0:0:
468,192,72459,1,8,0:0:0:0:
468,12,72630,1,8,0:0:0:0:
380,232,72800,1,2,0:0:0:0:
296,12,72971,6,0,B|252:8|212:40,1,90,4|0,0:0|0:0,0:0:0:0:
56,112,73312,1,8,0:0:0:0:
88,144,73397,1,0,0:0:0:0:
124,172,73482,1,0,0:0:0:0:
284,200,73652,1,2,0:0:0:0:
252,168,73738,1,0,0:0:0:0:
216,140,73823,1,0,0:0:0:0:
36,312,73993,2,0,B|80:316|120:284,1,90,8|0,0:0|0:0,0:0:0:0:
284,200,74334,6,0,B|328:196|368:228,1,90,2|0,0:0|0:0,0:0:0:0:
500,320,74675,1,8,0:0:0:0:
464,344,74760,1,0,0:0:0:0:
420,352,74846,1,0,0:0:0:0:
328,316,75016,1,2,0:0:0:0:
468,232,75187,1,8,0:0:0:0:
244,280,75357,1,8,0:0:0:0:
464,144,75527,1,2,0:0:0:0:
192,192,75698,6,0,B|124:264|32:264,1,180,4|8,0:0|0:0,0:0:0:0:
4,168,76209,1,0,0:0:0:0:
80,60,76380,1,2,0:0:0:0:
124,64,76465,1,0,0:0:0:0:
160,88,76550,1,0,0:0:0:0:
256,260,76721,1,8,0:0:0:0:
4,168,76891,1,4,0:0:0:0:
92,260,77062,5,8,0:0:0:0:
172,316,77232,1,8,0:0:0:0:
420,260,77402,1,8,0:0:0:0:
340,316,77573,1,8,0:0:0:0:
256,164,77743,5,8,0:0:0:0:
256,140,77829,1,2,0:0:0:0:
256,116,77914,1,8,0:0:0:0:
256,92,77999,1,2,0:0:0:0:
248,48,78084,5,2,0:0:0:0:
212,24,78169,1,2,0:0:0:0:
168,16,78255,1,2,0:0:0:0:
124,24,78340,1,0,0:0:0:0:
88,48,78425,6,0,B|72:92|28:112,1,90,4|0,0:0|0:0,0:0:0:0:
92,260,78766,2,0,B|108:216|152:196,1,90,8|0,0:0|0:0,0:0:0:0:
188,288,79107,1,2,0:0:0:0:
340,316,79277,1,0,0:0:0:0:
144,368,79448,1,8,0:0:0:0:
304,228,79618,6,0,B|368:156|472:176,1,180,0|0,0:0|0:0,0:0:0:0:
340,316,80130,2,0,B|304:356|260:356,1,90,8|0,0:0|0:0,0:0:0:0:
188,184,80471,2,0,B|224:144|268:144,1,90,2|2,0:0|0:0,0:0:0:0:
188,288,80812,1,8,0:0:0:0:
104,352,80982,1,0,0:0:0:0:
20,184,81152,5,4,0:0:0:0:
188,288,81323,1,2,0:0:0:0:
20,288,81493,1,8,0:0:0:0:
188,184,81664,1,2,0:0:0:0:
104,352,81834,1,2,0:0:0:0:
104,352,81919,1,2,0:0:0:0:
104,352,82005,1,2,0:0:0:0:
276,236,82175,1,8,0:0:0:0:
104,120,82346,6,0,B|156:40|256:40,1,180,2|0,0:0|0:0,0:0:0:0:
356,188,82857,1,8,0:0:0:0:
316,212,82942,1,0,0:0:0:0:
276,236,83027,1,0,0:0:0:0:
380,76,83198,1,2,0:0:0:0:
420,96,83283,1,0,0:0:0:0:
460,116,83368,1,8,0:0:0:0:
496,268,83539,2,0,B|468:308|420:308,1,90,8|2,0:0|0:0,0:0:0:0:
132,328,83880,6,0,B|184:236|276:236,1,180,4|2,0:0|0:0,0:0:0:0:
256,324,84391,1,0,0:0:0:0:
56,244,84562,2,0,B|4:200|4:128|56:88,1,180,2|2,0:0|0:0,0:0:0:0:
140,36,85073,1,0,0:0:0:0:
232,192,85243,5,2,0:0:0:0:
328,36,85414,1,2,0:0:0:0:
144,152,85584,2,0,B|120:192|144:240,1,90,2|0,0:0|0:0,0:0:0:0:
328,236,85925,2,0,B|351:189|327:149,1,90,2|2,0:0|0:0,0:0:0:0:
72,288,86266,1,2,0:0:0:0:
108,316,86351,1,0,0:0:0:0:
152,332,86437,1,2,0:0:0:0:
196,316,86522,1,0,0:0:0:0:
232,288,86607,5,4,0:0:0:0:
0,92,86777,1,2,0:0:0:0:
284,144,86948,1,2,0:0:0:0:
100,40,87118,1,2,0:0:0:0:
232,288,87289,5,2,0:0:0:0:
252,336,87374,1,2,0:0:0:0:
300,360,87459,1,2,0:0:0:0:
352,372,87544,1,2,0:0:0:0:
404,360,87630,1,2,0:0:0:0:
452,336,87715,1,2,0:0:0:0:
476,288,87800,1,4,0:0:0:0:
476,288,88141,6,0,L|476:244,1,45,0|8,0:0|0:0,0:0:0:0:
396,120,88482,1,8,0:0:0:0:
396,120,88652,6,0,L|396:156,8,33.7500012874604,8|0|0|0|8|0|0|0|8,0:0|0:0|0:0|0:0|0:0|0:0|0:0|0:0|0:0,0:0:0:0:
256,40,89164,6,0,B|156:40|100:116,1,180,4|8,0:0|0:0,0:0:0:0:
16,288,89675,1,8,0:0:0:0:
100,236,89846,1,8,0:0:0:0:
16,84,90016,1,4,0:0:0:0:
16,84,90101,1,0,0:0:0:0:
16,84,90187,1,0,0:0:0:0:
100,236,90357,1,8,0:0:0:0:
396,120,90527,5,12,0:0:0:0:
