osu file format v14

[General]
AudioFilename: 21.mp3
AudioLeadIn: 0
PreviewTime: 66491
Countdown: 0
SampleSet: Soft
StackLeniency: 0.7
Mode: 0
LetterboxInBreaks: 0
WidescreenStoryboard: 0

[Editor]
DistanceSpacing: 1.1
BeatDivisor: 4
GridSize: 4
TimelineZoom: 1

[Metadata]
Title:Miracle! Portable*Mission
TitleUnicode:ミラクル! ぽーたぶる☆ミッション
Artist:nao
ArtistUnicode:nao
Creator:kajiyatta
Version:Hard
Source:超次次元ゲイム ネプテューヌ Re;Birth1
Tags:opening compile heart visual novel
BeatmapID:556268
BeatmapSetID:240734

[Difficulty]
HPDrainRate:6
CircleSize:4
OverallDifficulty:6
ApproachRate:7
SliderMultiplier:1.5
SliderTickRate:1

[Events]
//Background and Video events
0,0,"top2.jpg",0,0
Video,0,"21.avi"
//Break Periods
//Storyboard Layer 0 (Background)
//Storyboard Layer 1 (Fail)
//Storyboard Layer 2 (Pass)
//Storyboard Layer 3 (Foreground)
//Storyboard Sound Samples

[TimingPoints]
2062,340.909090909091,4,2,1,50,1,0
6493,-133.333333333333,4,2,2,80,0,0
7516,-133.333333333333,4,2,1,60,0,0
8368,-133.333333333333,4,2,1,40,0,0
8709,-133.333333333333,4,2,1,60,0,0
11096,-133.333333333333,4,2,2,60,0,0
11437,-133.333333333333,4,2,1,60,0,0
12289,-133.333333333333,4,2,2,60,0,0
12630,-133.333333333333,4,2,1,60,0,0
16380,-133.333333333333,4,2,1,50,0,0
16891,-133.333333333333,4,2,1,70,0,0
17402,-133.333333333333,4,2,2,70,0,0
17914,-133.333333333333,4,2,1,70,0,0
18425,-100,4,2,1,70,0,1
18510,-100,4,2,1,70,0,0
20641,-100,4,2,3,70,0,0
20982,-100,4,2,1,70,0,0
23198,-100,4,2,1,50,0,0
23880,-133.333333333333,4,2,1,60,0,0
24221,-133.333333333333,4,2,1,50,0,0
27459,-133.333333333333,4,2,1,40,0,0
27971,-133.333333333333,4,2,1,50,0,0
34789,-100,4,2,1,60,0,0
46721,-100,4,2,3,60,0,0
46891,-100,4,2,1,60,0,0
47914,-100,4,2,3,60,0,0
48425,-100,4,2,1,60,0,0
52005,-100,4,2,3,60,0,0
52346,-100,4,2,1,60,0,0
53368,-100,4,2,3,60,0,0
53880,-100,4,2,1,60,0,0
56607,-133.333333333333,4,2,1,60,0,0
57630,-133.333333333333,4,2,3,60,0,0
57800,-133.333333333333,4,2,1,60,0,0
58823,-133.333333333333,4,2,3,60,0,0
59164,-133.333333333333,4,2,1,60,0,0
60357,-133.333333333333,4,2,3,60,0,0
60527,-133.333333333333,4,2,1,60,0,0
61721,-133.333333333333,4,2,3,60,0,0
62062,-100,4,2,1,60,0,0
65812,-100,4,2,1,80,0,0
65982,-100,4,2,2,80,0,0
66834,-100,4,2,1,50,0,0
67516,-100,4,2,4,80,0,1
69732,-100,4,2,3,80,0,1
69902,-100,4,2,4,80,0,1
71437,-100,4,2,1,80,0,1
71607,-100,4,2,4,80,0,1
75187,-100,4,2,3,80,0,1
75527,-100,4,2,4,80,0,1
76806,-100,4,2,4,80,0,0
76891,-100,4,2,4,80,0,1
76976,-100,4,2,5,80,0,0
77743,-100,4,2,4,40,0,0
78084,-100,4,2,4,60,0,0
78425,-100,4,2,4,80,0,1
81323,-100,4,2,4,60,0,1
81493,-100,4,2,4,80,0,1
81664,-100,4,2,4,60,0,1
81834,-100,4,2,4,80,0,1
81919,-100,4,2,4,60,0,1
82175,-100,4,2,4,80,0,1
82346,-100,4,2,1,80,0,1
82516,-100,4,2,4,80,0,1
87289,-100,4,2,4,60,0,1
87715,-100,4,2,4,50,0,0
87800,-100,4,2,4,80,0,1
87885,-100,4,2,4,80,0,0
88141,-100,4,2,2,60,0,0
89164,-100,4,2,1,70,0,0
90527,-100,4,2,2,80,0,1
90613,-100,4,2,1,80,0,0

[Colours]
Combo1 : 45,255,244
Combo2 : 155,48,252
Combo3 : 185,185,255

[HitObjects]
256,192,2062,12,4,6152,0:0:0:0:
128,104,6493,6,0,B|84:120|72:164,1,84.3750032186509,8|0,0:0|0:0,0:0:0:0:
116,200,6834,2,0,B|152:224|152:272,1,84.3750032186509,8|0,0:0|0:0,0:0:0:0:
188,316,7175,2,0,B|232:332|272:316,1,84.3750032186509,8|0,0:0|0:0,0:0:0:0:
312,276,7516,6,0,B|344:232|412:232,1,112.500004291535,4|0,0:0|0:0,0:0:0:0:
492,260,8027,1,0,0:0:0:0:
480,176,8198,2,0,B|480:152|452:128,2,56.2500021457673,0|8|8,0:0|0:0|0:0,0:0:0:0:
472,44,8709,2,0,B|408:32|376:88,1,112.500004291535,0|0,0:0|0:0,0:0:0:0:
308,140,9221,1,0,0:0:0:0:
308,140,9562,2,0,B|284:152|252:140,1,56.2500021457673,0|8,0:0|0:0,0:0:0:0:
141,79,9902,2,0,B|172:68|196:80,1,56.2500021457673
80,140,10243,6,0,B|56:128|40:100,2,56.2500021457673,12|0|0,0:0|0:0|0:0,0:0:0:0:
148,192,10755,1,0,0:0:0:0:
80,244,10925,2,0,B|56:256|40:284,2,56.2500021457673,0|2|2,0:0|0:0|0:0,0:0:0:0:
148,192,11437,2,0,B|200:164|256:192,1,112.500004291535,8|0,0:0|0:0,0:0:0:0:
324,244,11948,1,0,0:0:0:0:
324,244,12289,2,0,B|376:272|432:244,1,112.500004291535,2|8,0:0|0:0,0:0:0:0:
496,192,12800,1,0,0:0:0:0:
448,120,12971,6,0,B|396:96|376:36,2,112.500004291535,8|8|8,0:0|0:0|0:0,0:0:0:0:
324,244,13993,1,8,0:0:0:0:
256,296,14164,1,2,3:0:0:0:
188,244,14334,2,0,L|144:208,2,56.2500021457673,8|8|8,0:0|0:0|0:0,0:0:0:0:
256,296,14846,1,0,0:0:0:0:
256,164,15016,2,0,L|300:128,1,56.2500021457673,8|8,0:0|0:0,0:0:0:0:
188,56,15357,2,0,L|144:92,1,56.2500021457673,4|0,0:0|0:0,0:0:0:0:
280,44,15698,5,8,0:0:0:0:
380,96,15868,1,8,0:0:0:0:
480,44,16039,1,8,0:0:0:0:
380,96,16209,1,8,0:0:0:0:
480,144,16380,2,0,L|480:172,3,28.1250010728836,8|8|8|8,0:0|0:0|0:0|0:0,0:0:0:0:
480,228,16721,2,0,L|456:244,2,28.1250010728836,8|8|4,0:0|0:0|0:0,0:0:0:0:
312,244,17232,2,0,L|272:200,2,56.2500021457673,0|8|8,0:0|0:0|0:0,0:0:0:0:
384,308,17743,1,8,0:0:0:0:
384,308,17829,1,0,0:0:0:0:
384,308,17914,1,8,0:0:0:0:
256,344,18084,2,0,L|200:344,1,56.2500021457673,8|8,0:0|0:0,0:0:0:0:
108,280,18425,6,0,B|96:244|59:225,1,75,6|0,0:0|0:0,0:0:0:0:
28,148,18766,2,0,B|48:116|88:108,1,75,10|0,0:0|0:0,0:0:0:0:
164,140,19107,1,10,0:0:0:0:
228,192,19277,1,2,0:0:0:0:
312,192,19448,1,8,0:0:0:0:
376,140,19618,2,0,B|416:80|508:80,1,150,2|2,0:0|0:0,0:0:0:0:
468,192,20130,2,0,B|432:208|412:240,1,75,8|2,0:0|0:0,0:0:0:0:
412,324,20471,2,0,B|440:352|480:352,1,75,8|8,0:0|0:0,0:0:0:0:
336,272,20812,2,0,B|308:244|268:244,1,75,10|0,0:0|0:0,0:0:0:0:
148,332,21152,6,0,B|108:332|80:296,1,75,6|0,0:0|0:0,0:0:0:0:
48,224,21493,2,0,B|64:188|44:152,1,75,10|0,0:0|0:0,0:0:0:0:
76,76,21834,2,0,L|136:28,2,75,10|2|8,0:0|0:0|0:0,0:0:0:0:
136,136,22346,2,0,B|208:172|280:136,1,150,2|10,0:0|0:0,0:0:0:0:
409,71,22857,2,0,B|372:60|336:72,1,75,8|10,0:0|0:0,0:0:0:0:
464,136,23198,2,0,L|488:164,3,37.5,8|8|8|8,0:0|0:0|0:0|0:0,0:0:0:0:
488,208,23539,2,8,L|488:248,3,37.5,8|8|8|0,0:0|0:0|0:0|0:0,0:0:0:0:
488,288,23880,5,4,0:0:0:0:
308,280,24221,2,0,B|256:252|200:280,1,112.500004291535,0|0,0:0|0:0,0:0:0:0:
132,328,24732,1,0,0:0:0:0:
52,304,24902,1,8,0:0:0:0:
32,220,25073,2,0,B|84:184|84:124,1,112.500004291535,8|0,0:0|0:0,0:0:0:0:
136,60,25584,2,0,B|116:44|84:44,1,56.2500021457673,0|0,0:0|0:0,0:0:0:0:
188,128,25925,2,0,B|240:156|296:128,1,112.500004291535,0|8,0:0|0:0,0:0:0:0:
392,68,26437,1,8,0:0:0:0:
476,144,26607,6,0,B|508:196|476:252,1,112.500004291535,8|0,0:0|0:0,0:0:0:0:
396,228,27118,2,0,B|336:228|292:268,1,112.500004291535,0|10,0:0|0:0,0:0:0:0:
336,372,27630,1,10,0:0:0:0:
232,332,27800,2,0,B|172:332|132:288,1,112.500004291535,10|0,0:0|0:0,0:0:0:0:
56,252,28312,2,0,B|32:272|32:300,1,56.2500021457673,0|0,0:0|0:0,0:0:0:0:
128,208,28652,2,0,B|152:188|152:160,1,56.2500021457673,0|0,0:0|0:0,0:0:0:0:
24,76,28993,1,0,1:0:0:0:
68,148,29164,1,8,0:0:0:0:
188,84,29334,6,0,B|232:48|296:64,1,112.500004291535,4|8,0:0|0:0,0:0:0:0:
360,116,29846,1,0,0:0:0:0:
440,140,30016,2,0,B|468:140|492:120,1,56.2500021457673,8|0,0:0|0:0,0:0:0:0:
360,116,30357,2,0,B|340:136|340:168,1,56.2500021457673,8|0,0:0|0:0,0:0:0:0:
392,276,30698,2,0,B|412:256|412:224,1,56.2500021457673,8|0,0:0|0:0,0:0:0:0:
340,340,31039,2,0,P|392:360|444:340,2,112.500004291535,8|8|8,0:0|0:0|0:0,0:0:0:0:
284,276,31891,1,0,0:0:0:0:
156,344,32062,6,0,B|92:344|64:292,1,112.500004291535,8|0,0:0|0:0,0:0:0:0:
112,220,32573,2,0,B|176:220|204:272,1,112.500004291535,8|0,0:0|0:0,0:0:0:0:
24,216,33084,2,0,B|0:196|0:164,1,56.2500021457673,0|0,1:0|0:0,0:0:0:0:
60,44,33425,2,0,B|112:64,1,56.2500021457673,10|0,0:0|0:0,0:0:0:0:
184,16,33766,2,0,B|206:66,1,56.2500021457673,10|0,0:0|0:0,0:0:0:0:
256,136,34107,1,10,0:0:0:0:
256,136,34192,1,8,0:0:0:0:
256,136,34277,1,8,0:0:0:0:
320,192,34448,1,10,0:0:0:0:
384,136,34618,1,0,0:0:0:0:
504,192,34789,6,0,B|504:272|428:312,1,150,4|8,0:0|0:0,0:0:0:0:
352,348,35300,1,0,0:0:0:0:
276,320,35471,2,0,B|248:292|208:292,1,75,8|0,0:0|0:0,0:0:0:0:
132,324,35812,1,8,0:0:0:0:
64,280,35982,2,0,B|8:224|36:140,1,150,8|0,0:0|0:0,0:0:0:0:
160,124,36493,2,0,B|192:148|192:188,1,75,8|0,0:0|0:0,0:0:0:0:
88,72,36834,2,0,L|64:44,2,37.5,8|8|0,0:0|0:0|0:0,0:0:0:0:
216,56,37175,2,0,B|248:32|288:32,1,75,8|0,0:0|0:0,0:0:0:0:
364,136,37516,6,0,B|312:196|228:180,1,150,8|8,0:0|0:0,0:0:0:0:
200,260,38027,2,0,L|252:316,2,75,0|8|0,0:0|0:0|0:0,0:0:0:0:
160,124,38539,1,8,0:0:0:0:
36,192,38709,1,8,0:0:0:0:
36,192,39050,2,0,B|20:228|36:264,2,75,0|8|0,0:0|0:0|0:0,0:0:0:0:
72,116,39562,2,0,P|108:56|184:44,1,150,8|8,0:0|0:0,0:0:0:0:
256,84,40073,1,0,0:0:0:0:
329,43,40243,6,0,P|401:54|440:116,1,150,4|8,0:0|0:0,0:0:0:0:
384,180,40755,1,0,0:0:0:0:
312,224,40925,2,0,B|296:260|312:296,2,75,8|0|8,0:0|0:0|0:0,0:0:0:0:
372,340,41437,2,0,B|364:364|308:400|256:364|248:340,1,150,8|0,0:0|0:0,0:0:0:0:
120,280,41948,2,0,B|160:264|192:280,1,75,8|0,0:0|0:0,0:0:0:0:
60,348,42289,2,0,B|20:312|20:252|60:216,1,150,8|8,0:0|0:0,0:0:0:0:
140,192,42800,1,0,0:0:0:0:
256,120,42971,6,0,B|240:84|204:68,1,75,10|0,0:0|0:0,0:0:0:0:
140,192,43312,2,0,B|156:228|192:244,1,75,10|0,0:0|0:0,0:0:0:0:
316,192,43652,1,10,0:0:0:0:
316,192,43738,1,0,0:0:0:0:
316,192,43823,2,0,B|340:164|384:164,1,75,10|8,0:0|0:0,0:0:0:0:
500,248,44164,2,0,B|476:328|388:328,1,150,4|8,0:0|0:0,0:0:0:0:
316,284,44675,2,0,L|240:264,1,75,8|8,0:0|0:0,0:0:0:0:
204,336,45016,2,0,L|128:316,1,75,8|8,0:0|0:0,0:0:0:0:
64,268,45357,2,0,L|36:244,3,37.5,8|0|8|0,0:0|0:0|0:0|0:0,0:0:0:0:
12,208,45698,6,0,B|28:128|108:104,1,150,4|8,0:0|0:0,0:0:0:0:
184,140,46209,1,8,0:0:0:0:
256,180,46380,2,0,L|256:256,2,75,8|0|8,0:0|0:0|0:0,0:0:0:0:
352,48,46891,2,0,B|428:48|476:120,1,150,4|8,0:0|0:0,0:0:0:0:
436,192,47402,1,0,0:0:0:0:
400,264,47573,2,0,L|456:320,2,75,8|8|8,0:0|0:0|0:0,0:0:0:0:
308,192,48084,1,8,0:0:0:0:
308,192,48425,6,0,L|232:192,1,75,2|0,0:0|0:0,0:0:0:0:
126,115,48766,2,0,B|164:104|200:116,1,75,8|0,0:0|0:0,0:0:0:0:
200,268,49107,2,0,B|164:280|126:268,1,75,8|0,0:0|0:0,0:0:0:0:
56,224,49448,1,8,0:0:0:0:
16,152,49618,1,0,0:0:0:0:
88,40,49789,2,0,B|160:8|236:40,1,150,8|8,0:0|0:0,0:0:0:0:
292,100,50300,2,0,B|364:132|440:100,1,150,0|8,0:0|0:0,0:0:0:0:
496,40,50812,1,8,0:0:0:0:
496,40,50982,1,0,0:0:0:0:
480,176,51152,6,0,L|432:236,1,75,4|0,0:0|0:0,0:0:0:0:
352,236,51493,2,0,L|305:177,2,75,8|0|8,0:0|0:0|0:0,0:0:0:0:
392,308,52005,1,8,0:0:0:0:
476,336,52175,1,8,0:0:0:0:
320,360,52346,2,0,B|284:360|252:328,1,75,4|0,0:0|0:0,0:0:0:0:
136,252,52687,2,0,B|172:240|212:252,1,75,8|8,0:0|0:0,0:0:0:0:
76,340,53027,2,0,B|0:300|0:220,1,150,8|8,0:0|0:0,0:0:0:0:
92,120,53539,1,8,0:0:0:0:
92,120,53880,6,0,B|116:148|160:148,1,75,2|0,0:0|0:0,0:0:0:0:
256,56,54221,2,0,B|232:28|188:28,1,75,8|0,0:0|0:0,0:0:0:0:
284,172,54562,2,0,B|320:184|360:172,1,75,8|0,0:0|0:0,0:0:0:0:
460,84,54902,2,0,B|424:72|384:84,1,75,8|0,0:0|0:0,0:0:0:0:
420,232,55243,2,0,L|473:285,1,75,8|0,0:0|0:0,0:0:0:0:
340,272,55584,2,0,L|340:348,1,75,10|8,0:0|0:0,0:0:0:0:
256,232,55925,2,0,L|202:285,1,75,10|8,0:0|0:0,0:0:0:0:
96,352,56266,1,10,0:0:0:0:
96,352,56351,1,8,0:0:0:0:
96,352,56437,1,8,0:0:0:0:
4,244,56607,6,0,B|4:188|60:152,1,112.500004291535,4|0,0:0|0:0,0:0:0:0:
136,192,57118,1,8,0:0:0:0:
208,120,57289,2,0,L|180:71,1,56.2500021457673,8|0,0:0|0:0,0:0:0:0:
304,120,57630,2,0,L|332:71,1,56.2500021457673,8|0,0:0|0:0,0:0:0:0:
376,192,57971,2,0,B|436:192|472:240,1,112.500004291535,10|0,0:0|0:0,0:0:0:0:
492,324,58482,1,8,0:0:0:0:
412,356,58652,2,0,L|360:336,1,56.2500021457673,8|8,0:0|0:0,0:0:0:0:
264,244,58993,2,0,L|316:264,1,56.2500021457673,8|0,0:0|0:0,0:0:0:0:
188,304,59334,6,0,B|132:284|120:220,1,112.500004291535,10|0,0:0|0:0,0:0:0:0:
64,160,59846,1,8,0:0:0:0:
4,216,60016,2,0,B|-28:264|4:324,2,112.500004291535,8|8|10,0:0|0:0|0:0,0:0:0:0:
64,160,60868,2,0,L|64:104,2,56.2500021457673,0|0|8,0:0|0:0|0:0,0:0:0:0:
12,40,61380,2,0,P|60:20|116:40,1,112.500004291535,8|10,0:0|0:0,0:0:0:0:
172,100,61891,1,0,0:0:0:0:
284,176,62062,6,0,B|324:184|360:176,1,75,4|0,0:0|0:0,0:0:0:0:
478,107,62402,2,0,B|444:100|404:108,1,75,8|0,0:0|0:0,0:0:0:0:
468,196,62743,1,8,0:0:0:0:
508,268,62914,1,0,0:0:0:0:
424,348,63084,1,8,0:0:0:0:
348,320,63255,1,2,0:0:0:0:
256,248,63425,2,0,B|216:248|188:276,1,75,8|8,0:0|0:0,0:0:0:0:
120,324,63766,2,0,B|88:340|48:324,1,75,8|8,0:0|0:0,0:0:0:0:
4,252,64107,1,8,0:0:0:0:
40,180,64277,1,8,0:0:0:0:
116,148,64448,2,0,L|148:168,3,37.5,8|0|8|0,0:0|0:0|0:0|0:0,0:0:0:0:
188,176,64789,6,0,B|228:176|256:148,1,75,4|8,0:0|0:0,0:0:0:0:
256,64,65130,2,0,B|228:36|188:36,1,75,8|8,0:0|0:0,0:0:0:0:
332,104,65471,2,0,L|372:104,3,37.5,8|8|8|8,0:0|0:0|0:0|0:0,0:0:0:0:
412,104,65812,2,0,B|448:92|472:56,1,75,8|8,0:0|0:0,0:0:0:0:
256,288,66493,2,0,B|200:316|148:288,1,112.5,2|0,0:0|0:0,0:0:0:0:
108,272,66834,2,0,L|76:252,3,37.5,8|8|8|8,0:0|0:0|0:0|0:0,0:0:0:0:
48,224,67175,2,0,L|28:188,3,37.5,8|8|8|8,0:0|0:0|0:0|0:0,0:0:0:0:
20,152,67516,6,0,B|48:84|136:64,1,150,4|8,0:0|0:0,0:0:0:0:
208,104,68027,1,0,0:0:0:0:
272,52,68198,2,0,B|296:24|340:24,2,75,2|0|8,0:0|0:0|0:0,0:0:0:0:
244,172,68709,2,0,B|196:240|244:312,1,150,0|0,0:0|0:0,0:0:0:0:
312,360,69221,2,0,B|348:376|384:360,1,75,8|0,0:0|0:0,0:0:0:0:
416,240,69562,2,0,B|380:240|352:276,1,75,2|8,0:0|0:0,0:0:0:0:
464,308,69902,1,8,0:0:0:0:
512,240,70073,1,2,0:0:0:0:
364,176,70243,6,0,B|328:160|316:120,1,75,4|0,0:0|0:0,0:0:0:0:
432,36,70584,2,0,B|432:72|396:104,1,75,8|0,0:0|0:0,0:0:0:0:
364,176,70925,1,2,0:0:0:0:
300,228,71096,1,0,0:0:0:0:
236,176,71266,1,8,0:0:0:0:
300,308,71437,2,0,B|232:348|156:308,1,150,2|0,0:0|0:0,0:0:0:0:
80,280,71948,2,0,B|44:308|44:348,1,75,8|0,0:0|0:0,0:0:0:0:
144,228,72289,2,0,B|184:156|144:84,1,150,2|8,0:0|0:0,0:0:0:0:
68,112,72800,1,2,0:0:0:0:
196,24,72971,6,0,B|272:24|336:80,1,150,4|8,0:0|0:0,0:0:0:0:
400,128,73482,1,0,0:0:0:0:
484,120,73652,2,0,B|508:92|508:48,2,75,2|0|8,0:0|0:0|0:0,0:0:0:0:
448,196,74164,1,0,0:0:0:0:
392,256,74334,2,0,B|332:308|252:284,1,150,2|8,0:0|0:0,0:0:0:0:
180,244,74846,1,0,0:0:0:0:
104,212,75016,2,0,B|68:224|48:260,1,75,2|8,0:0|0:0,0:0:0:0:
128,376,75357,2,0,B|164:364|184:328,1,75,8|2,0:0|0:0,0:0:0:0:
256,176,75698,6,0,B|312:116|388:116,1,150,4|8,0:0|0:0,0:0:0:0:
460,160,76209,1,0,0:0:0:0:
504,232,76380,2,0,B|504:272|472:300,1,75,2|0,0:0|0:0,0:0:0:0:
324,240,76721,1,8,0:0:0:0:
404,360,76891,1,4,0:0:0:0:
268,308,77062,2,0,L|200:272,1,75,8|8,0:0|0:0,0:0:0:0:
132,320,77402,2,0,L|65:284,1,75,8|8,0:0|0:0,0:0:0:0:
24,212,77743,2,0,L|8:176,3,37.5,8|8|8|8,0:0|0:0|0:0|0:0,0:0:0:0:
8,136,78084,2,0,L|24:100,3,37.5,8|8|8|8,0:0|0:0|0:0|0:0,0:0:0:0:
48,68,78425,6,0,B|76:44|120:44,1,75,4|0,0:0|0:0,0:0:0:0:
256,120,78766,2,0,B|214:120|186:96,1,75,8|0,0:0|0:0,0:0:0:0:
244,36,79107,1,2,0:0:0:0:
388,72,79277,1,0,0:0:0:0:
324,20,79448,1,8,0:0:0:0:
256,120,79618,2,0,B|204:188|256:260,1,150,0|0,0:0|0:0,0:0:0:0:
340,260,80130,2,0,B|372:240|372:196,1,75,8|0,0:0|0:0,0:0:0:0:
300,328,80471,2,0,L|356:380,2,75,2|2|8,0:0|0:0|0:0,0:0:0:0:
220,352,80982,1,0,0:0:0:0:
120,256,81152,6,0,B|84:256|56:292,1,75,4|2,0:0|0:0,0:0:0:0:
208,264,81493,2,0,B|236:240|236:196,1,75,8|2,0:0|0:0,0:0:0:0:
256,116,81834,2,0,L|232:88,2,37.5,2|2|0,0:0|0:0|0:0,0:0:0:0:
316,172,82175,1,8,0:0:0:0:
424,248,82346,2,0,B|491:200|491:120,1,150,2|0,0:0|0:0,0:0:0:0:
436,56,82857,2,0,B|400:56|364:80,1,75,8|0,0:0|0:0,0:0:0:0:
316,172,83198,2,0,B|272:244|324:312,1,150,2|8,0:0|0:0,0:0:0:0:
404,328,83709,1,2,0:0:0:0:
252,360,83880,6,0,B|168:360|128:288,1,150,4|2,0:0|0:0,0:0:0:0:
80,220,84391,1,0,0:0:0:0:
12,116,84562,2,0,B|20:96|76:64|136:96|144:116,1,150,2|2,0:0|0:0,0:0:0:0:
212,164,85073,1,2,0:0:0:0:
256,232,85243,2,0,L|256:308,2,75,2|2|2,0:0|0:0|0:0,0:0:0:0:
308,164,85755,1,0,0:0:0:0:
416,64,85925,2,0,L|484:96,1,75,2|2,0:0|0:0,0:0:0:0:
328,80,86266,2,0,L|260:48,1,75,2|2,0:0|0:0,0:0:0:0:
400,156,86607,5,4,0:0:0:0:
448,296,86777,1,2,0:0:0:0:
328,212,86948,1,2,0:0:0:0:
476,212,87118,1,2,0:0:0:0:
356,296,87289,2,0,L|324:324,3,37.5,2|2|2|2,0:0|0:0|0:0|0:0,0:0:0:0:
288,324,87630,2,0,L|212:324,1,75,2|4,0:0|0:0,0:0:0:0:
68,192,88141,1,0,0:0:0:0:
32,116,88312,1,8,0:0:0:0:
100,68,88482,1,8,0:0:0:0:
168,116,88652,2,0,L|236:84,2,75,8|8|8,0:0|0:0|0:0,0:0:0:0:
68,192,89164,6,0,B|68:272|144:312,1,150,4|8,0:0|0:0,0:0:0:0:
256,260,89675,1,8,0:0:0:0:
256,260,90016,2,0,L|300:320,2,75,4|0|8,0:0|0:0|0:0,0:0:0:0:
168,116,90527,5,12,0:0:0:0:
