osu file format v13

[General]
AudioFilename: 21.mp3
AudioLeadIn: 0
PreviewTime: 66491
Countdown: 0
SampleSet: Soft
StackLeniency: 0.7
Mode: 0
LetterboxInBreaks: 0
WidescreenStoryboard: 0

[Editor]
DistanceSpacing: 1
BeatDivisor: 4
GridSize: 4
TimelineZoom: 1

[Metadata]
Title:Miracle! Portable*Mission
TitleUnicode:ミラクル! ぽーたぶる☆ミッション
Artist:nao
ArtistUnicode:nao
Creator:kajiyatta
Version:Easy
Source:Choujijigen Game Neptune Re;Birth1
Tags:opening compile heart visual novel
BeatmapID:556267
BeatmapSetID:240734

[Difficulty]
HPDrainRate:2
CircleSize:3
OverallDifficulty:2
ApproachRate:3
SliderMultiplier:0.8
SliderTickRate:1

[Events]
//Background and Video events
0,0,"top2.jpg",0,0
Video,0,"21.avi"
//Break Periods
//Storyboard Layer 0 (Background)
//Storyboard Layer 1 (Fail)
//Storyboard Layer 2 (Pass)
//Storyboard Layer 3 (Foreground)
//Storyboard Sound Samples
//Background Colour Transformations
3,100,163,162,255

[TimingPoints]
2062,340.909090909091,4,2,1,50,1,0
7516,-100,4,2,1,60,0,0
12289,-100,4,2,2,60,0,0
12630,-100,4,2,1,60,0,0
16380,-100,4,2,1,50,0,0
16891,-100,4,2,1,70,0,0
18425,-100,4,2,1,70,0,1
18510,-100,4,2,1,70,0,0
22857,-100,4,2,7,60,0,0
23198,-100,4,2,1,60,0,0
23539,-100,4,2,7,60,0,0
23880,-100,4,2,1,60,0,0
24221,-100,4,2,1,50,0,0
34789,-100,4,2,1,60,0,0
35812,-100,4,2,7,50,0,0
35982,-100,4,2,1,60,0,0
37857,-100,4,2,7,50,0,0
38198,-100,4,2,1,60,0,0
41266,-100,4,2,7,50,0,0
41437,-100,4,2,1,60,0,0
43993,-100,4,2,7,60,0,0
44164,-100,4,2,1,60,0,0
46039,-100,4,2,7,50,0,0
46380,-100,4,2,1,60,0,0
47232,-100,4,2,7,50,0,0
47573,-100,4,2,1,60,0,0
47914,-100,4,2,9,50,0,0
48084,-100,4,2,3,60,0,0
48425,-100,4,2,1,60,0,0
50130,-100,4,2,7,50,0,0
50471,-100,4,2,1,60,0,0
50812,-100,4,2,7,50,0,0
51152,-100,4,2,1,60,0,0
51834,-100,4,2,7,50,0,0
52005,-100,4,2,1,60,0,0
52346,-100,4,2,1,60,0,0
53368,-100,4,2,9,50,0,0
53539,-100,4,2,3,60,0,0
53880,-100,4,2,1,60,0,0
54221,-100,4,2,7,50,0,0
54562,-100,4,2,1,60,0,0
56607,-100,4,2,1,60,0,0
57630,-100,4,2,3,60,0,0
57800,-100,4,2,1,60,0,0
58823,-100,4,2,3,60,0,0
59164,-100,4,2,1,60,0,0
60357,-100,4,2,9,50,0,0
60527,-100,4,2,1,60,0,0
61721,-100,4,2,3,60,0,0
62062,-100,4,2,1,60,0,0
65812,-100,4,2,7,70,0,0
65982,-100,4,2,2,80,0,0
66834,-100,4,2,1,50,0,0
67516,-100,4,2,4,80,0,1
70584,-100,4,2,8,70,0,1
70925,-100,4,2,4,80,0,1
71266,-100,4,2,8,70,0,1
71607,-100,4,2,4,80,0,1
73312,-100,4,2,8,70,0,1
73652,-100,4,2,4,80,0,1
73993,-100,4,2,8,70,0,1
74334,-100,4,2,4,80,0,1
75187,-100,4,2,3,80,0,1
75527,-100,4,2,4,80,0,1
76039,-100,4,2,8,70,0,1
76380,-100,4,2,4,80,0,1
76806,-100,4,2,4,80,0,0
76891,-100,4,2,4,80,0,1
76976,-100,4,2,5,80,0,0
77743,-100,4,2,4,40,0,0
78084,-100,4,2,4,60,0,0
78425,-100,4,2,4,80,0,1
78766,-100,4,2,8,70,0,1
79107,-100,4,2,4,80,0,1
80130,-100,4,2,8,70,0,1
80471,-100,4,2,4,80,0,1
81493,-100,4,2,8,70,0,1
81834,-100,4,2,4,80,0,1
82175,-100,4,2,8,70,0,1
82516,-100,4,2,4,80,0,1
84902,-100,4,2,7,70,0,1
85243,-100,4,2,4,80,0,1
87289,-100,4,2,4,60,0,1
87715,-100,4,2,4,50,0,0
87800,-100,4,2,4,80,0,1
87885,-100,4,2,4,80,0,0
88141,-100,4,2,2,60,0,0
89164,-100,4,2,1,70,0,0
90527,-100,4,2,2,80,0,1
90613,-100,4,2,1,80,0,0

[Colours]
Combo1 : 45,255,244
Combo2 : 155,48,252
Combo3 : 185,185,255

[HitObjects]
256,192,2062,12,4,6152,0:0:0:0:
180,80,7516,6,0,B|256:32|332:80,1,160,4|0,0:0|0:0,0:0:0:0:
312,200,8709,2,0,B|256:228|196:200,1,120,8|0,0:0|0:0,0:0:0:0:
136,148,9562,2,0,L|56:148,1,80,0|0,0:0|0:0,0:0:0:0:
20,220,10243,6,0,B|20:304|100:348,1,160,12|0,0:0|0:0,0:0:0:0:
220,324,11437,2,0,B|256:268|320:268,1,120,8|0,0:0|0:0,0:0:0:0:
400,284,12289,2,0,B|436:264|448:220,1,80,0|8,0:0|0:0,0:0:0:0:
428,144,12971,6,0,L|484:84,2,80,8|8|8,0:0|0:0|0:0,0:0:0:0:
348,144,13993,1,8,0:0:0:0:
268,144,14334,2,0,L|212:84,2,80,8|8|8,0:0|0:0|0:0,0:0:0:0:
308,216,15357,1,4,0:0:0:0:
264,284,15698,6,0,B|200:332,1,80,8|8,0:0|0:0,0:0:0:0:
120,332,16380,2,0,B|56:332|24:272,1,120,8|4,0:0|0:0,0:0:0:0:
336,96,18425,6,0,L|396:40,2,80,6|10|10,0:0|0:0|0:0,0:0:0:0:
268,140,19448,1,10,0:0:0:0:
200,96,19789,2,0,L|140:40,2,80,10|10|10,0:0|0:0|0:0,0:0:0:0:
268,140,20812,1,10,0:0:0:0:
320,200,21152,6,0,B|336:240|312:280,1,80,6|10,0:0|0:0,0:0:0:0:
248,232,21834,2,0,B|231:271|185:282,1,80,10|10,0:0|0:0,0:0:0:0:
172,204,22516,2,0,B|96:160|20:204,2,160,10|10|4,0:0|0:0|0:0,0:0:0:0:
248,232,24221,6,0,L|352:296,1,120
428,308,25073,2,0,B|488:272|488:204,1,120,8|0,0:0|0:0,0:0:0:0:
424,164,25925,2,0,B|388:148|380:100,1,80,0|8,0:0|0:0,0:0:0:0:
320,52,26607,6,0,B|284:24|240:24,1,80,8|0,0:0|0:0,0:0:0:0:
168,24,27289,2,0,B|104:24|64:76,1,120,0|8,0:0|0:0,0:0:0:0:
92,192,28312,2,0,B|36:248,2,80,0|0|0,0:0|0:0|1:0,0:0:0:0:
156,144,29334,6,0,B|184:112|228:112,1,80,4|8,0:0|0:0,0:0:0:0:
296,156,30016,2,0,B|336:172|376:156,1,80,8|8,0:0|0:0,0:0:0:0:
444,116,30698,2,0,B|500:60,2,80,8|8|8,0:0|0:0|0:0,0:0:0:0:
444,196,31721,1,8,0:0:0:0:
492,260,32062,6,0,B|528:316|492:372,2,120,8|8|8,0:0|0:0|0:0,0:0:0:0:
444,196,33425,2,0,L|444:112,2,80,10|10|10,0:0|0:0|0:0,0:0:0:0:
392,260,34448,1,10,0:0:0:0:
324,304,34789,6,0,B|288:324|248:304,1,80,4|8,0:0|0:0,0:0:0:0:
180,260,35471,2,0,B|140:208|76:208,1,120,8|8,0:0|0:0,0:0:0:0:
0,120,36493,2,0,B|28:88|72:88,1,80,8|8,0:0|0:0,0:0:0:0:
148,112,37175,1,8,0:0:0:0:
220,148,37516,6,0,B|236:172|292:196|348:172|364:148,1,160,8|8,0:0|0:0,0:0:0:0:
424,96,38539,2,0,B|476:96|520:160|500:212,1,160,8|8,0:0|0:0,0:0:0:0:
452,276,39562,2,0,L|508:336,2,80,8|8|4,0:0|0:0|0:0,0:0:0:0:
376,248,40584,5,8,0:0:0:0:
300,276,40925,2,0,B|268:332|200:332,1,120,8|8,0:0|0:0,0:0:0:0:
92,280,41948,2,0,B|52:280|20:312,2,80,8|8|8,0:0|0:0|0:0,0:0:0:0:
168,260,42971,6,0,B|188:224|168:184,1,80,10|8,0:0|0:0,0:0:0:0:
104,132,43652,2,0,B|104:68|168:36,1,120,8|4,0:0|0:0,0:0:0:0:
256,116,44675,2,0,L|256:196,2,80,8|8|8,0:0|0:0|0:0,0:0:0:0:
312,56,45698,6,0,B|396:24|456:92,1,160,4|8,0:0|0:0,0:0:0:0:
432,212,46891,2,0,B|404:240|360:240,1,80,4|8,0:0|0:0,0:0:0:0:
320,168,47573,2,0,B|276:116|216:116,1,120,8|8,0:0|0:0,0:0:0:0:
136,116,48425,6,0,L|80:60,2,80,2|8|8,0:0|0:0|0:0,0:0:0:0:
176,188,49448,1,8,0:0:0:0:
244,236,49789,2,0,B|236:260|180:296|116:260|108:236,2,160,8|8|4,0:0|0:0|0:0,0:0:0:0:
308,188,51493,6,0,B|340:132|408:132,1,120,8|8,0:0|0:0,0:0:0:0:
484,156,52346,2,0,B|504:236,1,80,4|8,0:0|0:0,0:0:0:0:
460,300,53027,2,0,B|436:364|368:364,1,120,8|8,0:0|0:0,0:0:0:0:
308,312,53880,6,0,B|268:236|176:236,1,160,2|8,0:0|0:0,0:0:0:0:
100,260,54902,2,0,B|56:248|40:208,1,80,8|8,0:0|0:0,0:0:0:0:
40,128,55584,2,0,B|55:90|99:78,2,80,10|10|10,0:0|0:0|0:0,0:0:0:0:
108,168,56607,6,0,B|188:168,1,80,4|0,0:0|0:0,0:0:0:0:
256,124,57289,2,0,L|256:36,2,80,8|8|8,0:0|0:0|0:0,0:0:0:0:
256,204,58312,1,0,0:0:0:0:
296,272,58652,2,0,B|324:304|368:304,1,80,8|8,0:0|0:0,0:0:0:0:
436,264,59334,6,0,B|508:208|508:128,2,160,10|8|10,0:0|0:0|0:0,0:0:0:0:
292,192,61380,2,0,L|212:192,1,80,8|10,0:0|0:0,0:0:0:0:
132,192,62062,6,0,L|80:132,2,80,4|8|8,0:0|0:0|0:0,0:0:0:0:
172,260,63084,1,8,0:0:0:0:
216,328,63425,2,0,B|256:344|296:328,1,80,10|8,0:0|0:0,0:0:0:0:
336,260,64107,2,0,B|416:260,1,80,8|8,0:0|0:0,0:0:0:0:
496,260,64789,6,0,B|516:224|496:184,1,80,4|8,0:0|0:0,0:0:0:0:
428,140,65471,2,0,B|364:140|328:84,1,120,8|8,0:0|0:0,0:0:0:0:
208,84,66493,2,0,B|140:128,2,80,2|8|8,0:0|0:0|0:0,0:0:0:0:
268,136,67516,6,0,L|268:224,1,80,4|8,0:0|0:0,0:0:0:0:
268,296,68198,2,0,B|200:340,1,80,2|8,0:0|0:0,0:0:0:0:
120,340,68880,2,0,B|80:340|48:308,2,80,2|8|2,0:0|0:0|0:0,0:0:0:0:
160,268,69902,1,8,0:0:0:0:
228,220,70243,6,0,B|220:196|160:160|100:196|92:220,2,160,4|2|2,0:0|0:0|0:0,0:0:0:0:
308,220,71948,2,0,L|364:160,2,80,8|2|8,0:0|0:0|0:0,0:0:0:0:
268,292,72971,6,0,B|312:368|400:368,2,160,4|2|2,0:0|0:0|0:0,0:0:0:0:
256,212,74675,1,8,0:0:0:0:
268,132,75016,2,0,L|200:84,1,80,2|8,0:0|0:0,0:0:0:0:
124,68,75698,6,0,B|72:52|8:92|8:148,1,160,4|2,0:0|0:0,0:0:0:0:
64,204,76721,1,8,0:0:0:0:
104,276,77062,2,0,B|124:312|104:352,1,80,8|8,0:0|0:0,0:0:0:0:
24,352,77743,2,0,B|4:312|24:276,1,80,8|8,0:0|0:0,0:0:0:0:
64,204,78425,6,0,B|72:184|132:152|200:184|208:204,1,160,4|2,0:0|0:0,0:0:0:0:
256,264,79448,1,8,0:0:0:0:
304,328,79789,2,0,B|312:348|372:380|440:348|448:328,1,160,2|2,0:0|0:0,0:0:0:0:
492,264,80812,1,8,0:0:0:0:
448,196,81152,6,0,B|364:160|364:72,2,160,4|2|2,0:0|0:0|0:0,0:0:0:0:
492,264,82857,2,0,L|492:344,2,80,8|2|8,0:0|0:0|0:0,0:0:0:0:
412,272,83880,6,0,B|384:308|336:308,1,80,4|2,0:0|0:0,0:0:0:0:
288,248,84562,2,0,B|212:200|136:248,1,160,2|2,0:0|0:0,0:0:0:0:
72,292,85584,1,2,0:0:0:0:
12,240,85925,2,0,B|-8:200|12:164,1,80,2|2,0:0|0:0,0:0:0:0:
72,108,86607,6,0,B|72:24,2,80,4|2|2,0:0|0:0|0:0,0:0:0:0:
132,164,87630,2,0,L|172:164,1,40,2|4,0:0|0:0,0:0:0:0:
252,164,88141,2,0,L|308:108,2,80,0|0|8,0:0|0:0|0:0,0:0:0:0:
212,236,89164,6,0,B|176:288|212:352,1,120,4|8,0:0|0:0,0:0:0:0:
292,352,90016,2,0,B|328:300|292:236,1,120,4|8,0:0|0:0,0:0:0:0:
