osu file format v14

[General]
AudioFilename: Miracle Portable Mission with Lyrics.mp3
AudioLeadIn: 0
PreviewTime: -1
Countdown: 0
SampleSet: Soft
StackLeniency: 0.7
Mode: 3
LetterboxInBreaks: 0
SpecialStyle: 1
WidescreenStoryboard: 1

[Editor]
DistanceSpacing: 1
BeatDivisor: 4
GridSize: 8
TimelineZoom: 1.2

[Metadata]
Title:Miracle! PortableMission
TitleUnicode:Miracle! Portable☆Mission
Artist:nao
ArtistUnicode:nao
Creator:Mysticalia
Version:Hyper
Source:Hyperdimension Neptunia
Tags:5pb
BeatmapID:712822
BeatmapSetID:320339

[Difficulty]
HPDrainRate:6
CircleSize:9
OverallDifficulty:6
ApproachRate:5
SliderMultiplier:1.4
SliderTickRate:1

[Events]
//Background and Video events
0,0,"339732-hyperdimension-neptunia.jpg",0,0
//Break Periods
//Storyboard Layer 0 (Background)
//Storyboard Layer 1 (Fail)
//Storyboard Layer 2 (Pass)
//Storyboard Layer 3 (Foreground)
//Storyboard Sound Samples

[TimingPoints]
7796,340.909090909091,4,2,0,0,1,0

[HitObjects]
28,192,7795,128,0,13250:0:0:0:0:
256,192,8136,1,0,0:0:0:0:
256,192,8818,1,0,0:0:0:0:
256,192,9500,1,0,0:0:0:0:
256,192,10182,1,0,0:0:0:0:
256,192,10864,1,0,0:0:0:0:
256,192,11546,1,0,0:0:0:0:
256,192,12227,1,0,0:0:0:0:
483,192,12227,1,0,0:0:0:0:
256,192,12568,1,0,0:0:0:0:
199,192,12739,1,0,0:0:0:0:
142,192,12909,128,0,13250:0:0:0:0:
426,192,13250,128,0,14273:0:0:0:0:
312,192,13250,1,0,0:0:0:0:
199,192,13250,1,0,0:0:0:0:
312,192,14273,1,0,0:0:0:0:
369,192,14443,128,0,15977:0:0:0:0:
256,192,15466,1,0,0:0:0:0:
199,192,15636,1,0,0:0:0:0:
312,192,15977,128,0,17000:0:0:0:0:
28,192,15977,1,0,0:0:0:0:
199,192,17000,1,0,0:0:0:0:
256,192,17171,128,0,18193:0:0:0:0:
28,192,18023,1,0,0:0:0:0:
85,192,18193,1,0,0:0:0:0:
142,192,18364,1,0,0:0:0:0:
28,192,18705,1,0,0:0:0:0:
256,192,18705,1,0,0:0:0:0:
28,192,19046,1,0,0:0:0:0:
312,192,19046,1,0,0:0:0:0:
28,192,19386,1,0,0:0:0:0:
369,192,19386,1,0,0:0:0:0:
28,192,19727,1,0,0:0:0:0:
426,192,19727,1,0,0:0:0:0:
483,192,20068,1,0,0:0:0:0:
28,192,20068,1,0,0:0:0:0:
426,192,20239,1,0,0:0:0:0:
85,192,20239,1,0,0:0:0:0:
142,192,20409,1,0,0:0:0:0:
369,192,20409,1,0,0:0:0:0:
142,192,20750,1,0,0:0:0:0:
369,192,20750,1,0,0:0:0:0:
85,192,20921,1,0,0:0:0:0:
426,192,20921,1,0,0:0:0:0:
28,192,21091,1,0,0:0:0:0:
483,192,21091,1,0,0:0:0:0:
199,192,21432,1,0,0:0:0:0:
312,192,21432,1,0,0:0:0:0:
199,192,21773,1,0,0:0:0:0:
312,192,21773,1,0,0:0:0:0:
199,192,22114,1,0,0:0:0:0:
312,192,22114,1,0,0:0:0:0:
256,192,22284,1,0,0:0:0:0:
199,192,22455,1,0,0:0:0:0:
312,192,22455,1,0,0:0:0:0:
256,192,22625,1,0,0:0:0:0:
483,192,22625,1,0,0:0:0:0:
28,192,22625,1,0,0:0:0:0:
256,192,23136,1,0,0:0:0:0:
426,192,23136,1,0,0:0:0:0:
85,192,23136,1,0,0:0:0:0:
369,192,23477,1,0,0:0:0:0:
142,192,23477,1,0,0:0:0:0:
312,192,23563,1,0,0:0:0:0:
199,192,23563,1,0,0:0:0:0:
426,192,23648,1,0,0:0:0:0:
85,192,23648,1,0,0:0:0:0:
256,192,23818,1,0,0:0:0:0:
142,192,23818,1,0,0:0:0:0:
369,192,23818,1,0,0:0:0:0:
199,192,23903,1,0,0:0:0:0:
142,192,23989,1,0,0:0:0:0:
85,192,24074,1,0,0:0:0:0:
28,192,24159,1,0,0:0:0:0:
483,192,24159,1,0,0:0:0:0:
483,192,24500,1,0,0:0:0:0:
28,192,24500,1,0,0:0:0:0:
426,192,24841,128,0,25182:0:0:0:0:
28,192,24841,1,0,0:0:0:0:
256,192,25182,1,0,0:0:0:0:
28,192,25182,1,0,0:0:0:0:
369,192,25352,128,0,25693:0:0:0:0:
85,192,25523,1,0,0:0:0:0:
256,192,25693,1,0,0:0:0:0:
312,192,25864,1,0,0:0:0:0:
85,192,25864,1,0,0:0:0:0:
256,192,26034,1,0,0:0:0:0:
369,192,26205,1,0,0:0:0:0:
85,192,26205,1,0,0:0:0:0:
256,192,26375,1,0,0:0:0:0:
426,192,26546,128,0,26886:0:0:0:0:
85,192,26546,1,0,0:0:0:0:
199,192,26546,1,0,0:0:0:0:
483,192,26886,1,0,0:0:0:0:
142,192,26886,1,0,0:0:0:0:
142,192,27227,1,0,0:0:0:0:
483,192,27227,1,0,0:0:0:0:
142,192,27568,1,0,0:0:0:0:
426,192,27568,128,0,27909:0:0:0:0:
142,192,27909,1,0,0:0:0:0:
256,192,27909,1,0,0:0:0:0:
369,192,28080,128,0,28421:0:0:0:0:
199,192,28250,1,0,0:0:0:0:
28,192,28421,1,0,0:0:0:0:
256,192,28421,1,0,0:0:0:0:
199,192,28591,1,0,0:0:0:0:
312,192,28591,1,0,0:0:0:0:
28,192,28761,1,0,0:0:0:0:
256,192,28761,1,0,0:0:0:0:
199,192,28932,1,0,0:0:0:0:
369,192,28932,1,0,0:0:0:0:
142,192,29017,1,0,0:0:0:0:
85,192,29102,1,0,0:0:0:0:
256,192,29102,1,0,0:0:0:0:
28,192,29188,1,0,0:0:0:0:
199,192,29273,1,0,0:0:0:0:
426,192,29273,1,0,0:0:0:0:
142,192,29358,1,0,0:0:0:0:
85,192,29443,1,0,0:0:0:0:
256,192,29443,1,0,0:0:0:0:
28,192,29528,1,0,0:0:0:0:
312,192,29614,128,0,30636:0:0:0:0:
483,192,29614,128,0,30636:0:0:0:0:
256,192,30636,1,0,0:0:0:0:
369,192,30807,128,0,32000:0:0:0:0:
142,192,30807,1,0,0:0:0:0:
426,192,31489,128,0,32000:0:0:0:0:
28,192,32000,1,0,0:0:0:0:
85,192,32171,1,0,0:0:0:0:
85,192,32341,128,0,33193:0:0:0:0:
256,192,32682,128,0,32852:0:0:0:0:
369,192,32852,128,0,33534:0:0:0:0:
142,192,33193,1,0,0:0:0:0:
199,192,33364,1,0,0:0:0:0:
142,192,33534,128,0,34898:0:0:0:0:
426,192,33534,1,0,0:0:0:0:
369,192,33619,1,0,0:0:0:0:
312,192,33705,128,0,34046:0:0:0:0:
256,192,34046,128,0,34216:0:0:0:0:
483,192,34216,128,0,34386:0:0:0:0:
426,192,34386,128,0,34557:0:0:0:0:
369,192,34557,128,0,34727:0:0:0:0:
256,192,34727,128,0,34898:0:0:0:0:
28,192,34898,1,0,0:0:0:0:
85,192,35068,1,0,0:0:0:0:
199,192,35068,1,0,0:0:0:0:
85,192,35409,1,0,0:0:0:0:
85,192,35750,1,0,0:0:0:0:
85,192,36091,1,0,0:0:0:0:
369,192,36091,128,0,36432:0:0:0:0:
426,192,36432,1,0,0:0:0:0:
426,192,36773,1,0,0:0:0:0:
28,192,36773,128,0,36943:0:0:0:0:
85,192,36943,128,0,37114:0:0:0:0:
426,192,37114,1,0,0:0:0:0:
142,192,37114,128,0,37284:0:0:0:0:
85,192,37284,128,0,37455:0:0:0:0:
426,192,37455,1,0,0:0:0:0:
142,192,37455,128,0,37796:0:0:0:0:
369,192,37796,128,0,38307:0:0:0:0:
28,192,37796,1,0,0:0:0:0:
312,192,38307,128,0,38818:0:0:0:0:
28,192,38307,1,0,0:0:0:0:
85,192,38477,128,0,38648:0:0:0:0:
142,192,38648,128,0,38818:0:0:0:0:
256,192,38818,1,0,0:0:0:0:
85,192,38818,128,0,38989:0:0:0:0:
312,192,38903,1,0,0:0:0:0:
369,192,38989,1,0,0:0:0:0:
28,192,38989,128,0,39159:0:0:0:0:
426,192,39074,1,0,0:0:0:0:
483,192,39159,1,0,0:0:0:0:
256,192,39159,128,0,39500:0:0:0:0:
426,192,39244,1,0,0:0:0:0:
369,192,39330,1,0,0:0:0:0:
312,192,39415,1,0,0:0:0:0:
199,192,39500,128,0,39841:0:0:0:0:
483,192,39500,1,0,0:0:0:0:
483,192,39671,1,0,0:0:0:0:
142,192,39841,128,0,40182:0:0:0:0:
426,192,39841,1,0,0:0:0:0:
369,192,39926,1,0,0:0:0:0:
312,192,40011,1,0,0:0:0:0:
28,192,40182,128,0,40523:0:0:0:0:
256,192,40182,1,0,0:0:0:0:
256,192,40352,1,0,0:0:0:0:
85,192,40523,128,0,40864:0:0:0:0:
426,192,40523,1,0,0:0:0:0:
312,192,40523,1,0,0:0:0:0:
312,192,40864,1,0,0:0:0:0:
369,192,40864,1,0,0:0:0:0:
312,192,41205,1,0,0:0:0:0:
256,192,41205,1,0,0:0:0:0:
256,192,41375,1,0,0:0:0:0:
312,192,41546,1,0,0:0:0:0:
199,192,41546,1,0,0:0:0:0:
256,192,41716,128,0,42227:0:0:0:0:
142,192,41716,1,0,0:0:0:0:
199,192,42227,1,0,0:0:0:0:
85,192,42227,1,0,0:0:0:0:
199,192,42568,1,0,0:0:0:0:
85,192,42568,1,0,0:0:0:0:
199,192,42909,1,0,0:0:0:0:
85,192,42909,1,0,0:0:0:0:
142,192,43250,1,0,0:0:0:0:
28,192,43250,1,0,0:0:0:0:
142,192,43591,1,0,0:0:0:0:
28,192,43591,1,0,0:0:0:0:
142,192,43932,1,0,0:0:0:0:
28,192,43932,1,0,0:0:0:0:
142,192,44273,1,0,0:0:0:0:
28,192,44273,1,0,0:0:0:0:
85,192,44443,128,0,44955:0:0:0:0:
199,192,44443,1,0,0:0:0:0:
142,192,44955,1,0,0:0:0:0:
256,192,44955,1,0,0:0:0:0:
142,192,45296,1,0,0:0:0:0:
256,192,45296,1,0,0:0:0:0:
199,192,45466,1,0,0:0:0:0:
142,192,45636,1,0,0:0:0:0:
256,192,45636,1,0,0:0:0:0:
199,192,45977,1,0,0:0:0:0:
312,192,45977,1,0,0:0:0:0:
426,192,45977,1,0,0:0:0:0:
256,192,46318,1,0,0:0:0:0:
369,192,46318,1,0,0:0:0:0:
256,192,46659,1,0,0:0:0:0:
369,192,46659,1,0,0:0:0:0:
256,192,47000,1,0,0:0:0:0:
369,192,47000,1,0,0:0:0:0:
312,192,47171,128,0,47682:0:0:0:0:
426,192,47171,1,0,0:0:0:0:
369,192,47682,1,0,0:0:0:0:
483,192,47682,1,0,0:0:0:0:
369,192,48023,1,0,0:0:0:0:
483,192,48023,1,0,0:0:0:0:
369,192,48364,1,0,0:0:0:0:
483,192,48364,1,0,0:0:0:0:
426,192,48705,128,0,49046:0:0:0:0:
312,192,48705,1,0,0:0:0:0:
369,192,49046,128,0,49727:0:0:0:0:
256,192,49046,1,0,0:0:0:0:
256,192,49386,1,0,0:0:0:0:
256,192,49557,1,0,0:0:0:0:
312,192,49727,1,0,0:0:0:0:
199,192,49727,1,0,0:0:0:0:
256,192,49898,1,0,0:0:0:0:
142,192,49898,1,0,0:0:0:0:
199,192,50068,1,0,0:0:0:0:
142,192,50239,1,0,0:0:0:0:
256,192,50239,1,0,0:0:0:0:
199,192,50409,1,0,0:0:0:0:
85,192,50409,1,0,0:0:0:0:
312,192,50409,1,0,0:0:0:0:
142,192,50580,1,0,0:0:0:0:
85,192,50750,1,0,0:0:0:0:
199,192,50750,1,0,0:0:0:0:
142,192,50921,1,0,0:0:0:0:
28,192,51091,1,0,0:0:0:0:
256,192,51091,1,0,0:0:0:0:
28,192,51261,1,0,0:0:0:0:
256,192,51261,1,0,0:0:0:0:
142,192,51432,1,0,0:0:0:0:
369,192,51432,128,0,51943:0:0:0:0:
256,192,51943,1,0,0:0:0:0:
256,192,52114,128,0,52284:0:0:0:0:
256,192,52455,1,0,0:0:0:0:
256,192,52625,1,0,0:0:0:0:
483,192,52625,1,0,0:0:0:0:
256,192,52966,1,0,0:0:0:0:
28,192,52966,1,0,0:0:0:0:
256,192,53307,1,0,0:0:0:0:
28,192,53307,1,0,0:0:0:0:
85,192,53477,128,0,53818:0:0:0:0:
28,192,53818,1,0,0:0:0:0:
142,192,53989,1,0,0:0:0:0:
256,192,54159,1,0,0:0:0:0:
483,192,54159,128,0,54841:0:0:0:0:
312,192,54500,1,0,0:0:0:0:
256,192,54671,1,0,0:0:0:0:
369,192,54841,1,0,0:0:0:0:
256,192,55011,1,0,0:0:0:0:
426,192,55182,1,0,0:0:0:0:
256,192,55352,1,0,0:0:0:0:
483,192,55523,1,0,0:0:0:0:
256,192,55693,1,0,0:0:0:0:
426,192,55864,1,0,0:0:0:0:
256,192,56034,1,0,0:0:0:0:
369,192,56205,1,0,0:0:0:0:
256,192,56375,1,0,0:0:0:0:
312,192,56546,1,0,0:0:0:0:
256,192,56716,1,0,0:0:0:0:
28,192,56886,1,0,0:0:0:0:
85,192,56886,1,0,0:0:0:0:
199,192,56886,128,0,57398:0:0:0:0:
142,192,57398,128,0,57568:0:0:0:0:
199,192,57568,1,0,0:0:0:0:
256,192,57909,1,0,0:0:0:0:
312,192,58080,1,0,0:0:0:0:
483,192,58080,128,0,58421:0:0:0:0:
256,192,58421,1,0,0:0:0:0:
256,192,58761,1,0,0:0:0:0:
199,192,58932,128,0,59273:0:0:0:0:
85,192,59273,1,0,0:0:0:0:
142,192,59443,1,0,0:0:0:0:
199,192,59614,128,0,60296:0:0:0:0:
483,192,59614,1,0,0:0:0:0:
483,192,59955,1,0,0:0:0:0:
142,192,60296,128,0,60977:0:0:0:0:
426,192,60296,1,0,0:0:0:0:
426,192,60636,1,0,0:0:0:0:
85,192,60977,1,0,0:0:0:0:
28,192,61148,1,0,0:0:0:0:
256,192,61318,128,0,61659:0:0:0:0:
142,192,61318,1,0,0:0:0:0:
28,192,61489,1,0,0:0:0:0:
312,192,61659,128,0,62000:0:0:0:0:
199,192,61659,1,0,0:0:0:0:
28,192,61830,1,0,0:0:0:0:
256,192,62000,1,0,0:0:0:0:
369,192,62000,128,0,62341:0:0:0:0:
426,192,62341,128,0,63023:0:0:0:0:
85,192,62341,1,0,0:0:0:0:
85,192,62852,1,0,0:0:0:0:
85,192,63023,1,0,0:0:0:0:
256,192,63364,1,0,0:0:0:0:
28,192,63705,128,0,64216:0:0:0:0:
483,192,63705,1,0,0:0:0:0:
483,192,64216,1,0,0:0:0:0:
483,192,64386,1,0,0:0:0:0:
312,192,64557,1,0,0:0:0:0:
312,192,64727,1,0,0:0:0:0:
369,192,65068,128,0,65750:0:0:0:0:
142,192,65068,1,0,0:0:0:0:
142,192,65580,1,0,0:0:0:0:
142,192,65750,1,0,0:0:0:0:
199,192,66091,1,0,0:0:0:0:
256,192,66432,128,0,67114:0:0:0:0:
312,192,66943,1,0,0:0:0:0:
312,192,67114,1,0,0:0:0:0:
369,192,67284,1,0,0:0:0:0:
426,192,67455,1,0,0:0:0:0:
85,192,67455,1,0,0:0:0:0:
28,192,67796,1,0,0:0:0:0:
256,192,67796,1,0,0:0:0:0:
483,192,67796,1,0,0:0:0:0:
426,192,68136,1,0,0:0:0:0:
85,192,68136,1,0,0:0:0:0:
142,192,68477,1,0,0:0:0:0:
369,192,68477,1,0,0:0:0:0:
312,192,68818,1,0,0:0:0:0:
199,192,68818,1,0,0:0:0:0:
426,192,68989,128,0,70182:0:0:0:0:
199,192,69159,1,0,0:0:0:0:
312,192,69159,1,0,0:0:0:0:
312,192,69330,1,0,0:0:0:0:
199,192,69330,1,0,0:0:0:0:
199,192,69500,1,0,0:0:0:0:
312,192,69500,1,0,0:0:0:0:
256,192,69671,1,0,0:0:0:0:
369,192,69841,1,0,0:0:0:0:
142,192,69841,1,0,0:0:0:0:
142,192,70011,1,0,0:0:0:0:
369,192,70011,1,0,0:0:0:0:
369,192,70182,1,0,0:0:0:0:
142,192,70182,1,0,0:0:0:0:
256,192,70352,1,0,0:0:0:0:
28,192,70523,1,0,0:0:0:0:
483,192,70523,128,0,70693:0:0:0:0:
256,192,70693,1,0,0:0:0:0:
256,192,70864,1,0,0:0:0:0:
426,192,71034,128,0,71205:0:0:0:0:
85,192,71034,1,0,0:0:0:0:
256,192,71205,1,0,0:0:0:0:
256,192,71375,1,0,0:0:0:0:
369,192,71546,1,0,0:0:0:0:
142,192,71546,1,0,0:0:0:0:
199,192,71716,1,0,0:0:0:0:
312,192,71716,1,0,0:0:0:0:
28,192,71716,128,0,73250:0:0:0:0:
256,192,71886,1,0,0:0:0:0:
312,192,71972,1,0,0:0:0:0:
369,192,72057,1,0,0:0:0:0:
426,192,72142,1,0,0:0:0:0:
483,192,72227,1,0,0:0:0:0:
256,192,72398,1,0,0:0:0:0:
483,192,72568,1,0,0:0:0:0:
426,192,72653,1,0,0:0:0:0:
369,192,72739,1,0,0:0:0:0:
312,192,72824,1,0,0:0:0:0:
256,192,72909,1,0,0:0:0:0:
199,192,72994,1,0,0:0:0:0:
142,192,73080,1,0,0:0:0:0:
85,192,73165,1,0,0:0:0:0:
256,192,73250,1,0,0:0:0:0:
483,192,73250,1,0,0:0:0:0:
483,192,73591,1,0,0:0:0:0:
256,192,73591,1,0,0:0:0:0:
369,192,73591,1,0,0:0:0:0:
483,192,73932,1,0,0:0:0:0:
256,192,73932,1,0,0:0:0:0:
256,192,74273,1,0,0:0:0:0:
483,192,74273,1,0,0:0:0:0:
369,192,74273,1,0,0:0:0:0:
426,192,74614,1,0,0:0:0:0:
199,192,74614,1,0,0:0:0:0:
199,192,74955,1,0,0:0:0:0:
426,192,74955,1,0,0:0:0:0:
312,192,74955,1,0,0:0:0:0:
199,192,75296,1,0,0:0:0:0:
426,192,75296,1,0,0:0:0:0:
199,192,75636,1,0,0:0:0:0:
426,192,75636,1,0,0:0:0:0:
312,192,75636,1,0,0:0:0:0:
369,192,75977,1,0,0:0:0:0:
142,192,75977,1,0,0:0:0:0:
142,192,76318,1,0,0:0:0:0:
256,192,76318,1,0,0:0:0:0:
369,192,76318,1,0,0:0:0:0:
142,192,76659,1,0,0:0:0:0:
369,192,76659,1,0,0:0:0:0:
142,192,77000,1,0,0:0:0:0:
256,192,77000,1,0,0:0:0:0:
369,192,77000,1,0,0:0:0:0:
312,192,77341,1,0,0:0:0:0:
85,192,77341,1,0,0:0:0:0:
85,192,77682,1,0,0:0:0:0:
199,192,77682,1,0,0:0:0:0:
312,192,77682,1,0,0:0:0:0:
256,192,78023,1,0,0:0:0:0:
28,192,78023,1,0,0:0:0:0:
142,192,78193,1,0,0:0:0:0:
28,192,78364,1,0,0:0:0:0:
142,192,78364,1,0,0:0:0:0:
256,192,78364,1,0,0:0:0:0:
85,192,78534,1,0,0:0:0:0:
199,192,78534,1,0,0:0:0:0:
199,192,78705,1,0,0:0:0:0:
85,192,78705,128,0,79046:0:0:0:0:
28,192,79046,1,0,0:0:0:0:
256,192,79046,1,0,0:0:0:0:
142,192,79386,1,0,0:0:0:0:
369,192,79386,1,0,0:0:0:0:
256,192,79557,1,0,0:0:0:0:
142,192,79727,1,0,0:0:0:0:
256,192,79727,1,0,0:0:0:0:
369,192,79727,1,0,0:0:0:0:
199,192,80068,1,0,0:0:0:0:
312,192,80068,128,0,80409:0:0:0:0:
142,192,80409,1,0,0:0:0:0:
369,192,80409,1,0,0:0:0:0:
199,192,80750,1,0,0:0:0:0:
426,192,80750,1,0,0:0:0:0:
256,192,81091,1,0,0:0:0:0:
369,192,81091,1,0,0:0:0:0:
483,192,81091,1,0,0:0:0:0:
426,192,81261,1,0,0:0:0:0:
312,192,81261,1,0,0:0:0:0:
369,192,81432,128,0,81602:0:0:0:0:
256,192,81602,1,0,0:0:0:0:
483,192,81773,1,0,0:0:0:0:
256,192,81773,1,0,0:0:0:0:
256,192,81943,1,0,0:0:0:0:
483,192,81943,1,0,0:0:0:0:
426,192,82114,1,0,0:0:0:0:
369,192,82199,1,0,0:0:0:0:
312,192,82284,1,0,0:0:0:0:
369,192,82455,128,0,82625:0:0:0:0:
142,192,82455,1,0,0:0:0:0:
256,192,82625,128,0,82796:0:0:0:0:
28,192,82625,1,0,0:0:0:0:
199,192,82796,1,0,0:0:0:0:
142,192,82966,1,0,0:0:0:0:
85,192,83136,1,0,0:0:0:0:
256,192,83136,1,0,0:0:0:0:
426,192,83136,1,0,0:0:0:0:
256,192,83307,1,0,0:0:0:0:
142,192,83307,1,0,0:0:0:0:
369,192,83307,1,0,0:0:0:0:
199,192,83477,1,0,0:0:0:0:
312,192,83563,1,0,0:0:0:0:
199,192,83648,1,0,0:0:0:0:
312,192,83733,1,0,0:0:0:0:
28,192,83818,1,0,0:0:0:0:
256,192,83818,1,0,0:0:0:0:
199,192,83989,1,0,0:0:0:0:
85,192,83989,1,0,0:0:0:0:
28,192,84159,1,0,0:0:0:0:
256,192,84159,1,0,0:0:0:0:
28,192,84500,1,0,0:0:0:0:
256,192,84500,1,0,0:0:0:0:
142,192,84500,1,0,0:0:0:0:
256,192,84841,1,0,0:0:0:0:
28,192,84841,1,0,0:0:0:0:
28,192,85182,1,0,0:0:0:0:
256,192,85182,1,0,0:0:0:0:
142,192,85182,1,0,0:0:0:0:
85,192,85523,1,0,0:0:0:0:
312,192,85523,1,0,0:0:0:0:
85,192,85864,1,0,0:0:0:0:
199,192,85864,1,0,0:0:0:0:
312,192,85864,1,0,0:0:0:0:
312,192,86205,1,0,0:0:0:0:
85,192,86205,1,0,0:0:0:0:
199,192,86375,1,0,0:0:0:0:
85,192,86546,1,0,0:0:0:0:
199,192,86546,1,0,0:0:0:0:
312,192,86546,1,0,0:0:0:0:
85,192,86716,1,0,0:0:0:0:
312,192,86716,1,0,0:0:0:0:
142,192,86886,1,0,0:0:0:0:
369,192,86886,1,0,0:0:0:0:
142,192,87227,1,0,0:0:0:0:
256,192,87227,1,0,0:0:0:0:
369,192,87227,1,0,0:0:0:0:
369,192,87568,1,0,0:0:0:0:
142,192,87568,1,0,0:0:0:0:
142,192,87909,1,0,0:0:0:0:
256,192,87909,1,0,0:0:0:0:
369,192,87909,1,0,0:0:0:0:
199,192,88250,1,0,0:0:0:0:
426,192,88250,1,0,0:0:0:0:
199,192,88591,1,0,0:0:0:0:
312,192,88591,1,0,0:0:0:0:
426,192,88591,1,0,0:0:0:0:
256,192,88932,1,0,0:0:0:0:
483,192,88932,1,0,0:0:0:0:
256,192,89273,1,0,0:0:0:0:
369,192,89273,1,0,0:0:0:0:
483,192,89273,1,0,0:0:0:0:
312,192,89443,1,0,0:0:0:0:
426,192,89443,1,0,0:0:0:0:
312,192,89614,1,0,0:0:0:0:
426,192,89614,128,0,89955:0:0:0:0:
256,192,89955,1,0,0:0:0:0:
483,192,89955,1,0,0:0:0:0:
369,192,90296,1,0,0:0:0:0:
142,192,90296,1,0,0:0:0:0:
369,192,90636,1,0,0:0:0:0:
142,192,90636,1,0,0:0:0:0:
256,192,90636,1,0,0:0:0:0:
199,192,90807,128,0,91318:0:0:0:0:
312,192,90807,1,0,0:0:0:0:
256,192,91148,1,0,0:0:0:0:
369,192,91318,1,0,0:0:0:0:
142,192,91318,1,0,0:0:0:0:
256,192,91489,1,0,0:0:0:0:
369,192,91659,1,0,0:0:0:0:
142,192,91659,1,0,0:0:0:0:
312,192,91830,1,0,0:0:0:0:
85,192,91830,1,0,0:0:0:0:
28,192,92000,1,0,0:0:0:0:
256,192,92000,1,0,0:0:0:0:
142,192,92000,1,0,0:0:0:0:
199,192,92171,1,0,0:0:0:0:
85,192,92171,1,0,0:0:0:0:
256,192,92341,1,0,0:0:0:0:
142,192,92341,1,0,0:0:0:0:
369,192,92341,1,0,0:0:0:0:
28,192,92511,1,0,0:0:0:0:
85,192,92682,1,0,0:0:0:0:
256,192,92682,1,0,0:0:0:0:
142,192,92852,1,0,0:0:0:0:
28,192,93023,1,0,0:0:0:0:
256,192,93023,1,0,0:0:0:0:
85,192,93193,1,0,0:0:0:0:
256,192,93364,1,0,0:0:0:0:
142,192,93364,1,0,0:0:0:0:
28,192,93534,128,0,95068:0:0:0:0:
199,192,93534,1,0,0:0:0:0:
312,192,93534,1,0,0:0:0:0:
426,192,93534,1,0,0:0:0:0:
256,192,93705,1,0,0:0:0:0:
256,192,94046,1,0,0:0:0:0:
256,192,94216,1,0,0:0:0:0:
142,192,94386,1,0,0:0:0:0:
369,192,94472,1,0,0:0:0:0:
142,192,94557,1,0,0:0:0:0:
369,192,94642,1,0,0:0:0:0:
312,192,94727,1,0,0:0:0:0:
199,192,94727,1,0,0:0:0:0:
256,192,94898,1,0,0:0:0:0:
142,192,95068,1,0,0:0:0:0:
369,192,95068,1,0,0:0:0:0:
312,192,95239,1,0,0:0:0:0:
142,192,95409,1,0,0:0:0:0:
369,192,95409,1,0,0:0:0:0:
199,192,95580,1,0,0:0:0:0:
369,192,95750,1,0,0:0:0:0:
142,192,95750,1,0,0:0:0:0:
312,192,95921,1,0,0:0:0:0:
142,192,96091,1,0,0:0:0:0:
369,192,96091,1,0,0:0:0:0:
256,192,96261,1,0,0:0:0:0:
312,192,96432,1,0,0:0:0:0:
199,192,96432,1,0,0:0:0:0:
256,192,96602,1,0,0:0:0:0:
199,192,96773,1,0,0:0:0:0:
312,192,96773,1,0,0:0:0:0:
256,192,96943,1,0,0:0:0:0:
199,192,97114,1,0,0:0:0:0:
312,192,97114,1,0,0:0:0:0:
256,192,97284,1,0,0:0:0:0:
199,192,97455,1,0,0:0:0:0:
312,192,97455,1,0,0:0:0:0:
256,192,97625,1,0,0:0:0:0:
85,192,97796,1,0,0:0:0:0:
426,192,97796,1,0,0:0:0:0:
199,192,97966,1,0,0:0:0:0:
85,192,98136,1,0,0:0:0:0:
426,192,98136,1,0,0:0:0:0:
312,192,98307,1,0,0:0:0:0:
426,192,98477,1,0,0:0:0:0:
85,192,98477,1,0,0:0:0:0:
199,192,98648,1,0,0:0:0:0:
85,192,98818,1,0,0:0:0:0:
426,192,98818,1,0,0:0:0:0:
312,192,98989,128,0,99159:0:0:0:0:
28,192,99159,1,0,0:0:0:0:
142,192,99159,1,0,0:0:0:0:
28,192,99330,1,0,0:0:0:0:
142,192,99330,1,0,0:0:0:0:
85,192,99500,1,0,0:0:0:0:
199,192,99500,1,0,0:0:0:0:
85,192,99671,1,0,0:0:0:0:
199,192,99671,1,0,0:0:0:0:
142,192,99841,1,0,0:0:0:0:
256,192,99841,1,0,0:0:0:0:
483,192,99841,1,0,0:0:0:0:
426,192,99926,1,0,0:0:0:0:
369,192,100011,1,0,0:0:0:0:
85,192,100011,1,0,0:0:0:0:
199,192,100011,1,0,0:0:0:0:
483,192,100182,1,0,0:0:0:0:
142,192,100182,1,0,0:0:0:0:
256,192,100182,1,0,0:0:0:0:
426,192,100267,1,0,0:0:0:0:
369,192,100352,1,0,0:0:0:0:
199,192,100352,1,0,0:0:0:0:
85,192,100352,1,0,0:0:0:0:
312,192,100438,1,0,0:0:0:0:
142,192,100523,1,0,0:0:0:0:
256,192,100523,1,0,0:0:0:0:
28,192,100523,128,0,101546:0:0:0:0:
256,192,101546,1,0,0:0:0:0:
256,192,101716,128,0,102909:0:0:0:0:
426,192,102227,128,0,102568:0:0:0:0:
312,192,102568,1,0,0:0:0:0:
426,192,102739,128,0,103250:0:0:0:0:
142,192,102909,1,0,0:0:0:0:
312,192,103250,128,0,103761:0:0:0:0:
85,192,103250,1,0,0:0:0:0:
256,192,103591,1,0,0:0:0:0:
256,192,103761,1,0,0:0:0:0:
369,192,103761,128,0,104614:0:0:0:0:
199,192,103932,1,0,0:0:0:0:
312,192,104017,1,0,0:0:0:0:
199,192,104102,1,0,0:0:0:0:
142,192,104273,1,0,0:0:0:0:
142,192,104443,128,0,104784:0:0:0:0:
28,192,104784,1,0,0:0:0:0:
28,192,104955,1,0,0:0:0:0:
28,192,105296,1,0,0:0:0:0:
426,192,105296,1,0,0:0:0:0:
483,192,105338,128,0,105977:0:0:0:0:
85,192,105636,1,0,0:0:0:0:
85,192,105807,1,0,0:0:0:0:
142,192,105977,1,0,0:0:0:0:
369,192,105977,1,0,0:0:0:0:
369,192,106318,1,0,0:0:0:0:
369,192,106659,1,0,0:0:0:0:
369,192,107000,1,0,0:0:0:0:
426,192,107000,128,0,107341:0:0:0:0:
28,192,107341,1,0,0:0:0:0:
483,192,107341,1,0,0:0:0:0:
483,192,107682,1,0,0:0:0:0:
28,192,107682,128,0,107852:0:0:0:0:
85,192,107852,128,0,108023:0:0:0:0:
483,192,108023,1,0,0:0:0:0:
142,192,108023,128,0,108193:0:0:0:0:
85,192,108193,128,0,108364:0:0:0:0:
369,192,108193,1,0,0:0:0:0:
483,192,108364,1,0,0:0:0:0:
142,192,108364,128,0,108534:0:0:0:0:
256,192,108534,1,0,0:0:0:0:
256,192,108705,128,0,109046:0:0:0:0:
312,192,108705,1,0,0:0:0:0:
369,192,108790,128,0,109216:0:0:0:0:
85,192,109046,1,0,0:0:0:0:
312,192,109216,1,0,0:0:0:0:
369,192,109301,1,0,0:0:0:0:
85,192,109386,128,0,109557:0:0:0:0:
426,192,109386,128,0,109727:0:0:0:0:
142,192,109557,128,0,109727:0:0:0:0:
85,192,109727,1,0,0:0:0:0:
256,192,109727,1,0,0:0:0:0:
312,192,109813,1,0,0:0:0:0:
85,192,109898,1,0,0:0:0:0:
369,192,109898,1,0,0:0:0:0:
426,192,109983,1,0,0:0:0:0:
483,192,110068,1,0,0:0:0:0:
256,192,110068,128,0,110409:0:0:0:0:
426,192,110409,1,0,0:0:0:0:
199,192,110409,128,0,110750:0:0:0:0:
426,192,110580,1,0,0:0:0:0:
369,192,110750,1,0,0:0:0:0:
142,192,110750,128,0,111091:0:0:0:0:
369,192,110921,1,0,0:0:0:0:
28,192,111091,128,0,111432:0:0:0:0:
256,192,111091,1,0,0:0:0:0:
312,192,111176,1,0,0:0:0:0:
369,192,111261,1,0,0:0:0:0:
256,192,111432,1,0,0:0:0:0:
85,192,111432,128,0,111773:0:0:0:0:
426,192,111432,1,0,0:0:0:0:
142,192,111773,1,0,0:0:0:0:
369,192,111773,1,0,0:0:0:0:
369,192,112114,1,0,0:0:0:0:
142,192,112114,1,0,0:0:0:0:
256,192,112284,1,0,0:0:0:0:
142,192,112455,1,0,0:0:0:0:
369,192,112455,1,0,0:0:0:0:
369,192,112625,1,0,0:0:0:0:
142,192,112625,128,0,113136:0:0:0:0:
199,192,113136,1,0,0:0:0:0:
312,192,113136,1,0,0:0:0:0:
142,192,113477,1,0,0:0:0:0:
369,192,113477,1,0,0:0:0:0:
426,192,113818,1,0,0:0:0:0:
85,192,113818,1,0,0:0:0:0:
483,192,114159,1,0,0:0:0:0:
28,192,114159,1,0,0:0:0:0:
483,192,114500,1,0,0:0:0:0:
28,192,114500,1,0,0:0:0:0:
85,192,114841,1,0,0:0:0:0:
426,192,114841,1,0,0:0:0:0:
142,192,115182,1,0,0:0:0:0:
369,192,115182,1,0,0:0:0:0:
85,192,115352,128,0,115864:0:0:0:0:
426,192,115352,1,0,0:0:0:0:
199,192,115864,1,0,0:0:0:0:
312,192,115864,128,0,116546:0:0:0:0:
142,192,116546,1,0,0:0:0:0:
369,192,116546,1,0,0:0:0:0:
256,192,116886,1,0,0:0:0:0:
483,192,116886,1,0,0:0:0:0:
28,192,116886,128,0,117568:0:0:0:0:
142,192,117568,1,0,0:0:0:0:
369,192,117568,1,0,0:0:0:0:
199,192,117909,1,0,0:0:0:0:
312,192,117909,1,0,0:0:0:0:
369,192,118080,1,0,0:0:0:0:
142,192,118080,1,0,0:0:0:0:
256,192,118250,1,0,0:0:0:0:
256,192,118591,1,0,0:0:0:0:
199,192,118761,1,0,0:0:0:0:
142,192,118932,1,0,0:0:0:0:
369,192,119017,1,0,0:0:0:0:
142,192,119102,1,0,0:0:0:0:
312,192,119273,1,0,0:0:0:0:
199,192,119358,1,0,0:0:0:0:
312,192,119443,1,0,0:0:0:0:
483,192,119614,128,0,119955:0:0:0:0:
28,192,119614,1,0,0:0:0:0:
426,192,119955,1,0,0:0:0:0:
28,192,119955,1,0,0:0:0:0:
426,192,120125,128,0,122341:0:0:0:0:
28,192,120296,1,0,0:0:0:0:
28,192,120636,1,0,0:0:0:0:
85,192,120807,128,0,121148:0:0:0:0:
199,192,120807,1,0,0:0:0:0:
312,192,120807,1,0,0:0:0:0:
142,192,121148,128,0,121318:0:0:0:0:
256,192,121318,1,0,0:0:0:0:
28,192,121318,128,0,121659:0:0:0:0:
256,192,121659,1,0,0:0:0:0:
256,192,122000,1,0,0:0:0:0:
85,192,122000,1,0,0:0:0:0:
256,192,122171,1,0,0:0:0:0:
85,192,122171,1,0,0:0:0:0:
199,192,122341,1,0,0:0:0:0:
312,192,122341,128,0,123023:0:0:0:0:
256,192,122852,1,0,0:0:0:0:
256,192,123023,1,0,0:0:0:0:
256,192,123364,1,0,0:0:0:0:
312,192,123534,1,0,0:0:0:0:
199,192,123534,128,0,123875:0:0:0:0:
142,192,123875,1,0,0:0:0:0:
142,192,124216,1,0,0:0:0:0:
85,192,124386,128,0,124727:0:0:0:0:
142,192,124727,1,0,0:0:0:0:
199,192,124898,1,0,0:0:0:0:
256,192,125068,1,0,0:0:0:0:
426,192,125068,128,0,125750:0:0:0:0:
28,192,125239,1,0,0:0:0:0:
199,192,125409,1,0,0:0:0:0:
28,192,125580,1,0,0:0:0:0:
142,192,125750,1,0,0:0:0:0:
369,192,125750,128,0,126432:0:0:0:0:
28,192,125921,1,0,0:0:0:0:
85,192,126091,1,0,0:0:0:0:
142,192,126176,1,0,0:0:0:0:
28,192,126261,1,0,0:0:0:0:
199,192,126261,1,0,0:0:0:0:
256,192,126432,128,0,126773:0:0:0:0:
142,192,126773,1,0,0:0:0:0:
369,192,126773,1,0,0:0:0:0:
312,192,127114,1,0,0:0:0:0:
426,192,127114,1,0,0:0:0:0:
426,192,127284,1,0,0:0:0:0:
312,192,127284,1,0,0:0:0:0:
369,192,127455,1,0,0:0:0:0:
426,192,127540,1,0,0:0:0:0:
483,192,127625,1,0,0:0:0:0:
426,192,127796,1,0,0:0:0:0:
256,192,127796,1,0,0:0:0:0:
85,192,127796,128,0,128477:0:0:0:0:
256,192,128307,1,0,0:0:0:0:
256,192,128477,1,0,0:0:0:0:
199,192,128818,1,0,0:0:0:0:
312,192,128818,1,0,0:0:0:0:
312,192,128989,1,0,0:0:0:0:
426,192,128989,128,0,129330:0:0:0:0:
256,192,129330,1,0,0:0:0:0:
256,192,129671,1,0,0:0:0:0:
199,192,129841,128,0,130182:0:0:0:0:
142,192,130011,1,0,0:0:0:0:
142,192,130182,1,0,0:0:0:0:
85,192,130352,1,0,0:0:0:0:
28,192,130523,1,0,0:0:0:0:
483,192,130693,1,0,0:0:0:0:
85,192,130864,1,0,0:0:0:0:
426,192,131034,1,0,0:0:0:0:
142,192,131205,1,0,0:0:0:0:
369,192,131375,1,0,0:0:0:0:
199,192,131546,1,0,0:0:0:0:
312,192,131716,1,0,0:0:0:0:
256,192,131886,1,0,0:0:0:0:
483,192,131886,1,0,0:0:0:0:
426,192,132227,1,0,0:0:0:0:
312,192,132227,1,0,0:0:0:0:
85,192,132227,128,0,132568:0:0:0:0:
426,192,132398,1,0,0:0:0:0:
312,192,132398,1,0,0:0:0:0:
369,192,132568,1,0,0:0:0:0:
142,192,132568,128,0,132909:0:0:0:0:
312,192,132653,1,0,0:0:0:0:
256,192,132739,1,0,0:0:0:0:
199,192,132909,128,0,133250:0:0:0:0:
28,192,132909,1,0,0:0:0:0:
85,192,133080,1,0,0:0:0:0:
28,192,133250,1,0,0:0:0:0:
312,192,133250,1,0,0:0:0:0:
142,192,133250,1,0,0:0:0:0:
256,192,133250,128,0,133932:0:0:0:0:
483,192,133761,1,0,0:0:0:0:
483,192,133932,1,0,0:0:0:0:
369,192,134273,1,0,0:0:0:0:
312,192,134614,1,0,0:0:0:0:
426,192,134614,128,0,135296:0:0:0:0:
256,192,135125,1,0,0:0:0:0:
256,192,135296,1,0,0:0:0:0:
199,192,135466,1,0,0:0:0:0:
142,192,135636,1,0,0:0:0:0:
28,192,135977,1,0,0:0:0:0:
142,192,135977,128,0,136659:0:0:0:0:
256,192,136489,1,0,0:0:0:0:
256,192,136659,1,0,0:0:0:0:
369,192,137000,1,0,0:0:0:0:
426,192,137341,1,0,0:0:0:0:
85,192,137341,128,0,138023:0:0:0:0:
256,192,137852,1,0,0:0:0:0:
256,192,138023,1,0,0:0:0:0:
199,192,138364,1,0,0:0:0:0:
312,192,138364,1,0,0:0:0:0:
142,192,138705,1,0,0:0:0:0:
369,192,138705,1,0,0:0:0:0:
28,192,138705,128,0,139898:0:0:0:0:
369,192,139046,1,0,0:0:0:0:
142,192,139046,1,0,0:0:0:0:
369,192,139386,1,0,0:0:0:0:
142,192,139386,1,0,0:0:0:0:
142,192,139727,1,0,0:0:0:0:
369,192,139727,1,0,0:0:0:0:
85,192,139898,128,0,141432:0:0:0:0:
199,192,140068,1,0,0:0:0:0:
312,192,140068,1,0,0:0:0:0:
256,192,140239,1,0,0:0:0:0:
369,192,140239,1,0,0:0:0:0:
312,192,140409,1,0,0:0:0:0:
426,192,140409,1,0,0:0:0:0:
483,192,140750,1,0,0:0:0:0:
369,192,140750,1,0,0:0:0:0:
426,192,140921,1,0,0:0:0:0:
312,192,140921,1,0,0:0:0:0:
369,192,141091,1,0,0:0:0:0:
256,192,141091,1,0,0:0:0:0:
312,192,141261,1,0,0:0:0:0:
256,192,141432,1,0,0:0:0:0:
426,192,141432,128,0,141773:0:0:0:0:
256,192,141602,1,0,0:0:0:0:
312,192,141773,1,0,0:0:0:0:
199,192,141773,1,0,0:0:0:0:
369,192,141943,128,0,142625:0:0:0:0:
256,192,141943,1,0,0:0:0:0:
28,192,142114,1,0,0:0:0:0:
85,192,142199,1,0,0:0:0:0:
142,192,142284,1,0,0:0:0:0:
199,192,142455,1,0,0:0:0:0:
312,192,142455,1,0,0:0:0:0:
312,192,142625,1,0,0:0:0:0:
199,192,142625,128,0,143136:0:0:0:0:
483,192,142625,1,0,0:0:0:0:
426,192,142710,1,0,0:0:0:0:
369,192,142796,1,0,0:0:0:0:
312,192,142881,1,0,0:0:0:0:
256,192,142966,1,0,0:0:0:0:
426,192,143051,1,0,0:0:0:0:
85,192,143051,1,0,0:0:0:0:
28,192,143136,1,0,0:0:0:0:
483,192,143136,1,0,0:0:0:0:
256,192,143477,1,0,0:0:0:0:
426,192,143477,1,0,0:0:0:0:
426,192,143648,1,0,0:0:0:0:
256,192,143648,1,0,0:0:0:0:
199,192,143818,1,0,0:0:0:0:
256,192,143903,1,0,0:0:0:0:
312,192,143989,1,0,0:0:0:0:
369,192,144074,1,0,0:0:0:0:
256,192,144159,1,0,0:0:0:0:
85,192,144159,1,0,0:0:0:0:
426,192,144159,1,0,0:0:0:0:
85,192,144500,1,0,0:0:0:0:
256,192,144500,1,0,0:0:0:0:
426,192,144500,1,0,0:0:0:0:
426,192,144841,1,0,0:0:0:0:
85,192,144841,1,0,0:0:0:0:
85,192,145182,1,0,0:0:0:0:
256,192,145182,1,0,0:0:0:0:
426,192,145182,1,0,0:0:0:0:
369,192,145523,1,0,0:0:0:0:
142,192,145523,1,0,0:0:0:0:
142,192,145864,1,0,0:0:0:0:
256,192,145864,1,0,0:0:0:0:
369,192,145864,1,0,0:0:0:0:
369,192,146205,1,0,0:0:0:0:
142,192,146205,1,0,0:0:0:0:
142,192,146546,1,0,0:0:0:0:
256,192,146546,1,0,0:0:0:0:
369,192,146546,1,0,0:0:0:0:
312,192,146716,1,0,0:0:0:0:
256,192,146886,1,0,0:0:0:0:
483,192,146886,1,0,0:0:0:0:
256,192,147227,1,0,0:0:0:0:
369,192,147227,1,0,0:0:0:0:
483,192,147227,1,0,0:0:0:0:
199,192,147568,1,0,0:0:0:0:
426,192,147568,1,0,0:0:0:0:
369,192,147909,1,0,0:0:0:0:
256,192,147909,1,0,0:0:0:0:
142,192,147909,1,0,0:0:0:0:
312,192,148250,1,0,0:0:0:0:
85,192,148250,1,0,0:0:0:0:
85,192,148591,1,0,0:0:0:0:
199,192,148591,1,0,0:0:0:0:
312,192,148591,1,0,0:0:0:0:
312,192,148932,1,0,0:0:0:0:
85,192,148932,1,0,0:0:0:0:
85,192,149273,1,0,0:0:0:0:
199,192,149273,1,0,0:0:0:0:
312,192,149273,1,0,0:0:0:0:
256,192,149443,1,0,0:0:0:0:
142,192,149443,1,0,0:0:0:0:
142,192,149614,128,0,149955:0:0:0:0:
256,192,149614,1,0,0:0:0:0:
199,192,149955,1,0,0:0:0:0:
312,192,149955,1,0,0:0:0:0:
199,192,150296,1,0,0:0:0:0:
426,192,150296,1,0,0:0:0:0:
312,192,150466,1,0,0:0:0:0:
199,192,150636,1,0,0:0:0:0:
426,192,150636,1,0,0:0:0:0:
312,192,150636,1,0,0:0:0:0:
256,192,150977,1,0,0:0:0:0:
369,192,150977,128,0,151318:0:0:0:0:
312,192,151318,1,0,0:0:0:0:
199,192,151318,1,0,0:0:0:0:
256,192,151659,1,0,0:0:0:0:
312,192,152000,1,0,0:0:0:0:
199,192,152000,1,0,0:0:0:0:
85,192,152000,1,0,0:0:0:0:
256,192,152171,1,0,0:0:0:0:
142,192,152171,1,0,0:0:0:0:
142,192,152341,1,0,0:0:0:0:
256,192,152341,1,0,0:0:0:0:
28,192,152341,128,0,152511:0:0:0:0:
199,192,152511,1,0,0:0:0:0:
142,192,152682,1,0,0:0:0:0:
256,192,152682,1,0,0:0:0:0:
369,192,152682,1,0,0:0:0:0:
142,192,153023,1,0,0:0:0:0:
369,192,153023,1,0,0:0:0:0:
256,192,153023,1,0,0:0:0:0:
199,192,153193,1,0,0:0:0:0:
256,192,153364,1,0,0:0:0:0:
369,192,153364,128,0,153534:0:0:0:0:
312,192,153534,128,0,153705:0:0:0:0:
199,192,153534,1,0,0:0:0:0:
142,192,153705,1,0,0:0:0:0:
142,192,154046,1,0,0:0:0:0:
256,192,154046,1,0,0:0:0:0:
369,192,154046,1,0,0:0:0:0:
312,192,154216,1,0,0:0:0:0:
199,192,154216,1,0,0:0:0:0:
85,192,154216,1,0,0:0:0:0:
142,192,154386,1,0,0:0:0:0:
199,192,154472,1,0,0:0:0:0:
256,192,154557,1,0,0:0:0:0:
312,192,154727,1,0,0:0:0:0:
369,192,154727,1,0,0:0:0:0:
199,192,154898,1,0,0:0:0:0:
142,192,154898,1,0,0:0:0:0:
28,192,155068,1,0,0:0:0:0:
483,192,155068,1,0,0:0:0:0:
483,192,155409,1,0,0:0:0:0:
28,192,155409,1,0,0:0:0:0:
256,192,155409,1,0,0:0:0:0:
28,192,155750,1,0,0:0:0:0:
483,192,155750,1,0,0:0:0:0:
28,192,156091,1,0,0:0:0:0:
256,192,156091,1,0,0:0:0:0:
483,192,156091,1,0,0:0:0:0:
426,192,156432,1,0,0:0:0:0:
85,192,156432,1,0,0:0:0:0:
85,192,156773,1,0,0:0:0:0:
256,192,156773,1,0,0:0:0:0:
426,192,156773,1,0,0:0:0:0:
426,192,157114,1,0,0:0:0:0:
85,192,157114,1,0,0:0:0:0:
85,192,157455,1,0,0:0:0:0:
256,192,157455,1,0,0:0:0:0:
426,192,157455,1,0,0:0:0:0:
369,192,157625,1,0,0:0:0:0:
142,192,157625,1,0,0:0:0:0:
199,192,157796,1,0,0:0:0:0:
312,192,157796,1,0,0:0:0:0:
199,192,158136,1,0,0:0:0:0:
256,192,158136,1,0,0:0:0:0:
312,192,158136,1,0,0:0:0:0:
199,192,158477,1,0,0:0:0:0:
312,192,158477,1,0,0:0:0:0:
199,192,158818,1,0,0:0:0:0:
256,192,158818,1,0,0:0:0:0:
312,192,158818,1,0,0:0:0:0:
369,192,158989,1,0,0:0:0:0:
142,192,158989,128,0,159500:0:0:0:0:
85,192,159500,1,0,0:0:0:0:
426,192,159500,1,0,0:0:0:0:
28,192,159841,1,0,0:0:0:0:
483,192,159841,1,0,0:0:0:0:
256,192,160011,1,0,0:0:0:0:
28,192,160182,1,0,0:0:0:0:
256,192,160182,1,0,0:0:0:0:
483,192,160182,1,0,0:0:0:0:
85,192,160352,1,0,0:0:0:0:
426,192,160352,1,0,0:0:0:0:
369,192,160523,1,0,0:0:0:0:
142,192,160523,128,0,160864:0:0:0:0:
199,192,160864,1,0,0:0:0:0:
312,192,160864,1,0,0:0:0:0:
85,192,161205,1,0,0:0:0:0:
426,192,161205,1,0,0:0:0:0:
142,192,161546,1,0,0:0:0:0:
256,192,161546,1,0,0:0:0:0:
369,192,161546,1,0,0:0:0:0:
199,192,161716,1,0,0:0:0:0:
312,192,161716,128,0,162057:0:0:0:0:
256,192,162057,1,0,0:0:0:0:
142,192,162227,1,0,0:0:0:0:
369,192,162227,1,0,0:0:0:0:
256,192,162227,1,0,0:0:0:0:
85,192,162568,1,0,0:0:0:0:
426,192,162568,1,0,0:0:0:0:
256,192,162739,1,0,0:0:0:0:
426,192,162909,1,0,0:0:0:0:
85,192,162909,1,0,0:0:0:0:
142,192,163080,1,0,0:0:0:0:
369,192,163080,1,0,0:0:0:0:
199,192,163250,1,0,0:0:0:0:
312,192,163250,1,0,0:0:0:0:
256,192,163421,1,0,0:0:0:0:
199,192,163591,1,0,0:0:0:0:
312,192,163591,1,0,0:0:0:0:
199,192,163761,1,0,0:0:0:0:
312,192,163761,1,0,0:0:0:0:
369,192,163932,1,0,0:0:0:0:
312,192,164017,1,0,0:0:0:0:
256,192,164102,1,0,0:0:0:0:
199,192,164188,1,0,0:0:0:0:
142,192,164273,1,0,0:0:0:0:
28,192,164273,1,0,0:0:0:0:
256,192,164273,1,0,0:0:0:0:
369,192,164443,1,0,0:0:0:0:
256,192,164443,1,0,0:0:0:0:
483,192,164443,128,0,165977:0:0:0:0:
199,192,164955,1,0,0:0:0:0:
312,192,164955,1,0,0:0:0:0:
256,192,165125,1,0,0:0:0:0:
199,192,165296,1,0,0:0:0:0:
142,192,165381,1,0,0:0:0:0:
85,192,165466,1,0,0:0:0:0:
28,192,165551,1,0,0:0:0:0:
85,192,165636,1,0,0:0:0:0:
426,192,165636,1,0,0:0:0:0:
426,192,165807,1,0,0:0:0:0:
85,192,165807,1,0,0:0:0:0:
142,192,165977,1,0,0:0:0:0:
256,192,165977,1,0,0:0:0:0:
369,192,165977,1,0,0:0:0:0:
199,192,166318,1,0,0:0:0:0:
312,192,166318,1,0,0:0:0:0:
142,192,166659,1,0,0:0:0:0:
369,192,166659,1,0,0:0:0:0:
312,192,167000,1,0,0:0:0:0:
199,192,167000,1,0,0:0:0:0:
85,192,167341,1,0,0:0:0:0:
426,192,167341,1,0,0:0:0:0:
369,192,167682,1,0,0:0:0:0:
142,192,167682,1,0,0:0:0:0:
85,192,168023,1,0,0:0:0:0:
426,192,168023,1,0,0:0:0:0:
256,192,168193,1,0,0:0:0:0:
142,192,168364,1,0,0:0:0:0:
369,192,168364,1,0,0:0:0:0:
256,192,168534,1,0,0:0:0:0:
483,192,168705,1,0,0:0:0:0:
28,192,168705,1,0,0:0:0:0:
369,192,169046,1,0,0:0:0:0:
142,192,169046,1,0,0:0:0:0:
483,192,169386,1,0,0:0:0:0:
28,192,169386,1,0,0:0:0:0:
369,192,169727,1,0,0:0:0:0:
142,192,169727,1,0,0:0:0:0:
28,192,170068,1,0,0:0:0:0:
312,192,170068,1,0,0:0:0:0:
85,192,170239,1,0,0:0:0:0:
369,192,170239,1,0,0:0:0:0:
426,192,170409,1,0,0:0:0:0:
142,192,170409,1,0,0:0:0:0:
483,192,170580,1,0,0:0:0:0:
199,192,170580,1,0,0:0:0:0:
426,192,170750,1,0,0:0:0:0:
369,192,170835,1,0,0:0:0:0:
312,192,170921,1,0,0:0:0:0:
256,192,171006,1,0,0:0:0:0:
28,192,171091,1,0,0:0:0:0:
85,192,171176,1,0,0:0:0:0:
142,192,171261,1,0,0:0:0:0:
199,192,171347,1,0,0:0:0:0:
256,192,171432,1,0,0:0:0:0:
483,192,171432,128,0,171943:0:0:0:0:
426,192,171943,128,0,172455:0:0:0:0:
256,192,171943,1,0,0:0:0:0:
256,192,172114,1,0,0:0:0:0:
312,192,172455,128,0,172796:0:0:0:0:
199,192,172455,1,0,0:0:0:0:
369,192,172796,128,0,173307:0:0:0:0:
28,192,172796,1,0,0:0:0:0:
28,192,173136,1,0,0:0:0:0:
312,192,173307,128,0,173818:0:0:0:0:
85,192,173477,1,0,0:0:0:0:
142,192,173648,1,0,0:0:0:0:
483,192,173818,1,0,0:0:0:0:
142,192,173818,1,0,0:0:0:0:
483,192,173989,1,0,0:0:0:0:
199,192,173989,1,0,0:0:0:0:
426,192,174159,128,0,175182:0:0:0:0:
256,192,174159,1,0,0:0:0:0:
28,192,174159,1,0,0:0:0:0:
256,192,174500,1,0,0:0:0:0:
256,192,174841,1,0,0:0:0:0:
256,192,175182,1,0,0:0:0:0:
369,192,175182,128,0,175352:0:0:0:0:
256,192,175352,1,0,0:0:0:0:
426,192,175352,128,0,175864:0:0:0:0:
199,192,175523,1,0,0:0:0:0:
199,192,175693,1,0,0:0:0:0:
142,192,175864,1,0,0:0:0:0:
369,192,175864,128,0,176205:0:0:0:0:
142,192,176034,1,0,0:0:0:0:
28,192,176205,1,0,0:0:0:0:
312,192,176205,128,0,176375:0:0:0:0:
85,192,176290,1,0,0:0:0:0:
142,192,176375,1,0,0:0:0:0:
369,192,176375,128,0,176546:0:0:0:0:
28,192,176546,1,0,0:0:0:0:
312,192,176546,128,0,176716:0:0:0:0:
28,192,176716,1,0,0:0:0:0:
256,192,176716,128,0,176886:0:0:0:0:
312,192,176886,128,0,177909:0:0:0:0:
85,192,176886,1,0,0:0:0:0:
199,192,177398,1,0,0:0:0:0:
199,192,177568,1,0,0:0:0:0:
369,192,177909,128,0,178080:0:0:0:0:
142,192,177909,1,0,0:0:0:0:
426,192,178080,128,0,178250:0:0:0:0:
369,192,178250,128,0,178591:0:0:0:0:
85,192,178250,1,0,0:0:0:0:
426,192,178591,128,0,178932:0:0:0:0:
199,192,178761,1,0,0:0:0:0:
369,192,178932,128,0,179273:0:0:0:0:
199,192,178932,1,0,0:0:0:0:
312,192,179273,128,0,179614:0:0:0:0:
142,192,179273,1,0,0:0:0:0:
142,192,179443,1,0,0:0:0:0:
369,192,179614,128,0,180125:0:0:0:0:
28,192,179614,1,0,0:0:0:0:
256,192,179614,1,0,0:0:0:0:
85,192,179955,1,0,0:0:0:0:
426,192,180125,128,0,180636:0:0:0:0:
199,192,180125,1,0,0:0:0:0:
199,192,180296,1,0,0:0:0:0:
483,192,180636,128,0,180977:0:0:0:0:
142,192,180636,1,0,0:0:0:0:
426,192,180977,128,0,181659:0:0:0:0:
28,192,180977,1,0,0:0:0:0:
28,192,181318,1,0,0:0:0:0:
28,192,181659,1,0,0:0:0:0:
483,192,181659,1,0,0:0:0:0:
85,192,181744,1,0,0:0:0:0:
142,192,181830,1,0,0:0:0:0:
483,192,181830,1,0,0:0:0:0:
199,192,181915,1,0,0:0:0:0:
256,192,182000,1,0,0:0:0:0:
483,192,182000,1,0,0:0:0:0:
312,192,182085,1,0,0:0:0:0:
369,192,182171,1,0,0:0:0:0:
426,192,182256,1,0,0:0:0:0:
483,192,182341,1,0,0:0:0:0:
28,192,182341,1,0,0:0:0:0:
256,192,182341,128,0,183364:0:0:0:0:
85,192,182682,1,0,0:0:0:0:
199,192,182682,1,0,0:0:0:0:
199,192,182852,1,0,0:0:0:0:
85,192,182852,1,0,0:0:0:0:
199,192,183023,1,0,0:0:0:0:
142,192,183108,1,0,0:0:0:0:
85,192,183193,1,0,0:0:0:0:
426,192,183364,128,0,183705:0:0:0:0:
28,192,183364,1,0,0:0:0:0:
28,192,183534,1,0,0:0:0:0:
369,192,183705,128,0,184046:0:0:0:0:
85,192,183705,1,0,0:0:0:0:
142,192,183790,1,0,0:0:0:0:
199,192,183875,1,0,0:0:0:0:
312,192,184046,128,0,184386:0:0:0:0:
28,192,184046,1,0,0:0:0:0:
199,192,184216,1,0,0:0:0:0:
369,192,184386,128,0,184727:0:0:0:0:
199,192,184386,1,0,0:0:0:0:
426,192,184727,128,0,185068:0:0:0:0:
142,192,184727,1,0,0:0:0:0:
142,192,184898,1,0,0:0:0:0:
369,192,185068,128,0,186261:0:0:0:0:
256,192,185068,1,0,0:0:0:0:
28,192,185068,1,0,0:0:0:0:
85,192,185239,1,0,0:0:0:0:
85,192,185409,1,0,0:0:0:0:
256,192,185580,1,0,0:0:0:0:
28,192,185580,1,0,0:0:0:0:
199,192,185750,1,0,0:0:0:0:
199,192,185921,1,0,0:0:0:0:
256,192,186091,1,0,0:0:0:0:
28,192,186091,1,0,0:0:0:0:
483,192,186261,128,0,186432:0:0:0:0:
142,192,186261,1,0,0:0:0:0:
426,192,186432,128,0,186773:0:0:0:0:
256,192,186432,1,0,0:0:0:0:
256,192,186602,1,0,0:0:0:0:
142,192,186688,1,0,0:0:0:0:
483,192,186773,1,0,0:0:0:0:
28,192,186773,1,0,0:0:0:0:
426,192,186858,1,0,0:0:0:0:
369,192,186943,1,0,0:0:0:0:
28,192,186943,1,0,0:0:0:0:
312,192,187028,1,0,0:0:0:0:
256,192,187114,1,0,0:0:0:0:
199,192,187199,1,0,0:0:0:0:
142,192,187284,1,0,0:0:0:0:
85,192,187369,1,0,0:0:0:0:
483,192,187455,1,0,0:0:0:0:
28,192,187455,1,0,0:0:0:0:
426,192,187540,1,0,0:0:0:0:
369,192,187625,1,0,0:0:0:0:
312,192,187710,1,0,0:0:0:0:
256,192,187796,1,0,0:0:0:0:
28,192,187796,128,0,188989:0:0:0:0:
256,192,188818,1,0,0:0:0:0:
312,192,188989,128,0,190523:0:0:0:0:
256,192,190011,1,0,0:0:0:0:
199,192,190182,1,0,0:0:0:0:
142,192,190523,128,0,191716:0:0:0:0:
256,192,191546,1,0,0:0:0:0:
369,192,191716,128,0,192568:0:0:0:0:
28,192,192568,1,0,0:0:0:0:
426,192,192568,128,0,193250:0:0:0:0:
256,192,192739,1,0,0:0:0:0:
256,192,192909,1,0,0:0:0:0:
199,192,193080,1,0,0:0:0:0:
312,192,193250,1,0,0:0:0:0:
199,192,193250,128,0,194614:0:0:0:0:
256,192,193591,1,0,0:0:0:0:
256,192,194273,1,0,0:0:0:0:
312,192,194614,128,0,195977:0:0:0:0:
28,192,194614,1,0,0:0:0:0:
28,192,194955,1,0,0:0:0:0:
28,192,195296,1,0,0:0:0:0:
28,192,195636,1,0,0:0:0:0:
426,192,195977,1,0,0:0:0:0:
28,192,195977,1,0,0:0:0:0:
256,192,196148,1,0,0:0:0:0:
256,192,196318,1,0,0:0:0:0:
256,192,196489,1,0,0:0:0:0:
199,192,196574,1,0,0:0:0:0:
142,192,196659,1,0,0:0:0:0:
85,192,196744,1,0,0:0:0:0:
28,192,196830,1,0,0:0:0:0:
85,192,196915,1,0,0:0:0:0:
142,192,197000,1,0,0:0:0:0:
369,192,197000,1,0,0:0:0:0:
312,192,197085,1,0,0:0:0:0:
142,192,197171,1,0,0:0:0:0:
369,192,197171,1,0,0:0:0:0:
256,192,197171,128,0,197511:0:0:0:0:
199,192,197511,1,0,0:0:0:0:
312,192,197511,1,0,0:0:0:0:
142,192,197682,1,0,0:0:0:0:
369,192,197682,1,0,0:0:0:0:
85,192,197852,1,0,0:0:0:0:
426,192,197852,1,0,0:0:0:0:
483,192,198023,1,0,0:0:0:0:
28,192,198023,1,0,0:0:0:0:
199,192,198193,1,0,0:0:0:0:
256,192,198278,1,0,0:0:0:0:
312,192,198364,1,0,0:0:0:0:
199,192,198449,1,0,0:0:0:0:
312,192,198534,1,0,0:0:0:0:
199,192,198619,1,0,0:0:0:0:
256,192,198705,1,0,0:0:0:0:
142,192,198705,1,0,0:0:0:0:
369,192,198705,1,0,0:0:0:0:
369,192,199046,1,0,0:0:0:0:
142,192,199046,1,0,0:0:0:0:
369,192,199386,1,0,0:0:0:0:
142,192,199386,1,0,0:0:0:0:
142,192,199727,1,0,0:0:0:0:
256,192,199727,1,0,0:0:0:0:
369,192,199727,1,0,0:0:0:0:
312,192,199898,128,0,200409:0:0:0:0:
199,192,199898,1,0,0:0:0:0:
256,192,200409,1,0,0:0:0:0:
142,192,200409,1,0,0:0:0:0:
199,192,200750,1,0,0:0:0:0:
199,192,200921,1,0,0:0:0:0:
85,192,200921,1,0,0:0:0:0:
28,192,201091,1,0,0:0:0:0:
142,192,201091,1,0,0:0:0:0:
256,192,201091,1,0,0:0:0:0:
199,192,201261,1,0,0:0:0:0:
85,192,201261,1,0,0:0:0:0:
142,192,201432,128,0,201773:0:0:0:0:
199,192,201773,1,0,0:0:0:0:
312,192,201773,1,0,0:0:0:0:
256,192,202114,1,0,0:0:0:0:
369,192,202114,128,0,202455:0:0:0:0:
312,192,202455,1,0,0:0:0:0:
426,192,202455,1,0,0:0:0:0:
199,192,202625,1,0,0:0:0:0:
85,192,202625,128,0,203136:0:0:0:0:
142,192,203136,1,0,0:0:0:0:
369,192,203136,1,0,0:0:0:0:
256,192,203477,1,0,0:0:0:0:
199,192,203648,1,0,0:0:0:0:
312,192,203648,1,0,0:0:0:0:
199,192,203818,1,0,0:0:0:0:
312,192,203818,1,0,0:0:0:0:
256,192,203989,1,0,0:0:0:0:
142,192,204159,1,0,0:0:0:0:
369,192,204159,1,0,0:0:0:0:
28,192,204159,128,0,204500:0:0:0:0:
199,192,204500,1,0,0:0:0:0:
312,192,204500,1,0,0:0:0:0:
256,192,204671,1,0,0:0:0:0:
142,192,204841,1,0,0:0:0:0:
142,192,205182,1,0,0:0:0:0:
256,192,205352,1,0,0:0:0:0:
256,192,205523,128,0,205864:0:0:0:0:
483,192,205523,1,0,0:0:0:0:
426,192,205864,1,0,0:0:0:0:
85,192,205864,1,0,0:0:0:0:
369,192,206034,1,0,0:0:0:0:
256,192,206205,1,0,0:0:0:0:
199,192,206375,1,0,0:0:0:0:
312,192,206375,1,0,0:0:0:0:
142,192,206546,1,0,0:0:0:0:
369,192,206546,1,0,0:0:0:0:
312,192,206631,1,0,0:0:0:0:
256,192,206716,1,0,0:0:0:0:
199,192,206801,1,0,0:0:0:0:
142,192,206886,1,0,0:0:0:0:
28,192,206886,1,0,0:0:0:0:
28,192,207057,1,0,0:0:0:0:
142,192,207057,1,0,0:0:0:0:
85,192,207227,1,0,0:0:0:0:
199,192,207227,1,0,0:0:0:0:
199,192,207398,1,0,0:0:0:0:
85,192,207398,1,0,0:0:0:0:
142,192,207568,1,0,0:0:0:0:
256,192,207568,1,0,0:0:0:0:
256,192,207739,1,0,0:0:0:0:
142,192,207739,1,0,0:0:0:0:
199,192,207909,1,0,0:0:0:0:
312,192,207909,1,0,0:0:0:0:
256,192,208080,1,0,0:0:0:0:
369,192,208080,1,0,0:0:0:0:
483,192,208080,128,0,209614:0:0:0:0:
199,192,208165,1,0,0:0:0:0:
142,192,208250,1,0,0:0:0:0:
85,192,208335,1,0,0:0:0:0:
28,192,208421,1,0,0:0:0:0:
85,192,208506,1,0,0:0:0:0:
142,192,208591,1,0,0:0:0:0:
369,192,208591,1,0,0:0:0:0:
256,192,208761,1,0,0:0:0:0:
312,192,208847,1,0,0:0:0:0:
369,192,208932,1,0,0:0:0:0:
312,192,209017,1,0,0:0:0:0:
256,192,209102,1,0,0:0:0:0:
199,192,209188,1,0,0:0:0:0:
142,192,209273,1,0,0:0:0:0:
28,192,209273,1,0,0:0:0:0:
28,192,209443,1,0,0:0:0:0:
142,192,209443,1,0,0:0:0:0:
85,192,209614,1,0,0:0:0:0:
426,192,209614,1,0,0:0:0:0:
256,192,209955,1,0,0:0:0:0:
369,192,209955,1,0,0:0:0:0:
142,192,209955,1,0,0:0:0:0:
199,192,210296,1,0,0:0:0:0:
312,192,210296,1,0,0:0:0:0:
369,192,210636,1,0,0:0:0:0:
256,192,210636,1,0,0:0:0:0:
142,192,210636,1,0,0:0:0:0:
426,192,210977,1,0,0:0:0:0:
85,192,210977,1,0,0:0:0:0:
28,192,211318,1,0,0:0:0:0:
256,192,211318,1,0,0:0:0:0:
483,192,211318,1,0,0:0:0:0:
426,192,211659,1,0,0:0:0:0:
85,192,211659,1,0,0:0:0:0:
142,192,212000,1,0,0:0:0:0:
369,192,212000,1,0,0:0:0:0:
256,192,212000,1,0,0:0:0:0:
256,192,212171,1,0,0:0:0:0:
256,192,212341,1,0,0:0:0:0:
28,192,212341,1,0,0:0:0:0:
312,192,212682,1,0,0:0:0:0:
85,192,212682,1,0,0:0:0:0:
199,192,212682,1,0,0:0:0:0:
142,192,213023,1,0,0:0:0:0:
369,192,213023,1,0,0:0:0:0:
426,192,213364,1,0,0:0:0:0:
199,192,213364,1,0,0:0:0:0:
312,192,213364,1,0,0:0:0:0:
256,192,213705,1,0,0:0:0:0:
369,192,213705,1,0,0:0:0:0:
483,192,213705,1,0,0:0:0:0:
426,192,214046,1,0,0:0:0:0:
312,192,214046,1,0,0:0:0:0:
199,192,214046,1,0,0:0:0:0:
369,192,214216,1,0,0:0:0:0:
256,192,214216,1,0,0:0:0:0:
312,192,214386,1,0,0:0:0:0:
426,192,214386,1,0,0:0:0:0:
199,192,214472,1,0,0:0:0:0:
85,192,214557,1,0,0:0:0:0:
28,192,214727,1,0,0:0:0:0:
483,192,214727,1,0,0:0:0:0:
256,192,214898,1,0,0:0:0:0:
85,192,215068,1,0,0:0:0:0:
199,192,215068,1,0,0:0:0:0:
312,192,215409,1,0,0:0:0:0:
426,192,215409,1,0,0:0:0:0:
369,192,215409,1,0,0:0:0:0:
85,192,215750,1,0,0:0:0:0:
199,192,215750,1,0,0:0:0:0:
256,192,215921,1,0,0:0:0:0:
369,192,216091,1,0,0:0:0:0:
312,192,216091,1,0,0:0:0:0:
426,192,216091,1,0,0:0:0:0:
312,192,216432,1,0,0:0:0:0:
426,192,216432,1,0,0:0:0:0:
199,192,216773,1,0,0:0:0:0:
142,192,216773,1,0,0:0:0:0:
85,192,216773,1,0,0:0:0:0:
312,192,217114,1,0,0:0:0:0:
426,192,217114,1,0,0:0:0:0:
256,192,217284,1,0,0:0:0:0:
199,192,217455,1,0,0:0:0:0:
142,192,217455,1,0,0:0:0:0:
85,192,217455,1,0,0:0:0:0:
85,192,217625,1,0,0:0:0:0:
199,192,217625,1,0,0:0:0:0:
256,192,217796,1,0,0:0:0:0:
483,192,217796,1,0,0:0:0:0:
28,192,217796,128,0,218136:0:0:0:0:
256,192,218136,1,0,0:0:0:0:
426,192,218136,1,0,0:0:0:0:
85,192,218136,1,0,0:0:0:0:
256,192,218477,1,0,0:0:0:0:
369,192,218477,1,0,0:0:0:0:
85,192,218477,128,0,218648:0:0:0:0:
142,192,218648,128,0,218818:0:0:0:0:
199,192,218818,1,0,0:0:0:0:
256,192,218818,1,0,0:0:0:0:
312,192,218818,1,0,0:0:0:0:
85,192,218818,128,0,218989:0:0:0:0:
28,192,218989,128,0,220523:0:0:0:0:
256,192,219159,1,0,0:0:0:0:
256,192,219330,1,0,0:0:0:0:
312,192,219330,1,0,0:0:0:0:
256,192,219500,1,0,0:0:0:0:
369,192,219500,1,0,0:0:0:0:
483,192,219500,1,0,0:0:0:0:
256,192,219671,1,0,0:0:0:0:
483,192,219841,1,0,0:0:0:0:
85,192,219841,1,0,0:0:0:0:
426,192,219926,1,0,0:0:0:0:
369,192,220011,1,0,0:0:0:0:
85,192,220011,1,0,0:0:0:0:
312,192,220097,1,0,0:0:0:0:
256,192,220182,1,0,0:0:0:0:
426,192,220182,1,0,0:0:0:0:
199,192,220267,1,0,0:0:0:0:
142,192,220352,1,0,0:0:0:0:
426,192,220352,1,0,0:0:0:0:
85,192,220438,1,0,0:0:0:0:
256,192,220523,1,0,0:0:0:0:
483,192,220523,1,0,0:0:0:0:
256,192,220864,1,0,0:0:0:0:
369,192,220864,1,0,0:0:0:0:
483,192,220864,1,0,0:0:0:0:
426,192,221205,1,0,0:0:0:0:
199,192,221205,1,0,0:0:0:0:
199,192,221546,1,0,0:0:0:0:
312,192,221546,1,0,0:0:0:0:
426,192,221546,1,0,0:0:0:0:
369,192,221886,1,0,0:0:0:0:
142,192,221886,1,0,0:0:0:0:
142,192,222227,1,0,0:0:0:0:
256,192,222227,1,0,0:0:0:0:
369,192,222227,1,0,0:0:0:0:
312,192,222568,1,0,0:0:0:0:
85,192,222568,1,0,0:0:0:0:
199,192,222739,1,0,0:0:0:0:
85,192,222739,1,0,0:0:0:0:
312,192,222739,1,0,0:0:0:0:
199,192,222909,1,0,0:0:0:0:
85,192,222909,1,0,0:0:0:0:
312,192,222909,1,0,0:0:0:0:
256,192,223080,1,0,0:0:0:0:
142,192,223080,1,0,0:0:0:0:
256,192,223250,1,0,0:0:0:0:
142,192,223250,128,0,223591:0:0:0:0:
85,192,223421,1,0,0:0:0:0:
85,192,223591,1,0,0:0:0:0:
28,192,223591,1,0,0:0:0:0:
426,192,223761,1,0,0:0:0:0:
483,192,223761,1,0,0:0:0:0:
142,192,223932,1,0,0:0:0:0:
256,192,223932,1,0,0:0:0:0:
312,192,224017,1,0,0:0:0:0:
199,192,224102,1,0,0:0:0:0:
256,192,224273,1,0,0:0:0:0:
483,192,224273,1,0,0:0:0:0:
142,192,224443,1,0,0:0:0:0:
369,192,224443,128,0,224955:0:0:0:0:
199,192,224955,1,0,0:0:0:0:
312,192,224955,1,0,0:0:0:0:
256,192,225296,1,0,0:0:0:0:
256,192,225636,1,0,0:0:0:0:
483,192,225636,1,0,0:0:0:0:
426,192,225807,1,0,0:0:0:0:
312,192,225807,1,0,0:0:0:0:
369,192,225977,1,0,0:0:0:0:
256,192,225977,1,0,0:0:0:0:
142,192,225977,128,0,226318:0:0:0:0:
199,192,226318,1,0,0:0:0:0:
312,192,226318,1,0,0:0:0:0:
426,192,226318,1,0,0:0:0:0:
199,192,226659,1,0,0:0:0:0:
312,192,226659,1,0,0:0:0:0:
426,192,226659,1,0,0:0:0:0:
28,192,227000,1,0,0:0:0:0:
142,192,227000,1,0,0:0:0:0:
256,192,227000,1,0,0:0:0:0:
199,192,227171,1,0,0:0:0:0:
85,192,227171,128,0,227682:0:0:0:0:
142,192,227341,1,0,0:0:0:0:
199,192,227511,1,0,0:0:0:0:
256,192,227682,1,0,0:0:0:0:
369,192,227682,1,0,0:0:0:0:
483,192,227682,1,0,0:0:0:0:
312,192,228023,1,0,0:0:0:0:
426,192,228023,1,0,0:0:0:0:
369,192,228193,1,0,0:0:0:0:
312,192,228364,1,0,0:0:0:0:
199,192,228364,1,0,0:0:0:0:
85,192,228364,1,0,0:0:0:0:
256,192,228534,1,0,0:0:0:0:
199,192,228705,1,0,0:0:0:0:
312,192,228705,1,0,0:0:0:0:
85,192,228705,1,0,0:0:0:0:
256,192,228875,1,0,0:0:0:0:
85,192,229046,1,0,0:0:0:0:
199,192,229046,1,0,0:0:0:0:
312,192,229046,1,0,0:0:0:0:
142,192,229216,1,0,0:0:0:0:
256,192,229216,1,0,0:0:0:0:
199,192,229386,1,0,0:0:0:0:
256,192,229472,1,0,0:0:0:0:
312,192,229557,1,0,0:0:0:0:
369,192,229642,1,0,0:0:0:0:
426,192,229727,1,0,0:0:0:0:
85,192,229727,1,0,0:0:0:0:
28,192,229898,1,0,0:0:0:0:
483,192,229898,1,0,0:0:0:0:
256,192,229898,128,0,231091:0:0:0:0:
312,192,230409,1,0,0:0:0:0:
199,192,230409,1,0,0:0:0:0:
85,192,230409,1,0,0:0:0:0:
199,192,230580,1,0,0:0:0:0:
312,192,230580,1,0,0:0:0:0:
28,192,230750,1,0,0:0:0:0:
85,192,230835,1,0,0:0:0:0:
142,192,230921,1,0,0:0:0:0:
199,192,231006,1,0,0:0:0:0:
426,192,231091,1,0,0:0:0:0:
483,192,231091,1,0,0:0:0:0:
312,192,231091,1,0,0:0:0:0:
199,192,231261,1,0,0:0:0:0:
256,192,231347,1,0,0:0:0:0:
312,192,231432,128,0,231602:0:0:0:0:
369,192,231602,128,0,231773:0:0:0:0:
312,192,231773,128,0,231943:0:0:0:0:
85,192,231773,1,0,0:0:0:0:
369,192,231943,128,0,232114:0:0:0:0:
312,192,232114,128,0,232625:0:0:0:0:
28,192,232114,1,0,0:0:0:0:
142,192,232199,1,0,0:0:0:0:
256,192,232284,1,0,0:0:0:0:
85,192,232455,1,0,0:0:0:0:
142,192,232455,1,0,0:0:0:0:
199,192,232625,128,0,232966:0:0:0:0:
28,192,232625,1,0,0:0:0:0:
483,192,232625,1,0,0:0:0:0:
369,192,232625,1,0,0:0:0:0:
256,192,232796,1,0,0:0:0:0:
256,192,232966,1,0,0:0:0:0:
