osu file format v9

[General]
AudioFilename: Opening.mp3
AudioLeadIn: 993
PreviewTime: 46166
Countdown: 0
SampleSet: Normal
StackLeniency: 1
Mode: 0
LetterboxInBreaks: 1

[Editor]
DistanceSpacing: 1
BeatDivisor: 4
GridSize: 8

[Metadata]
Title:Lunatic Delusion
Artist:nao
Creator:PSPDS Eddie
Version:Normal
Source:GOTHIC DELUSION
Tags:

[Difficulty]
HPDrainRate:3
CircleSize:3
OverallDifficulty:3
ApproachRate:3
SliderMultiplier:0.799999999999999
SliderTickRate:1

[Events]
//Background and Video events
Video,0,"2.avi"
0,0,"21.jpg"
//Break Periods
2,65768,67304
//Storyboard Layer 0 (Background)
//Storyboard Layer 1 (Fail)
//Storyboard Layer 2 (Pass)
//Storyboard Layer 3 (Foreground)
//Storyboard Sound Samples
//Background Colour Transformations
3,100,163,162,255

[TimingPoints]
980,352.941176470588,4,1,0,70,1,0
22509,-100,4,1,0,50,0,0
22862,-100,4,1,0,30,0,0
23215,-100,4,1,0,10,0,0
23568,-100,4,1,0,70,0,0
46509,-100,4,1,0,70,0,1
46597,-100,4,1,0,70,0,0
68744,-100,4,1,0,70,0,1
68832,-100,4,1,0,70,0,0
74391,-100,4,1,0,70,0,1
74479,-100,4,1,0,70,0,0
80038,-100,4,1,0,70,0,1
80127,-100,4,1,0,70,0,0

[HitObjects]
256,232,979,2,0,B|128:232,2,120
256,152,2391,2,0,B|384:152,2,120
176,152,3803,2,0,B|176:32,2,120
176,232,5215,2,0,B|312:232,2,120,0|0|4
176,152,6627,6,0,B|312:152,1,120
416,152,7685,1,0
416,232,8038,2,0,B|288:232,1,120
176,232,9097,1,0
256,192,9450,12,0,10509
256,192,11215,5,0
256,192,11568,2,0,B|352:192,1,79.9999999999999,4|4
416,192,12274,2,0,B|416:264|344:288,2,120,4|0|0
416,112,13685,2,0,B|384:48|312:48,2,120,4|0|0
344,152,15097,6,0,B|208:152,2,120,4|0|0
344,232,16509,1,0
264,256,16862,1,0
184,232,17215,1,4
64,288,17921,6,0,B|104:352|168:360,2,120
144,264,19332,2,0,B|208:288|264:272,2,120
176,192,20744,1,0
216,120,21097,1,0
296,120,21450,1,0
336,192,21803,1,0
256,192,22156,2,0,B|256:280,4,79.9999999999999,0|0|0|0|4
256,112,23921,6,0,B|416:112,2,160
200,56,25685,1,0
136,104,26038,1,0
64,72,26391,2,0,B|32:152|64:232,2,160
136,104,28156,1,0
136,104,28509,1,4
256,216,29215,6,0,B|352:216,2,79.9999999999999
256,296,30274,1,0
184,256,30627,1,0
136,328,30979,2,0,B|48:328,2,79.9999999999999
104,256,32038,6,0,B|80:208|88:168,1,79.9999999999999
88,96,32744,2,0,B|120:56|168:48,1,79.9999999999999
232,40,33450,2,0,B|288:32|328:48,1,79.9999999999999
384,64,34156,2,0,B|432:80|448:128,1,79.9999999999999
368,144,34862,6,0,B|296:144,2,59.9999999999999,4|0|0
384,184,35568,2,0,B|416:216|432:264,1,79.9999999999999
368,304,36274,2,0,B|312:336,2,59.9999999999999,0|0|0
344,272,36979,2,0,B|304:248|256:248,1,79.9999999999999
192,248,37685,6,0,B|120:248,2,59.9999999999999
192,208,38391,2,0,B|192:128,1,79.9999999999999
256,80,39097,2,0,B|256:8,2,59.9999999999999,0|0|0
296,80,39803,2,0,B|344:80|384:104,1,79.9999999999999
328,168,40509,6,0,B|328:240,2,59.9999999999999
288,168,41215,1,0
208,168,41568,1,0
168,240,41921,2,0,B|168:304,2,59.9999999999999,0|0|0
128,240,42627,1,0
48,224,42979,1,0
40,144,43332,6,0,B|64:56|168:56,1,160,0|0
240,56,44391,1,0
248,136,44744,2,0,B|248:272,2,120
248,136,46156,5,0
248,136,46509,2,0,B|328:136,1,79.9999999999999,4|0
328,216,47215,2,0,B|408:248,1,79.9999999999999
360,320,47921,1,0
280,320,48274,2,0,B|232:296|192:328,1,79.9999999999999
120,320,48979,5,0
48,280,49332,1,0
48,200,49685,1,0
120,160,50038,1,0
120,240,50391,2,0,B|200:240,2,79.9999999999999,0|0|4
152,80,51803,6,0,B|176:128|224:128,1,79.9999999999999
232,48,52509,2,0,B|280:56|296:96,1,79.9999999999999
296,176,53215,1,0
368,136,53568,1,0
424,200,53921,1,0
352,240,54274,1,0
296,296,54627,6,0,B|232:344|136:328,2,160
256,224,56391,1,0
176,248,56744,1,0
96,224,57097,2,0,B|72:224|48:208,2,40,0|0|4
152,168,57803,6,0,B|128:144|152:80,2,79.9999999999999
224,136,58862,1,0
288,184,59215,1,0
352,136,59568,2,0,B|440:136,2,79.9999999999999
352,216,60627,6,0,B|408:216,2,40
320,288,61332,1,0
256,336,61685,2,0,B|216:352|168:336,1,79.9999999999999
112,296,62391,2,0,B|72:280|56:232,1,79.9999999999999
56,160,63097,2,0,B|56:64,2,79.9999999999999
128,192,64156,1,0
208,192,64509,5,0
208,192,64862,1,4
304,192,65215,5,0
304,192,65568,1,4
256,192,68744,5,4
312,248,69097,2,0,B|288:280|240:296,1,79.9999999999999
192,240,69803,2,0,B|152:256|104:240,1,79.9999999999999
48,192,70509,2,0,B|48:96,2,79.9999999999999
128,168,71568,2,0,B|176:152|192:112,1,79.9999999999999
232,48,72274,6,0,B|192:24,2,40
264,72,72803,2,0,B|304:96|352:112,1,79.9999999999999
368,128,73332,2,0,B|400:160|408:200,1,79.9999999999999
408,240,73862,2,0,B|384:280|336:296,1,79.9999999999999
304,320,74391,6,0,B|248:328|208:320,1,79.9999999999999,4|0
144,320,75097,2,0,B|96:312|64:288,2,79.9999999999999
184,248,76156,2,0,B|184:160,2,79.9999999999999
104,224,77215,6,0,B|64:192|56:152,1,79.9999999999999
48,120,77744,2,0,B|88:88|128:80,1,79.9999999999999
200,64,78450,2,0,B|240:72|288:64,1,79.9999999999999
352,104,79156,2,0,B|392:128|408:176,2,79.9999999999999
352,104,80038,1,4
328,184,80391,6,0,B|328:272,1,79.9999999999999
248,240,81097,2,0,B|192:304,1,79.9999999999999
120,280,81803,1,0
72,216,82156,1,0
88,136,82509,1,0
144,80,82862,6,0,B|184:48|224:48,1,79.9999999999999
216,128,83568,2,0,B|264:128|296:88,1,79.9999999999999
320,72,84097,2,0,B|360:96|384:136,1,79.9999999999999
392,160,84627,2,0,B|416:192|408:248,1,79.9999999999999
400,272,85156,2,0,B|376:312|336:320,1,79.9999999999999
216,320,86038,6,0,B|120:320,2,79.9999999999999
184,248,87097,1,0
152,176,87450,2,0,B|64:176,2,79.9999999999999
192,104,88509,2,0,B|272:72|360:112,1,160
256,240,89921,5,0
320,288,90274,1,0
336,208,90627,1,0
272,160,90979,1,0
192,176,91332,2,0,B|168:208|168:264,1,79.9999999999999
168,328,92038,2,0,B|136:360|88:352,1,79.9999999999999
40,296,92744,1,0
96,240,93097,1,0
40,184,93450,1,0
96,128,93803,1,0
256,192,93979,12,0,96979
176,288,97685,5,0
336,288,98391,1,0
256,152,99097,6,0,B|256:72,4,79.9999999999999
256,232,100862,1,4
256,232,101038,1,4
