osu file format v9

[General]
AudioFilename: Opening.mp3
AudioLeadIn: 993
PreviewTime: 46166
Countdown: 0
SampleSet: Normal
StackLeniency: 1
Mode: 0
LetterboxInBreaks: 1

[Editor]
DistanceSpacing: 0.8
BeatDivisor: 2
GridSize: 8

[Metadata]
Title:Lunatic Delusion
Artist:nao
Creator:PSPDS Eddie
Version:Easy
Source:GOTHIC DELUSION
Tags:

[Difficulty]
HPDrainRate:2
CircleSize:3
OverallDifficulty:2
ApproachRate:2
SliderMultiplier:0.600000005960464
SliderTickRate:1

[Events]
//Background and Video events
Video,0,"2.avi"
0,0,"21.jpg"
//Break Periods
2,65415,67184
//Storyboard Layer 0 (Background)
//Storyboard Layer 1 (Fail)
//Storyboard Layer 2 (Pass)
//Storyboard Layer 3 (Foreground)
//Storyboard Sound Samples
//Background Colour Transformations
3,100,163,162,255

[TimingPoints]
980,352.941176470588,4,1,0,70,1,0
22509,-100,4,1,0,50,0,0
22862,-100,4,1,0,30,0,0
23215,-100,4,1,0,10,0,0
23568,-100,4,1,0,70,0,0
46509,-100,4,1,0,70,0,1
46597,-100,4,1,0,70,0,0
68744,-100,4,1,0,70,0,1
68832,-100,4,1,0,70,0,0
74391,-100,4,1,0,70,0,1
74479,-100,4,1,0,70,0,0
80038,-100,4,1,0,70,0,1
80127,-100,4,1,0,70,0,0
96979,-100,4,1,0,70,0,0

[HitObjects]
368,296,979,2,0,B|184:296,1,180.000001788139
136,296,2391,2,0,B|136:104,1,180.000001788139
136,64,3803,2,0,B|320:64,1,180.000001788139
368,64,5215,2,0,B|368:256,1,180.000001788139
368,296,6627,6,0,B|296:312|232:288,1,120.000001192093
160,256,8038,2,0,B|144:184|168:112,1,120.000001192093
256,192,9450,12,4,11568
368,192,12274,6,0,B|360:264|296:288,1,120.000001192093
256,200,13685,2,0,B|224:128|152:136,1,120.000001192093
160,232,15097,2,0,B|88:264|32:224,1,120.000001192093
32,136,16509,1,0
44,38,17215,1,0
136,72,17921,6,0,B|176:120|248:120,1,120.000001192093
248,216,19332,2,0,B|320:240|368:216,1,120.000001192093
344,120,20744,1,0
440,120,21450,1,0
472,208,22156,2,0,B|472:328,2,120.000001192093,0|0|4
376,192,24274,5,0
280,192,24979,1,0
256,288,25685,2,0,B|192:312|120:288,1,120.000001192093
48,256,27097,2,0,B|72:192|144:184,1,120.000001192093
232,184,28509,1,0
328,184,29215,6,0,B|448:184,2,120.000001192093
256,248,31332,1,0
256,344,32038,2,0,B|320:376|384:344,1,120.000001192093
416,264,33450,2,0,B|440:200|416:144,1,120.000001192093
321,146,34862,6,0,B|201:146,2,120.000001192093,4|0|0
320,48,36979,1,0
224,48,37685,2,0,B|96:48,1,120.000001192093,4|0
104,144,39097,1,0
16,96,39803,1,0
16,192,40509,1,4
96,240,41215,6,0,B|120:296|208:304,1,120.000001192093
200,208,42627,1,0
200,112,43332,2,0,B|224:40|296:32,1,120.000001192093,4|0
376,32,44744,2,0,B|376:152,2,120.000001192093
296,88,46862,6,0,B|232:104|176:88,1,120.000001192093,4|0
80,72,48274,1,0
112,160,48979,2,0,B|160:216|224:224,1,120.000001192093,4|0
312,224,50391,2,0,B|376:224,2,60.0000005960464,0|0|4
312,320,51803,6,0,B|248:344|176:344,1,120.000001192093
96,360,53215,1,0
56,272,53921,1,0
112,192,54627,2,0,B|192:192|240:232,2,120.000001192093
56,112,56744,1,0
56,112,57450,1,4
112,192,58156,6,0,B|160:136|232:128,1,120.000001192093
312,128,59568,2,0,B|376:128,2,60.0000005960464
312,224,60979,1,0
312,320,61685,2,0,B|392:320,2,60.0000005960464
216,320,63097,6,0,B|72:320,2,120.000001192093,0|0|4
216,224,65215,1,4
256,192,68744,5,4
256,288,69450,2,0,B|216:336|144:344,1,120.000001192093
80,280,70862,1,0
112,192,71568,2,0,B|176:176|200:104,1,120.000001192093
256,40,72979,2,0,B|304:80|384:80,2,120.000001192093,0|0|4
256,136,75097,6,0,B|180:119|148:55,2,120.000001192093
168,184,77215,2,0,B|120:232|128:304,1,120.000001192093
208,344,78627,2,0,B|296:384|384:352,1,180.000001788139
424,264,80391,6,0,B|448:200|416:136,1,120.000001192093
344,208,81803,1,0
248,232,82509,1,0
160,200,83215,2,0,B|88:184|40:128,1,120.000001192093
120,72,84627,2,0,B|176:56|232:72,1,90.0000008940696
328,64,86038,6,0,B|448:64,2,120.000001192093
328,160,88156,1,0
328,256,88862,1,0
328,160,89568,1,0
408,208,90274,2,0,B|488:208,2,60.0000005960464
408,256,91332,6,0,B|376:304|312:336,1,120.000001192093
224,360,92744,1,0
176,280,93450,1,0
256,192,94156,12,0,96980
208,144,97685,5,0
208,240,98391,1,0
304,240,99097,1,0
304,144,99803,1,0
208,144,100509,1,0
208,192,100862,2,4,B|208:230,1,30.0000002980232
