osu file format v9

[General]
AudioFilename: Opening.mp3
AudioLeadIn: 993
PreviewTime: 46166
Countdown: 0
SampleSet: Normal
StackLeniency: 0.7
Mode: 0
LetterboxInBreaks: 1

[Editor]
DistanceSpacing: 1
BeatDivisor: 4
GridSize: 8

[Metadata]
Title:Lunatic Delusion
Artist:nao
Creator:PSPDS Eddie
Version:Insane
Source:GOTHIC DELUSION
Tags:

[Difficulty]
HPDrainRate:8
CircleSize:4
OverallDifficulty:7
ApproachRate:8
SliderMultiplier:1.7
SliderTickRate:1

[Events]
//Background and Video events
Video,0,"2.avi"
0,0,"BG.png"
//Break Periods
//Storyboard Layer 0 (Background)
//Storyboard Layer 1 (Fail)
//Storyboard Layer 2 (Pass)
//Storyboard Layer 3 (Foreground)
//Storyboard Sound Samples
//Background Colour Transformations
3,100,163,162,255

[TimingPoints]
980,352.941176470588,4,1,0,70,1,0
22509,-100,4,1,0,50,0,0
22862,-100,4,1,0,30,0,0
23215,-100,4,1,0,10,0,0
23568,-100,4,1,0,60,0,0
46156,-200,4,1,0,70,0,0
46509,-100,4,1,0,70,0,1
46597,-100,4,1,0,70,0,0
68744,-100,4,1,0,70,0,1
68832,-100,4,1,0,70,0,0
74391,-100,4,1,0,70,0,1
74479,-100,4,1,0,70,0,0
80038,-100,4,1,0,70,0,1
80127,-100,4,1,0,70,0,0
96627,-200,4,1,0,70,0,0
96979,-100,4,1,0,70,0,0
101215,-100,4,2,0,0,0,0

[HitObjects]
200,192,980,2,0,B|344:192,4,127.5
40,144,2391,2,0,B|112:120|144:48,1,127.5
256,104,2921,2,0,B|328:136|392:96,2,127.5
256,272,3803,5,0
352,192,4068,1,0
256,104,4332,1,0
160,192,4597,1,0
256,272,4862,6,0,B|344:272,2,85
160,192,5479,1,0
256,104,5744,1,0
352,192,6009,2,0,B|400:192,3,42.5
480,200,6627,6,0,B|456:272|352:296,1,127.5
264,280,7156,2,0,B|198:267|174:195,1,127.5
304,192,7685,1,0
376,144,7862,1,0
384,64,8038,6,0,B|320:88|232:56,1,127.5,0|0
136,32,8568,2,0,B|64:64|72:160,1,127.5
184,192,9097,1,0
184,192,9185,1,0
184,192,9274,1,0
112,240,9450,2,0,B|160:296|232:296,3,127.5
352,312,10509,5,0
424,264,10685,1,0
352,224,10862,2,0,B|368:152|312:72,1,127.5
304,136,11215,2,0,B|256:168|192:160,1,85
184,88,11568,1,0
160,88,11656,1,0
136,104,11744,1,0
120,120,11832,1,0
104,144,11921,1,0
96,168,12009,1,0
96,192,12097,1,0
104,216,12185,1,0
120,240,12274,6,0,B|152:312|272:312,1,170,4|0
328,264,12803,2,0,B|224:216|232:120,1,170
312,48,13332,5,0
360,160,13509,1,0
232,136,13685,2,0,B|160:136|112:88,2,127.5
336,88,14391,5,0
320,208,14568,1,0
432,168,14744,1,0
440,208,14832,1,0
424,248,14921,1,0
336,328,15097,6,0,B|240:304|136:336,1,170,0|0
88,272,15627,2,0,B|184:264|256:216,1,170
264,136,16156,1,0
336,184,16332,1,0
336,96,16509,6,0,B|440:96,2,85,0|0|0
264,136,17038,1,0
192,96,17215,1,0
192,96,17303,1,0
192,96,17391,1,0
192,184,17568,1,0
192,184,17656,1,0
192,184,17744,1,0
88,208,17921,6,0,B|104:296|224:336,1,170
280,344,18450,2,0,B|392:344|432:232,1,170
336,232,18979,1,0
272,176,19156,1,0
336,120,19332,6,0,B|424:120,2,85
272,176,19862,1,0
208,120,20038,1,0
208,120,20127,1,0
208,120,20215,1,0
192,208,20391,1,0
192,208,20479,1,0
192,208,20568,1,0
96,176,20744,5,0
96,176,20921,1,0
72,264,21097,1,0
72,264,21274,2,0,B|136:336|240:336,1,170
304,320,21803,1,0
376,280,21979,1,0
408,200,22156,2,0,B|432:96,1,85
344,120,22509,2,0,B|304:40,1,85
232,88,22862,2,0,B|192:88,16,21.25,0|0|0|0|0|0|0|0|0|0|0|0|0|0|0|0|4
136,232,23921,5,0
112,312,24097,1,0
200,312,24274,2,0,B|248:336|304:312,1,85
368,304,24627,1,0
368,304,24803,2,0,B|472:264|456:168,1,170
376,152,25332,1,0
328,224,25509,6,0,B|224:256|168:192,1,170
200,112,26038,1,0
112,112,26215,1,0
80,192,26391,2,0,B|80:264|16:296,2,127.5
136,256,27097,2,0,B|232:280|264:360,1,170
328,304,27627,2,0,B|400:248|496:280,2,170
256,120,28685,5,0
256,136,28774,1,0
256,152,28862,1,0
256,168,28950,1,0
256,184,29038,1,0
256,200,29127,1,0
256,216,29215,6,0,B|256:352,2,127.5
144,184,29921,1,0
112,72,30097,1,0
24,152,30274,1,0
144,128,30450,1,0
88,232,30627,6,0,B|200:248|264:192,1,170
256,120,31156,2,0,B|344:96|424:152,1,170
472,216,31685,1,0
472,216,31862,1,0
392,256,32038,2,0,B|440:312|528:296,2,127.5
312,280,32744,1,0
232,256,32921,1,0
296,200,33097,1,0
216,176,33274,1,0
80,280,33627,5,0
80,280,33715,1,0
48,200,33891,1,0
48,200,33979,1,0
80,120,34156,1,0
112,88,34244,1,0
144,64,34332,1,0
184,48,34421,1,0
224,40,34509,1,0
264,40,34597,1,0
304,48,34685,1,0
344,64,34774,1,0
384,88,34862,6,0,B|432:152|432:240,2,127.5,4|0|0
360,208,35568,1,0
288,112,35744,1,0
288,240,35921,1,0
216,144,36097,1,0
112,208,36274,6,0,B|48:160|40:96,2,127.5,4|0|0
216,144,36980,1,0
328,176,37156,1,0
296,288,37332,1,0
184,248,37509,1,0
168,352,37685,6,0,B|96:360|8:336,2,127.5,4|0|0
288,352,38391,2,0,B|400:304,1,85
256,264,38744,2,0,B|312:200,1,85
432,192,39097,5,4
256,152,39362,1,0
80,192,39627,1,0
152,96,39803,5,0
152,96,39891,1,0
152,96,39980,1,0
256,40,40156,1,0
256,40,40244,1,0
256,40,40332,1,0
256,40,40421,1,0
256,40,40509,6,0,B|392:40,2,127.5,4|0|0
160,112,41215,1,0
280,136,41391,1,0
216,232,41568,1,0
336,256,41744,1,0
256,344,41921,6,0,B|112:344,2,127.5,4|0|0
192,240,42627,1,0
272,152,42803,1,0
224,40,42980,1,0
136,128,43156,1,0
40,192,43332,6,0,B|40:64,2,127.5,4|0|0
136,264,44038,1,0
208,168,44215,1,0
296,240,44391,1,0
368,144,44568,1,0
480,192,44744,2,0,B|480:320,2,127.5,4|0|0
480,72,45450,5,4
456,80,45538,1,0
432,88,45627,1,0
408,96,45715,1,0
384,96,45803,1,0
360,96,45891,1,0
336,88,45980,1,0
312,80,46068,1,0
288,72,46156,2,0,B|200:72,1,85,4|0
32,152,46862,6,0,B|40:232|136:280,1,170
176,352,47391,2,0,B|272:376|368:328,1,170
416,296,47921,1,0
392,216,48097,1,0
320,256,48274,2,0,B|240:216,2,85
392,216,48803,5,0
440,144,48980,2,0,B|392:72|272:64,1,170
280,152,49509,1,0
192,160,49685,1,0
192,160,49774,1,0
192,160,49862,1,0
184,72,50038,1,0
96,64,50215,1,0
64,144,50391,2,0,B|64:256,2,85
96,64,50921,5,0
184,72,51097,1,0
264,104,51274,1,0
288,144,51362,1,0
280,184,51450,1,0
200,160,51627,1,0
120,184,51803,6,0,B|144:280|240:312,1,170
288,248,52332,1,0
344,312,52509,2,0,B|426:284|450:188,1,170
384,136,53038,1,0
304,96,53215,2,0,B|360:8,2,85
224,136,53744,1,0
160,192,53921,1,0
96,136,54097,1,0
160,80,54274,1,0
224,136,54450,1,0
296,184,54627,6,0,B|376:216|488:176,1,170
462,269,55156,2,0,B|375:300|295:268,1,170
224,232,55685,1,0
184,304,55862,1,0
120,248,56038,6,0,B|16:224,1,85
104,176,56391,2,0,B|72:96,1,85
160,112,56744,1,0
160,112,56832,1,0
160,112,56921,1,0
232,72,57097,1,0
256,88,57185,1,0
288,96,57274,1,0
320,88,57362,1,0
352,72,57450,1,4
392,232,57803,5,0
360,152,57980,1,0
448,160,58156,2,0,B|491:211|472:256,2,85
360,152,58685,6,0,B|272:168|184:120,1,170
112,96,59215,2,0,B|72:184|112:264,1,170
120,288,59656,1,0
144,312,59744,1,0
192,232,59921,1,0
208,264,60009,1,0
232,288,60097,1,0
264,304,60185,1,0
296,312,60274,6,0,B|344:328|384:304,2,85
328,232,60803,1,0
376,160,60980,2,0,B|296:128|192:152,1,170,0|0
152,80,61509,2,0,B|248:48|352:64,1,170
400,80,62038,1,0
464,136,62215,1,0
472,224,62391,1,0
440,304,62568,1,0
368,344,62744,1,0
280,352,62921,1,0
200,312,63097,6,0,B|128:248|16:256,2,170
200,224,63980,2,0,B|200:104,2,85
280,264,64509,1,0
280,176,64685,1,0
352,128,64862,1,4
352,128,64950,1,0
352,128,65038,1,0
424,176,65215,5,0
424,264,65391,1,0
352,224,65568,1,4
352,224,65656,1,0
352,224,65744,1,0
280,176,65921,6,0,B|280:64,2,85
168,304,66450,2,0,B|80:304,2,85
88,192,66979,5,0
40,64,67156,1,0
88,192,67332,1,0
224,192,67509,5,0
256,64,67685,1,0
224,192,67862,1,0
256,320,68038,5,4
256,320,68215,1,4
432,192,68744,5,4
216,288,69097,5,0
304,208,69274,1,0
184,200,69450,1,0
288,144,69627,1,0
176,104,69803,1,0
288,80,69980,6,0,B|408:104|440:160,1,170
432,240,70509,2,0,B|336:224|264:304,1,170
200,328,71038,1,0
80,304,71215,1,0
64,184,71391,1,0
176,216,71568,6,0,B|176:128,2,85
256,192,72097,1,0
336,216,72274,2,0,B|336:312,2,85
256,192,72803,1,0
192,32,73156,5,0
256,88,73332,1,0
320,32,73509,1,0
384,88,73685,1,0
464,64,73862,1,0
464,152,74038,5,0
456,184,74127,1,0
440,216,74215,1,0
416,240,74303,1,0
384,256,74391,1,4
256,312,74744,5,0
144,360,74921,1,0
48,296,75097,1,0
72,176,75274,1,0
144,264,75450,1,0
248,208,75627,6,0,B|320:264|432:272,1,170
376,192,76156,1,0
400,112,76332,1,0
320,128,76509,2,0,B|224:160|144:128,1,170
80,96,77038,1,0
152,56,77215,2,0,B|240:24|320:56,1,170
392,96,77744,2,0,B|480:168|456:272,1,170
448,288,78185,1,0
416,312,78274,1,0
336,280,78450,6,0,B|240:264|152:280,1,170
112,208,78980,1,0
168,144,79156,2,0,B|248:160|352:144,1,170
288,80,79685,1,0
320,64,79774,1,0
352,64,79862,1,0
384,72,79950,1,0
408,96,80038,1,4
440,264,80391,5,0
344,328,80568,1,0
248,264,80744,1,0
344,192,80921,1,0
440,264,81097,1,0
344,328,81274,6,0,B|256:296|160:328,1,170
112,264,81803,2,0,B|128:168|48:96,1,170
112,40,82332,1,0
216,88,82509,1,0
328,40,82685,1,0
216,88,82862,6,0,B|216:176,2,85
296,128,83391,1,0
368,176,83568,2,0,B|368:264,2,85
296,128,84097,1,4
136,192,84450,6,0,B|40:192,2,85
168,272,84980,2,0,B|72:272,2,85
200,352,85509,2,0,B|280:376|376:352,1,170
368,272,86038,2,0,B|416:184,2,85
288,248,86568,2,0,B|216:200,1,85
168,272,86921,2,0,B|96:200|176:104,1,170
120,48,87450,1,0
208,40,87627,1,0
256,112,87803,2,0,B|360:112,2,85
368,240,88509,6,0,B|312:320|200:328,1,170
144,312,89038,1,0
88,248,89215,2,0,B|48:280|64:344,2,85
64,168,89744,1,0
96,88,89921,6,0,B|200:88|256:24,1,170
272,112,90450,1,0
264,200,90627,2,0,B|368:184|352:80,1,170
440,96,91156,2,0,B|448:192|376:256,1,170
312,288,91685,5,0
256,352,91862,1,0
200,288,92038,2,0,B|96:320,2,85
144,224,92568,2,0,B|112:120|200:56,1,170
264,88,93097,1,0
224,160,93274,1,0
304,192,93450,2,0,B|416:192,2,85
256,192,93980,12,4,95215
296,192,95568,6,0,B|368:192,2,56.6666666666667
256,232,95921,2,0,B|256:296,2,56.6666666666667
216,192,96274,2,0,B|136:192,2,56.6666666666667
256,152,96627,2,0,B|256:64,1,85
400,232,97332,6,0,B|400:136,2,85
256,328,98038,1,0
256,328,98215,1,0
112,232,98568,1,0
112,232,98744,1,0
256,136,99097,2,0,B|344:104|432:136,1,170
424,256,99627,2,0,B|328:280|240:248,1,170
176,192,100156,5,0
256,104,100332,1,0
336,192,100509,1,0
256,104,100685,1,0
176,192,100862,1,0
256,104,101038,1,4
256,192,101215,12,0,102627
